#VERSION:0.83;
#TITLE:HUSHH;
#SUBTITLE:;
#ARTIST:AViVA;
#TITLETRANSLIT:;
#SUBTITLETRANSLIT:;
#ARTISTTRANSLIT:;
#GENRE:;
#ORIGIN:;
#CREDIT:MrTwinkles;
#BANNER:HUSHH [MrTwinkles].png;
#BACKGROUND:HUSHH [MrTwinkles]-bg.png;
#PREVIEWVID:;
#JACKET:;
#CDIMAGE:;
#DISCIMAGE:;
#LYRICSPATH:;
#CDTITLE:;
#MUSIC:HUSHH [MrTwinkles].ogg;
#OFFSET:-0.170000;
#SAMPLESTART:34.988998;
#SAMPLELENGTH:16.410000;
#SELECTABLE:YES;
#BPMS:0.000=117.078,
131.000=58.539,
147.000=117.078;
#STOPS:;
#DELAYS:;
#WARPS:;
#TIMESIGNATURES:0.000=4=4;
#TICKCOUNTS:0.000=4;
#COMBOS:0.000=1;
#SPEEDS:0.000=1.000=0.000=0;
#SCROLLS:0.000=1.000;
#FAKES:;
#LABELS:0.000=Song Start;
#BGCHANGES:0.230=HUSHH [MrTwinkles].avi=1.000=0=0=0=StretchNoLoop====,
99999=-nosongbg-=1.000=0=0=0 // don't automatically add -songbackground-
;
#KEYSOUNDS:;
#ATTACKS:
;

//---------------dance-single - MrTwinkles----------------
#NOTEDATA:;
#CHARTNAME:MrTwinkles;
#STEPSTYPE:dance-single;
#DESCRIPTION:MrTwinkles;
#CHARTSTYLE:;
#DIFFICULTY:Hard;
#METER:12;
#RADARVALUES:0.434074,0.587173,0.624127,0.254578,0.197093,370.000000,294.000000,76.000000,31.000000,0.000000,0.000000,4.000000,0.000000,0.000000,0.434074,0.587173,0.624127,0.254578,0.197093,370.000000,294.000000,76.000000,31.000000,0.000000,0.000000,4.000000,0.000000,0.000000;
#CREDIT:MrTwinkles;
#NOTES:
0000
0000
0000
0000
,
0000
0000
0000
0000
,
0000
0000
0000
0000
,
0000
0000
0000
0000
,
0000
0000
0000
0000
,
0101
0000
0010
0012
0000
0003
1100
0000
,
0000
1000
0010
1000
0020
0030
0101
0000
,
1001
0000
0020
0100
0000
0030
1001
0000
,
0000
0001
0100
0001
0200
0300
1010
0000
,
0110
0000
0002
1000
0000
0003
0110
0000
,
0000
0010
0100
0010
0200
0300
0011
0000
,
1100
0000
0010
0002
0000
0003
1010
0000
,
0000
0001
0100
0010
1000
0000
0000
0000
,
1000
0100
1000
0000
1100
0000
0000
0000
0001
0010
0001
0000
0011
0000
0000
0000
,
0100
0010
0100
0000
0010
0000
1000
0000
0001
0100
0001
0000
0101
0000
0000
0000
,
0010
1000
0010
0000
1000
0000
0001
0000
0100
0000
0001
0000
1200
0000
0000
0000
,
0000
0300
1001
0000
0000
0000
0000
0000
,
0110
0000
0201
0020
0000
0030
1300
0000
,
0011
1010
0110
0101
1100
0000
1001
0000
,
0110
0000
1020
0200
0000
0300
0031
0000
,
1100
0101
0110
1010
0011
0000
1001
0000
,
0010
0000
0000
0000
0010
0000
0000
0000
1000
0000
0000
0000
1000
0000
0000
0000
0000
0000
0001
0000
0000
0100
0000
0000
0002
0000
0000
0000
0000
0000
0000
0000
0000
0000
0000
0000
0013
0000
0000
0000
0000
0000
0000
0000
0000
0000
0000
0000
,
0100
0000
0000
0000
0100
0000
0000
0000
0001
0000
0000
0000
0001
0000
0000
0000
0000
0000
1000
0000
0000
0010
0000
0000
2000
0000
0000
0000
0000
0000
0000
0000
0000
0000
0000
0000
3010
0000
0000
0000
0000
0000
0000
0000
0000
0000
0000
0000
,
0001
0010
0100
0010
0001
0000
1000
0000
0100
1000
0100
0000
0010
0000
0000
0000
,
0102
0000
1000
0000
0003
0000
2010
0000
0001
0000
0000
3000
0000
0000
0000
0000
,
0001
0010
0100
1000
0100
0010
0001
0000
,
0001
0010
0001
0000
0100
0010
0100
0000
1010
0000
0000
0000
0000
0000
0000
0000
,
0100
1000
0010
0100
0001
1000
0010
0000
,
1000
0100
1000
0000
0010
0100
0010
0000
0101
0000
0000
0000
0000
0000
0000
0000
,
1000
0100
1000
0001
0010
0001
0010
0000
,
0100
0010
0001
0000
1000
0100
0010
0000
1100
0000
0000
0000
0000
0000
0000
0000
,
0002
1000
0103
2000
0010
3001
0101
0000
,
0010
0100
0010
0000
0100
0010
0100
0000
0011
0000
0000
0000
0000
0000
0110
0000
,
0001
0010
1000
0000
0101
0000
1010
0000
1000
0100
0001
0000
0000
0000
0100
1000
,
0010
0100
0001
0000
0010
0100
1000
0000
0011
0000
1010
0000
0000
0001
2000
3000
,
0020
0000
1000
0030
0200
0000
0001
0300
0010
0000
0011
0000
0000
0000
0010
0001
,
0100
0010
1000
0000
0100
0010
0001
0000
1100
0000
0101
0000
0000
0000
0000
0000
,
0110
0000
1020
0200
0000
0300
0031
0000
,
1100
0101
0110
1010
0011
0000
1001
0000
,
0110
0000
0201
0020
0000
0030
1300
0000
,
0011
1010
0110
0101
1100
0000
1001
0000
,
0100
0000
0000
0000
0100
0000
0000
0000
0001
0000
0000
0000
0001
0000
0000
0000
0000
0000
1000
0000
0000
0010
0000
0000
2000
0000
0000
0000
0000
0000
0000
0000
0000
0000
0000
0000
3100
0000
0000
0000
0000
0000
0000
0000
0000
0000
0000
0000
,
0010
0000
0000
0000
0010
0000
0000
0000
1000
0000
0000
0000
1000
0000
0000
0000
0000
0000
0001
0000
0000
0100
0000
0000
0002
0000
0000
0000
0000
0000
0000
0000
0000
0000
0000
0000
0103
0000
0000
0000
0000
0000
0000
0000
0000
0000
0000
0000
,
1000
0100
0010
0100
1000
0000
0001
0000
0010
0001
0010
0000
0100
0000
0000
0000
,
2010
0000
0001
0000
3000
0000
0102
0000
1000
0000
0000
0003
0000
0000
0000
0000
,
0000
0000
0000
0100
0010
0000
1000
0000
0010
0000
0000
0000
1100
0000
0000
0000
,
0000
0000
0000
0010
0100
0000
0001
0000
0100
0000
0000
0000
0011
0000
0000
0000
,
0000
0000
0000
1000
0010
0000
1000
0000
0100
0000
0000
0000
0110
0000
0000
0000
,
0000
0000
0001
0100
0000
0000
0010
0000
4004
0000
0000
3003
1001
0000
0000
0000
,
0000
0000
0000
0010
0100
0000
0001
0000
0100
0000
0000
0000
0011
0000
0000
0000
,
0000
0000
0000
0100
0010
0000
1000
0000
0010
0000
0000
0000
1100
0000
0000
0000
,
0000
0000
0000
0001
0100
0000
0001
0000
0010
0000
0000
0000
0110
0000
0000
0000
,
0000
0000
1000
0010
0000
0000
0100
0000
4004
0000
0000
3003
2002
0000
0000
0000
,
0000
0000
0000
0000
,
0000
0000
0000
0000
,
3003
0000
0000
0000
;

//---------------lights-cabinet - SMLightsBuilder----------------
#NOTEDATA:;
#CHARTNAME:SMLightsBuilder;
#STEPSTYPE:lights-cabinet;
#DESCRIPTION:SMLightsBuilder;
#CHARTSTYLE:;
#DIFFICULTY:Easy;
#METER:1;
#RADARVALUES:0.811835,1.038844,1.322165,0.714462,0.197093,692.000000,294.000000,161.000000,87.000000,0.000000,181.000000,4.000000,0.000000,0.000000,0.811835,1.038844,1.322165,0.714462,0.197093,692.000000,294.000000,161.000000,87.000000,0.000000,181.000000,4.000000,0.000000,0.000000;
#CREDIT:SMLightsBuilder;
#NOTES:
// measure 0
000000
000000
000000
000000
,  // measure 1
000000
000000
000000
000000
,  // measure 2
000000
000000
000000
000000
,  // measure 3
000000
000000
000000
000000
,  // measure 4
000000
000000
000000
000000
,  // measure 5
010111
000000
001011
001222
000000
000333
110011
000000
,  // measure 6
000000
100000
001011
100000
002022
003033
010111
000000
,  // measure 7
100111
000000
002022
010000
000000
003033
100111
000000
,  // measure 8
000000
000100
010011
000100
020022
030033
101011
000000
,  // measure 9
011011
000000
000222
100000
000000
000333
011011
000000
,  // measure 10
000000
001000
010011
001000
020022
030033
001111
000000
,  // measure 11
110011
000000
001011
000222
000000
000333
101011
000000
,  // measure 12
000000
000100
010011
001000
100011
000000
000000
000000
,  // measure 13
100011
010000
100000
000000
110011
000000
000000
000000
000111
001000
000100
000000
001111
000000
000000
000000
,  // measure 14
010011
001000
010000
000000
001011
000000
100000
000000
000111
010000
000100
000000
010111
000000
000000
000000
,  // measure 15
001011
100000
001000
000000
100011
000000
000100
000000
010011
000000
000100
000000
120022
000000
000000
000000
,  // measure 16
000000
030033
100111
000000
000000
000000
000000
000000
,  // measure 17
011011
000000
020122
002000
000000
003033
130000
000000
,  // measure 18
001111
101011
011011
010111
110011
000000
100111
000000
,  // measure 19
011011
000000
102022
020000
000000
030033
003100
000000
,  // measure 20
110011
010111
011011
101011
001111
000000
100111
000000
,  // measure 21
001011
000000
000000
000000
001000
000000
000000
000000
100000
000000
000000
000000
100011
000000
000000
000000
000000
000000
000100
000000
000000
010000
000000
000000
000222
000000
000000
000000
000000
000000
000000
000000
000000
000000
000000
000000
001333
000000
000000
000000
000000
000000
000000
000000
000000
000000
000000
000000
,  // measure 22
010011
000000
000000
000000
010000
000000
000000
000000
000100
000000
000000
000000
000111
000000
000000
000000
000000
000000
100000
000000
000000
001000
000000
000000
200022
000000
000000
000000
000000
000000
000000
000000
000000
000000
000000
000000
301033
000000
000000
000000
000000
000000
000000
000000
000000
000000
000000
000000
,  // measure 23
000111
001000
010000
001000
000111
000000
100000
000000
010011
100000
010000
000000
001011
000000
000000
000000
,  // measure 24
010222
000000
100000
000000
000333
000000
201022
000000
000100
000000
000000
300033
000000
000000
000000
000000
,  // measure 25
000111
001000
010011
100000
010011
001000
000111
000000
,  // measure 26
000111
001000
000100
000000
010011
001000
010000
000000
101011
000000
000000
000000
000000
000000
000000
000000
,  // measure 27
010011
100000
001011
010000
000111
100000
001011
000000
,  // measure 28
100011
010000
100000
000000
001011
010000
001000
000000
010111
000000
000000
000000
000000
000000
000000
000000
,  // measure 29
100011
010000
100011
000100
001011
000100
001011
000000
,  // measure 30
010011
001000
000100
000000
100011
010000
001000
000000
110011
000000
000000
000000
000000
000000
000000
000000
,  // measure 31
000222
100000
010333
200022
001000
300133
010111
000000
,  // measure 32
001011
010000
001000
000000
010011
001000
010000
000000
001111
000000
000000
000000
000000
000000
011011
000000
,  // measure 33
000111
001000
100000
000000
010111
000000
101011
000000
100011
010000
000100
000000
000000
000000
010000
100000
,  // measure 34
001011
010000
000100
000000
001011
010000
100000
000000
001111
000000
101011
000000
000000
000100
200022
300033
,  // measure 35
002022
000000
100000
003033
020022
000000
000100
030033
001011
000000
001111
000000
000000
000000
001000
000100
,  // measure 36
010011
001000
100000
000000
010011
001000
000100
000000
110011
000000
010111
000000
000000
000000
000000
000000
,  // measure 37
011011
000000
102022
020000
000000
030033
003100
000000
,  // measure 38
110011
010111
011011
101011
001111
000000
100111
000000
,  // measure 39
011011
000000
020122
002000
000000
003033
130000
000000
,  // measure 40
001111
101011
011011
010111
110011
000000
100111
000000
,  // measure 41
010011
000000
000000
000000
010000
000000
000000
000000
000100
000000
000000
000000
000111
000000
000000
000000
000000
000000
100000
000000
000000
001000
000000
000000
200022
000000
000000
000000
000000
000000
000000
000000
000000
000000
000000
000000
310033
000000
000000
000000
000000
000000
000000
000000
000000
000000
000000
000000
,  // measure 42
001011
000000
000000
000000
001000
000000
000000
000000
100000
000000
000000
000000
100011
000000
000000
000000
000000
000000
000100
000000
000000
010000
000000
000000
000222
000000
000000
000000
000000
000000
000000
000000
000000
000000
000000
000000
010333
000000
000000
000000
000000
000000
000000
000000
000000
000000
000000
000000
,  // measure 43
100011
010000
001000
010000
100011
000000
000100
000000
001011
000100
001000
000000
010011
000000
000000
000000
,  // measure 44
201022
000000
000100
000000
300033
000000
010222
000000
100000
000000
000000
000333
000000
000000
000000
000000
,  // measure 45
000000
000000
000000
010000
001011
000000
100000
000000
001011
000000
000000
000000
110011
000000
000000
000000
,  // measure 46
000000
000000
000000
001000
010011
000000
000100
000000
010011
000000
000000
000000
001111
000000
000000
000000
,  // measure 47
000000
000000
000000
100000
001011
000000
100000
000000
010011
000000
000000
000000
011011
000000
000000
000000
,  // measure 48
000000
000000
000100
010000
000000
000000
001000
000000
400422
000000
000000
300333
100111
000000
000000
000000
,  // measure 49
000000
000000
000000
001000
010011
000000
000100
000000
010011
000000
000000
000000
001111
000000
000000
000000
,  // measure 50
000000
000000
000000
010000
001011
000000
100000
000000
001011
000000
000000
000000
110011
000000
000000
000000
,  // measure 51
000000
000000
000000
000100
010011
000000
000100
000000
001011
000000
000000
000000
011011
000000
000000
000000
,  // measure 52
000000
000000
100000
001000
000000
000000
010000
000000
400422
000000
000000
300333
200222
000000
000000
000000
,  // measure 53
000000
000000
000000
000000
,  // measure 54
000000
000000
000000
000000
,  // measure 55
300333
000000
000000
000000
;

//---------------dance-single - ----------------
#NOTEDATA:;
#CHARTNAME:;
#STEPSTYPE:dance-single;
#DESCRIPTION:;
#CHARTSTYLE:;
#DIFFICULTY:Medium;
#METER:7;
#RADARVALUES:0.279215,0.324895,0.188881,0.295639,0.000000,238.000000,215.000000,23.000000,36.000000,0.000000,0.000000,0.000000,0.000000,0.000000,0.279215,0.324895,0.188881,0.295639,0.000000,238.000000,215.000000,23.000000,36.000000,0.000000,0.000000,0.000000,0.000000,0.000000;
#CREDIT:MrPlex;
#NOTES:
0000
0000
0000
0000
,
0000
0000
0000
0000
,
0000
0000
0000
0000
,
0000
0000
0000
0000
,
0000
0000
0000
0000
,
0002
0203
0320
2030
,
3000
0000
0001
0000
1000
0100
0010
0000
,
0200
2300
3002
0203
,
0300
0000
0001
0000
1000
0010
0100
0000
,
0002
2003
3200
2300
,
3000
0000
0001
0000
1000
0100
0010
0000
,
0002
0003
2000
3000
,
0020
0130
0110
1001
,
0001
1000
0100
0100
,
1000
0001
0010
0010
,
0001
0100
0010
0010
,
1000
0001
1000
0000
,
1000
0100
0010
0000
0100
0000
0110
0000
,
0001
0100
0010
0000
0100
0000
0110
0000
,
1000
0010
0100
0000
0001
0000
0101
0000
,
0001
0010
0100
0000
1000
0000
1100
0000
,
0001
0100
0000
0001
0100
0000
0001
0000
,
1000
0100
0000
1000
0100
0000
1000
0000
,
0001
0010
0001
0000
1000
0010
1000
0000
,
0020
0230
0302
1003
,
0001
0100
0010
1000
0100
0010
0001
0000
,
0000
1000
0001
0000
,
1000
0010
0100
0001
0100
0010
1000
0000
,
0000
0001
1000
0000
,
1000
0100
0010
0001
0010
0100
1000
0000
,
0000
1000
0001
0000
,
1000
0010
0100
0001
0100
0010
1000
0000
,
0000
0000
0001
0000
1000
0000
0000
0200
,
0300
0020
0030
0002
0003
2000
3000
0020
,
0030
0200
0300
0001
1000
0001
0000
1000
,
1000
0100
0100
0010
0001
1000
0000
0001
,
0001
0100
0100
0010
1000
0001
0000
0000
,
2002
0000
3003
2002
0000
0000
3003
0000
,
0001
0100
0001
0100
0001
0000
0100
0000
,
2002
0000
3003
2002
0000
0000
3003
0000
,
1000
0100
1000
0100
1000
0000
0100
0000
,
2000
3100
1100
1100
,
0002
0103
0101
0101
,
1000
0010
1000
0010
0100
0100
0001
1000
,
0200
0000
0300
0200
0000
0000
0300
0000
,
1000
0100
1000
0010
0100
0010
1000
0000
,
0000
1010
0101
0000
,
0001
0100
0001
1000
0010
1000
0001
0000
,
0000
1001
0101
0000
,
1000
0010
1000
0001
0100
0001
1000
0000
,
0000
1100
0011
0000
,
0010
0001
0010
0100
1000
0100
0010
0000
,
0000
0110
1001
1001
;

//---------------dance-single - ----------------
#NOTEDATA:;
#CHARTNAME:;
#STEPSTYPE:dance-single;
#DESCRIPTION:;
#CHARTSTYLE:;
#DIFFICULTY:Easy;
#METER:4;
#RADARVALUES:0.150166,0.194937,0.016424,0.057485,0.000000,128.000000,126.000000,2.000000,7.000000,0.000000,0.000000,0.000000,0.000000,0.000000,0.150166,0.194937,0.016424,0.057485,0.000000,128.000000,126.000000,2.000000,7.000000,0.000000,0.000000,0.000000,0.000000,0.000000;
#CREDIT:MrPlex;
#NOTES:
// measure 0
0000
0000
0000
0000
,  // measure 1
0000
0000
0000
0000
,  // measure 2
0000
0000
0000
0000
,  // measure 3
0000
0000
0000
0000
,  // measure 4
0000
0000
0000
0000
,  // measure 5
1000
1000
0001
0001
,  // measure 6
0000
0100
0010
0000
,  // measure 7
0001
0001
1000
1000
,  // measure 8
0000
0100
0010
0000
,  // measure 9
1000
0100
1000
0000
,  // measure 10
0001
0100
0001
0000
,  // measure 11
1000
0000
0001
0000
,  // measure 12
0100
0100
0010
0000
,  // measure 13
0100
0001
0100
0000
,  // measure 14
0010
0010
1000
0000
,  // measure 15
1000
0100
1000
0000
,  // measure 16
0001
0001
0010
0000
,  // measure 17
0001
0000
0000
0001
0000
0000
0000
0000
,  // measure 18
1000
0001
1000
0000
,  // measure 19
1000
0000
0000
1000
0000
0000
0000
0000
,  // measure 20
0001
1000
0001
0000
,  // measure 21
0100
0100
0010
0010
,  // measure 22
1000
1000
0001
0001
,  // measure 23
1000
0000
0100
0000
,  // measure 24
0010
0000
0000
0010
0000
0000
0000
0000
,  // measure 25
0010
0001
1000
0020
,  // measure 26
0000
0030
0000
0000
,  // measure 27
1000
0010
0100
0002
,  // measure 28
0000
0003
0000
0000
,  // measure 29
0001
0100
0010
2000
,  // measure 30
0000
3000
0000
0000
,  // measure 31
1000
0001
1000
0200
,  // measure 32
0000
0300
0000
0000
,  // measure 33
0000
0000
0000
1000
0000
0000
0000
0001
,  // measure 34
0000
0001
0000
0001
0000
0000
0000
0100
,  // measure 35
0100
0000
0000
0010
0010
0000
0000
1000
,  // measure 36
1000
0000
0000
0001
0000
0000
0000
0000
,  // measure 37
0001
0000
0000
0001
0000
0000
0000
0000
,  // measure 38
0001
0100
0010
0010
,  // measure 39
1000
0000
0000
1000
0000
0000
0000
0000
,  // measure 40
1000
0100
0010
0010
,  // measure 41
0001
0001
0100
0000
,  // measure 42
0001
1000
0001
0000
,  // measure 43
1000
1000
0100
0000
,  // measure 44
1000
0000
0000
1000
0000
0000
0000
0000
,  // measure 45
0001
1000
0010
0200
,  // measure 46
0000
0300
0000
0000
,  // measure 47
0010
1000
0001
2000
,  // measure 48
0000
3000
0000
0000
,  // measure 49
1000
0100
0010
0002
,  // measure 50
0000
0003
0000
0000
,  // measure 51
0001
1000
0010
0100
,  // measure 52
0000
0100
1001
1001
;

//---------------dance-single - ----------------
#NOTEDATA:;
#CHARTNAME:;
#STEPSTYPE:dance-single;
#DESCRIPTION:;
#CHARTSTYLE:;
#DIFFICULTY:Beginner;
#METER:2;
#RADARVALUES:0.089161,0.129958,0.000000,0.000000,0.000000,76.000000,76.000000,0.000000,0.000000,0.000000,0.000000,0.000000,0.000000,0.000000,0.089161,0.129958,0.000000,0.000000,0.000000,76.000000,76.000000,0.000000,0.000000,0.000000,0.000000,0.000000,0.000000,0.000000;
#CREDIT:MrPlex;
#NOTES:
// measure 0
0000
0000
0000
0000
,  // measure 1
0000
0000
0000
0000
,  // measure 2
0000
0000
0000
0000
,  // measure 3
0000
0000
0000
0000
,  // measure 4
0000
0000
0000
0000
,  // measure 5
0001
0000
0000
0000
,  // measure 6
1000
0000
0000
0000
,  // measure 7
0010
0000
0000
0000
,  // measure 8
0010
0000
0000
0000
,  // measure 9
1000
0000
0000
0000
,  // measure 10
0001
0000
0000
0000
,  // measure 11
0100
0000
0000
0000
,  // measure 12
0100
0000
0000
0000
,  // measure 13
0001
0000
0001
0000
,  // measure 14
0001
0000
0000
0000
,  // measure 15
1000
0000
1000
0000
,  // measure 16
1000
0000
0000
0000
,  // measure 17
0010
0010
0000
0000
,  // measure 18
0010
0000
0000
0000
,  // measure 19
1000
1000
0000
0000
,  // measure 20
1000
0000
0000
0000
,  // measure 21
0001
0000
0000
0000
,  // measure 22
0001
0000
0000
0000
,  // measure 23
0100
0000
0100
0000
,  // measure 24
0100
0000
0000
0000
,  // measure 25
0001
0000
0001
0000
,  // measure 26
0000
0001
0001
0000
,  // measure 27
1000
0000
1000
0000
,  // measure 28
0000
1000
1000
0000
,  // measure 29
0010
0000
0010
0010
,  // measure 30
0000
0000
0010
0000
,  // measure 31
0100
0000
0100
0100
,  // measure 32
0000
0000
0100
0000
,  // measure 33
0000
0000
0000
0000
0000
0000
0000
0001
,  // measure 34
0000
0000
0000
0001
0000
0000
0000
1000
,  // measure 35
0000
0000
0000
1000
0000
0000
0000
0010
,  // measure 36
0000
0010
0000
0010
0000
0000
0000
0000
,  // measure 37
0000
0000
0000
0000
,  // measure 38
1000
1000
0000
0000
,  // measure 39
0001
0000
0000
0000
,  // measure 40
0001
0001
0000
0000
,  // measure 41
0100
0000
0100
0000
,  // measure 42
0100
0000
0000
0000
,  // measure 43
0010
0000
0010
0000
,  // measure 44
0010
0000
0000
0000
,  // measure 45
1000
0000
1000
1000
,  // measure 46
0000
0000
1000
0000
,  // measure 47
0001
0000
0001
0001
,  // measure 48
0000
0000
0001
0000
,  // measure 49
0100
0000
0100
0100
,  // measure 50
0000
0000
0100
0000
,  // measure 51
0010
0000
0010
0010
,  // measure 52
0000
0000
1000
0001
;
