#VERSION:0.83;
#TITLE:Gorehound;
#SUBTITLE:(Obnoxious Video Mix);
#ARTIST:Harley Poe;
#TITLETRANSLIT:;
#SUBTITLETRANSLIT:;
#ARTISTTRANSLIT:;
#GENRE:;
#ORIGIN:;
#CREDIT:Danizom813;
#BANNER:Gorehound [danizom813].png;
#BACKGROUND:Gorehound [danizom813]-bg.png;
#PREVIEWVID:;
#JACKET:;
#CDIMAGE:;
#DISCIMAGE:;
#LYRICSPATH:;
#CDTITLE:;
#MUSIC:Gorehound [danizom813].ogg;
#OFFSET:0.006000;
#SAMPLESTART:54.733337;
#SAMPLELENGTH:15.869000;
#SELECTABLE:YES;
#DISPLAYBPM:142.000000;
#BPMS:0.000=144.231,
1.000=127.841,
2.000=140.625,
3.000=156.250,
4.000=140.625,
5.000=156.250,
6.000=140.625,
7.000=156.250,
8.000=140.625,
9.000=148.026,
10.000=140.625,
11.000=156.250,
12.000=148.026,
16.000=143.369,
17.000=146.121,
18.000=146.485,
20.000=145.590,
21.000=144.845,
22.000=143.606,
23.000=145.006,
24.000=143.289,
25.000=140.625,
26.000=143.606,
27.000=140.625,
29.000=142.825,
30.000=138.785,
31.000=148.026,
32.000=139.969,
33.000=140.625,
34.000=133.929,
35.000=148.026,
36.000=133.929,
37.000=148.026,
38.000=139.605,
39.000=136.185,
41.000=139.749,
43.000=140.625,
46.000=141.645,
47.000=140.465,
50.000=143.606,
51.000=141.445,
52.000=148.026,
53.000=141.445,
54.000=148.026,
57.000=140.749,
58.000=146.206,
62.000=133.929,
63.000=148.026,
65.000=140.625,
66.000=148.026,
68.000=156.250,
69.000=140.625,
72.000=148.026,
74.000=140.625,
76.000=148.026,
77.000=133.929,
78.000=148.026,
81.000=140.625,
82.000=148.026,
84.000=140.625,
85.000=138.825,
87.000=148.026,
88.000=133.929,
89.000=140.625,
91.000=141.665,
92.000=148.026,
93.000=145.045,
94.000=149.630,
95.000=144.845,
96.000=142.645,
97.000=148.426,
98.000=147.226,
101.000=133.929,
102.000=148.026,
105.000=143.606,
106.000=140.625,
108.000=148.026,
112.000=140.625,
114.000=148.026,
115.000=133.929,
117.000=140.625,
120.000=134.661,
121.000=140.625,
126.000=133.929,
128.000=148.026,
129.000=140.625,
130.000=145.406,
132.000=131.461,
133.000=136.405,
134.000=143.245,
136.000=138.149,
137.000=141.186,
138.000=133.929,
140.000=148.026,
142.000=140.625,
143.000=133.929,
144.000=144.245,
145.000=140.569,
146.000=141.010,
147.000=140.625,
149.000=148.026,
150.000=141.349,
151.000=140.625,
155.000=141.206,
156.000=133.929,
157.000=140.625,
158.000=137.986,
159.000=138.149,
160.000=140.625,
162.000=137.929,
163.000=132.909,
164.000=131.309,
165.000=131.461,
166.000=148.026,
167.000=129.509,
168.000=140.625,
169.000=140.549,
170.000=140.625,
172.000=133.929,
173.000=140.625,
177.000=136.606,
178.000=138.949,
179.000=142.425,
180.000=142.005,
181.000=139.025,
184.000=132.061,
185.000=140.825,
186.000=142.825,
187.000=137.205,
189.000=138.786,
190.000=140.281,
191.000=139.786,
192.000=140.625,
193.000=140.969,
194.000=140.625,
196.000=133.929,
197.000=140.625,
198.000=113.494,
199.500=110.874,
200.000=135.785,
203.000=135.529,
204.000=134.489,
206.000=140.625,
207.000=136.405,
208.000=133.929,
209.000=135.261,
210.000=140.625,
211.000=133.929,
212.000=140.625,
213.000=127.841,
214.000=134.929,
216.000=139.949,
217.000=140.406,
218.000=138.949,
219.000=138.205,
220.000=133.929,
221.000=136.986,
222.000=136.081,
223.000=137.349,
225.000=148.026,
226.000=133.929,
227.000=143.006,
228.000=133.929,
229.000=140.625,
232.000=141.645,
233.000=136.061,
234.000=139.606,
236.000=133.929,
237.000=146.006,
238.000=133.929,
240.000=140.625,
242.000=133.061,
243.000=148.026,
244.000=133.929,
245.000=140.625,
246.000=133.929,
247.000=138.186,
248.000=136.205,
249.000=135.909,
252.000=127.841,
253.000=140.625,
255.000=138.005,
256.000=127.841,
259.000=133.929,
260.000=127.303,
261.000=133.929,
262.000=131.461,
263.000=133.929,
266.000=127.841,
267.000=131.509,
269.000=135.625,
270.000=112.500,
271.000=127.841,
272.000=117.187,
273.000=127.841,
274.000=122.283,
275.000=127.841,
276.000=122.283;
#STOPS:;
#DELAYS:;
#WARPS:;
#TIMESIGNATURES:0.000=4=4;
#TICKCOUNTS:0.000=4;
#COMBOS:0.000=1;
#SPEEDS:0.000=1.000=0.000=0;
#SCROLLS:0.000=1.000;
#FAKES:;
#LABELS:0.000=Song Start;
#BGCHANGES:0.000=Gorehound [danizom813].avi=1.000=0=0=1=====,
99999=-nosongbg-=1.000=0=0=0 // don't automatically add -songbackground-
;
#KEYSOUNDS:;
#ATTACKS:
;

//---------------dance-single - Danizom813----------------
#NOTEDATA:;
#CHARTNAME:Danizom813;
#STEPSTYPE:dance-single;
#DESCRIPTION:Danizom813;
#CHARTSTYLE:;
#DIFFICULTY:Hard;
#METER:12;
#RADARVALUES:0.514347,0.610157,0.325793,0.233902,0.350854,431.000000,392.000000,39.000000,28.000000,24.000000,1.000000,0.000000,0.000000,0.000000,0.514347,0.610157,0.325793,0.233902,0.350854,431.000000,392.000000,39.000000,28.000000,24.000000,1.000000,0.000000,0.000000,0.000000;
#CREDIT:Danizom813;
#DISPLAYBPM:142.000000;
#NOTES:
// measure 0
MMMM
0000
0000
0000
,  // measure 1
MMMM
0000
0000
0000
,  // measure 2
MMMM
0000
0000
0000
0000
0000
0000
0000
0000
0000
0000
0000
0000
0000
0000
0000
0000
0000
0000
0000
0000
0000
0000
0000
0000
0000
0000
0000
0000
0000
0000
0000
0000
0000
0000
0000
0000
0000
0000
0000
0000
0000
0000
0000
0000
0000
0000
0000
0000
0000
0000
0000
0000
0000
0000
0000
0000
0000
0000
0000
0000
0000
0000
0000
0000
0000
0000
0000
0000
0000
0000
0000
0000
0000
0000
0000
0000
0000
0000
0000
0000
0000
0000
0000
0000
0000
0000
0000
0000
0000
0000
0000
0000
0000
0000
0000
0000
0000
0000
0000
0000
0000
0000
0000
0000
0000
0000
0000
0000
0000
0000
0000
0000
0000
0000
0000
0000
0000
0000
0000
0000
0000
0000
0000
0000
0000
0000
0000
0000
0000
0000
0000
0000
0000
0000
0000
0000
0000
0000
0000
0000
0000
0000
0000
0000
0000
0000
0000
0000
0000
0000
0000
0000
0000
0000
0000
0000
0000
0000
0000
0000
0000
0000
0000
0000
0000
0000
0000
0000
0000
0000
0000
0000
0000
0000
0000
0000
0000
0000
0000
0000
0000
0000
0000
0000
0000
0000
0000
0000
0000
MMMM
0000
,  // measure 3
0000
0000
0000
0000
0000
0000
0000
1001
,  // measure 4
1000
0000
0010
0100
0010
0000
0001
1000
,  // measure 5
0010
0000
0100
0000
0010
0000
1000
0000
0001
0000
0010
0100
0010
0100
0010
0000
,  // measure 6
0001
0000
1000
0100
1000
0000
0010
1000
,  // measure 7
0010
0000
0000
0000
0010
0000
0001
0000
0010
0000
0100
0010
0100
0010
0100
0000
,  // measure 8
1000
0001
0010
0100
1000
0001
1000
0010
,  // measure 9
0100
0000
0000
0000
0001
0000
0100
0000
0010
0000
0100
0010
0100
0010
0100
0000
,  // measure 10
0010
0000
1000
0100
0010
0001
0100
0001
,  // measure 11
2000
0000
0000
0000
0010
0000
0001
0000
0010
0000
0000
3000
0000
0000
0000
0000
,  // measure 12
1000
0100
0000
0000
0100
1000
0000
0000
1000
0010
0000
0000
0010
1000
0000
0000
,  // measure 13
1000
0100
0000
0000
0100
0010
0000
0000
0010
0001
0000
0000
0001
0010
0000
0000
,  // measure 14
0010
0100
0000
0000
0100
0010
0000
0000
0200
0000
0000
0000
0300
0000
1000
0000
,  // measure 15
0001
0000
0100
0000
0010
0000
1000
0000
0020
0000
0000
0000
0000
0030
0000
1000
,  // measure 16
0100
0000
1000
0000
0010
0000
0001
0000
2000
0000
0001
0000
0001
3000
0001
0000
,  // measure 17
0010
0000
1000
0000
0100
0000
1000
0000
0010
0000
0001
0000
1000
0100
1000
0100
,  // measure 18
1000
0001
0010
0100
1000
0001
1000
0100
,  // measure 19
0010
0000
1000
0000
0001
0000
1000
0000
0110
0000
1010
0000
0000
0000
0000
0010
,  // measure 20
1000
0000
0000
1000
0100
0000
0000
0100
1000
0000
0000
1000
0010
0000
0000
0010
,  // measure 21
1000
0000
0000
1000
0001
0000
0000
0001
0010
0000
0000
0010
0001
0000
0000
0001
,  // measure 22
0010
0000
0000
0010
0100
0000
0000
0100
1000
0000
0000
1000
0010
0000
0000
0010
,  // measure 23
1000
0000
0000
1000
0010
0000
0000
0010
0100
0000
0000
0000
1001
0000
0000
0000
,  // measure 24
0100
0000
1000
0000
0001
0000
0100
0000
0010
0000
1000
0000
0001
0000
0000
1000
,  // measure 25
0100
0000
1000
0000
0010
0000
0001
0000
2000
0000
0001
0000
0001
3000
0001
0000
,  // measure 26
0010
1100
0011
1001
,  // measure 27
0010
0000
0100
0000
0010
0100
0010
0100
0001
0000
1000
0000
0010
0000
1000
0000
,  // measure 28
0002
1000
0010
1003
,  // measure 29
0200
0010
1000
0310
,  // measure 30
0002
0100
0010
0103
,  // measure 31
2002
0000
0010
0000
,  // measure 32
0000
0000
0000
0000
0000
0000
0000
0000
0000
3003
0000
0000
0000
0000
0000
0000
,  // measure 33
1000
0010
0000
0000
0010
0100
0000
0000
0100
0001
0000
0000
0001
0010
0000
0000
,  // measure 34
0010
0100
0000
0000
0100
1000
0000
0000
1000
0000
0100
0000
0000
0000
0000
0000
,  // measure 35
0010
1001
0010
1010
,  // measure 36
0001
0110
0010
1100
,  // measure 37
1000
0010
0000
0000
0010
1000
0000
0000
1000
0100
0000
0000
0100
0010
0000
0000
,  // measure 38
0010
0001
0000
0000
0001
0010
0000
0000
0010
0000
0100
0000
0000
0000
0000
0000
,  // measure 39
2002
0000
0000
0000
0000
3003
0000
0000
2020
0000
0000
0000
0000
0000
3030
0000
,  // measure 40
0220
0000
0000
0330
0022
0000
0000
0033
,  // measure 41
1000
0001
1000
0001
1000
0001
0110
0000
,  // measure 42
1100
1010
0011
0101
,  // measure 43
1000
0100
0010
0001
0010
0100
1000
0000
,  // measure 44
1001
0110
1010
0011
,  // measure 45
0001
0010
0100
1000
0100
0010
0010
1001
,  // measure 46
0000
0000
0000
0100
1000
0000
0000
1000
0010
0000
0000
0010
1000
0000
0000
1000
,  // measure 47
0001
0000
0000
0001
0010
0000
0000
0010
0001
0000
0000
0001
0010
0000
0000
0010
,  // measure 48
0100
0000
0000
0100
1000
0000
0000
1000
0010
0000
0000
0010
1000
0000
0000
1000
,  // measure 49
0010
0000
0000
0010
0100
0000
0000
0100
0001
0000
0000
0000
0000
0000
0000
0000
,  // measure 50
1020
0000
0000
0000
1000
0000
0000
0000
0100
0000
0000
0030
1000
0000
0000
0000
,  // measure 51
0200
0000
0000
0000
0010
0000
0000
0000
0001
0000
0000
0000
0010
0000
0000
0300
,  // measure 52
2000
0000
0000
0000
0010
0000
0000
0000
0001
0000
0000
0000
0100
0000
0000
3000
,  // measure 53
0020
0000
0000
0030
2000
0000
0000
3000
,  // measure 54
0100
0010
0100
0010
0100
0010
0100
0001
,  // measure 55
1000
0010
0000
0000
0010
0100
0000
0000
0100
0001
0000
0000
0001
0010
0000
0000
,  // measure 56
0010
0100
0000
0000
0100
1000
0000
0000
1000
0000
0100
0000
0000
0000
0000
0000
,  // measure 57
0001
1001
0010
1010
,  // measure 58
0001
0110
0010
0001
,  // measure 59
0100
0010
0000
0000
0010
1000
0000
0000
1000
0100
0000
0000
0100
0010
0000
0000
,  // measure 60
0010
0001
0000
0000
0001
0010
0000
0000
0010
0000
0100
0000
0000
0000
0000
0000
,  // measure 61
1001
0100
0011
0001
,  // measure 62
0110
1000
0011
0100
,  // measure 63
2002
0000
0000
0000
0000
0000
0000
0000
0000
3003
0000
0000
0110
0000
0000
0000
,  // measure 64
1000
0000
0010
1000
0000
0010
2000
0000
0001
0000
0001
3000
0001
0000
1000
0000
,  // measure 65
0100
0000
0010
0100
0000
0010
0200
0000
0001
0000
0001
0000
0001
0300
0000
0000
,  // measure 66
0001
0000
0100
0001
0000
0100
0002
0000
1000
0000
1000
0003
1000
0000
0001
0000
,  // measure 67
0011
0100
1010
0100
1001
0000
0000
0000
,  // measure 68
0000
0000
0000
0000
0000
0000
0000
0000
0000
0000
0000
0000
0000
0000
0000
0000
0000
0000
0000
0000
0000
0000
0000
0000
0000
0000
0000
0000
0000
0000
0000
0000
0000
0000
0000
0000
0000
0000
0000
0000
0000
0000
0000
0000
0000
0000
0000
0000
0000
0000
0000
0000
0000
0000
0000
0000
0000
0000
0000
0000
0000
0000
0000
0000
0000
0000
0000
0000
0000
0000
0000
0000
0000
0000
0000
0000
0000
0000
0000
0000
0000
0000
0000
0000
0000
0000
0000
0000
0000
0000
0000
0000
0000
0000
0000
0000
0000
0000
MMMM
0000
0000
0000
0000
0000
0000
0000
0000
0000
0000
0000
0000
0000
0000
0000
0000
0000
0000
0000
0000
0000
0000
0000
0000
0000
0000
0000
0000
0000
0000
0000
0000
0000
0000
0000
0000
0000
0000
0000
0000
0000
0000
0000
0000
0000
0000
0000
0000
0000
0000
0000
0000
0000
0000
0000
0000
0000
0000
0000
0000
0000
0000
0000
0000
0000
0000
0000
0000
0000
0000
0000
0000
0000
0000
0000
0000
0000
0000
0000
0000
0000
0000
0000
0000
0000
0000
0000
0000
0000
0000
0000
0000
0000
,  // measure 69
0000
0000
0000
0000
0000
0000
0000
0000
0000
MMMM
0000
0000
0000
0000
0000
0000
;

//---------------dance-single - ----------------
#NOTEDATA:;
#CHARTNAME:;
#STEPSTYPE:dance-single;
#DESCRIPTION:;
#CHARTSTYLE:;
#DIFFICULTY:Easy;
#METER:6;
#RADARVALUES:0.274477,0.422904,0.325793,0.217195,0.000000,230.000000,191.000000,39.000000,26.000000,0.000000,0.000000,0.000000,0.000000,0.000000,0.274477,0.422904,0.325793,0.217195,0.000000,230.000000,191.000000,39.000000,26.000000,0.000000,0.000000,0.000000,0.000000,0.000000;
#CREDIT:Benizom813;
#DISPLAYBPM:142.000000;
#NOTES:
0000
0000
0000
0000
,
0000
0000
0000
0000
,
0000
0000
0000
0000
,
0000
0000
0000
0000
,
1001
1000
0010
0100
,
0001
1000
0100
0000
,
1000
1000
0001
0001
,
1000
0001
0100
0000
,
0001
1000
0001
0010
,
0100
0100
1000
0000
,
0100
1000
0001
1000
,
0010
0010
0100
0000
,
0001
0100
0010
0000
,
1000
0100
0010
0000
,
0001
1000
0001
1000
,
0010
0100
0010
0000
,
1000
0010
0100
0000
,
0001
1000
0100
0000
,
1000
0100
1000
0100
,
0010
0001
0010
0000
,
0001
0001
0100
0000
,
0100
0100
0010
0000
,
0010
0010
1000
0000
,
1000
1000
0001
0000
,
1000
0100
0010
0010
,
0001
1000
0010
0000
,
1000
0010
0100
0100
,
0001
1000
0001
0000
,
2002
0000
3003
1000
,
0200
0000
0300
1000
,
0002
0000
0003
0001
,
0200
0000
0000
0300
,
0020
0030
0010
0000
,
1001
1001
0110
0110
,
1001
1001
1000
0000
,
0001
1000
0100
0010
,
0001
1000
0001
0000
,
1001
1001
0110
0110
,
1001
1001
0110
0000
,
1000
1000
0020
0030
,
0200
0300
0000
0001
,
2000
3000
0002
0003
,
1001
1001
1001
1001
,
1000
0000
0010
0000
,
0110
0110
0110
0110
,
0100
0000
0001
0000
,
1000
0000
0001
0000
,
1000
0100
0010
0000
,
0001
1000
0010
0100
,
0001
1000
0001
0000
,
2002
0000
3003
0001
,
0200
0000
0300
0010
,
2000
0000
3000
1000
,
0002
0000
0000
0003
,
1000
1000
1000
0000
,
1001
1001
0110
0110
,
1001
0110
2002
3003
,
0001
1000
0010
0100
,
0001
1000
0001
0000
,
1001
1001
0110
0110
,
1001
0110
2002
3003
,
1000
0010
0200
0300
,
0002
0003
0000
1000
,
0200
0300
0020
0030
,
0002
0003
0001
0001
,
2000
3000
1000
1000
,
0020
0030
0010
0010
,
1000
0001
1001
0000
;

//---------------dance-single - ----------------
#NOTEDATA:;
#CHARTNAME:;
#STEPSTYPE:dance-single;
#DESCRIPTION:;
#CHARTSTYLE:;
#DIFFICULTY:Medium;
#METER:10;
#RADARVALUES:0.474965,0.563872,0.300732,0.300732,0.000000,398.000000,362.000000,36.000000,36.000000,0.000000,0.000000,0.000000,0.000000,0.000000,0.474965,0.563872,0.300732,0.300732,0.000000,398.000000,362.000000,36.000000,36.000000,0.000000,0.000000,0.000000,0.000000,0.000000;
#CREDIT:Benizom813;
#DISPLAYBPM:142.000000;
#NOTES:
0000
0000
0000
0000
,
0000
0000
0000
0000
,
0000
0000
0000
0000
,
0000
0000
0000
0000
0000
0000
0000
0001
,
1000
0000
0001
0100
0020
0000
1030
0000
,
0001
0000
1000
0100
0010
0000
0000
0000
,
0001
0000
0010
0100
2000
0000
3001
0000
,
1000
0000
0010
1000
0001
0000
0000
0000
,
1000
0000
0010
0100
0001
0000
1000
0000
,
0001
0000
1000
0100
0010
0000
0000
0000
,
0001
0000
1000
0010
0100
0000
0001
0010
,
0100
0000
1000
0001
2000
0000
3000
0000
,
0001
0100
0001
0100
0020
0000
1030
0000
,
1000
0100
1000
0100
0020
0000
0031
0000
,
1000
0100
0010
0001
0002
0000
0103
0000
,
0001
0100
0010
1000
2000
0000
3100
0000
,
1000
0100
0010
0000
0100
1000
0010
0000
,
0100
0010
1000
0000
0010
1000
0001
0000
,
0100
0001
0010
0100
1000
0010
0100
0010
,
1000
0100
0010
0001
1000
0001
1000
0000
,
0001
0100
0010
1000
0200
0000
1300
0000
,
1000
0010
0100
0001
2000
0000
3100
0000
,
1100
0101
1000
0010
,
1000
0001
1000
0001
0200
0000
0301
0000
,
1000
0010
0100
0001
0010
0010
0001
0000
,
0010
0001
0100
0010
2000
0000
3001
0000
,
1000
0001
0100
0010
1000
0100
0010
0001
,
0010
0100
1000
0001
0100
0001
1000
0001
,
2000
0000
0000
0000
3100
1000
0010
0100
,
0002
0000
0000
0000
0103
0010
0100
0001
,
2000
0000
0000
0000
3010
1000
0100
0010
,
0002
0000
2000
0000
,
3003
0000
0000
0000
0000
0001
1000
0010
,
1010
0101
0011
1100
,
0001
0010
0100
1000
0010
0010
0000
1000
,
0010
0100
0001
0010
0100
0010
0001
1000
,
0010
0100
0001
0010
0100
1000
0001
0100
,
0101
1010
1100
0011
,
1000
0100
0010
0001
1000
1000
0000
0001
,
0100
0010
1000
0001
2000
0000
3010
0100
,
0002
0000
0103
0010
1000
0001
2000
0000
,
3200
0010
0320
0031
,
1100
0101
0011
1010
,
0001
1000
0010
0100
0001
1000
0010
0000
,
1010
0101
0011
1100
,
0100
1000
0010
0100
0001
1000
0001
0000
,
2002
0000
3003
0000
0001
0000
1000
0010
,
0100
0000
0001
1000
0200
0000
0300
0000
,
0010
0000
0010
0100
1000
0000
1000
0010
,
0100
0001
1000
0001
0200
0000
0000
0000
,
0320
0000
1000
0000
1030
0010
0100
0001
,
2000
0000
0000
0000
3001
1000
0100
0010
,
0002
0000
0000
0000
0013
0100
0010
0001
,
2000
0000
0000
3010
0200
0000
0000
0301
,
2000
0000
0000
3001
0100
0010
1000
0100
,
1100
0011
1100
0011
,
1000
0100
0010
0001
0100
0100
0000
0001
,
0100
0010
1000
0100
1000
0010
0100
0001
,
0010
0100
1000
0010
0100
0001
1000
0001
,
1001
1010
1001
0011
,
1000
0001
0010
0100
1000
1000
0000
0100
,
1000
0010
0100
0001
2000
0000
3010
1000
,
0200
0000
0310
0001
1000
0010
0200
0000
,
0302
0000
0103
0010
2000
0000
3001
0000
,
1000
0100
1000
0100
1000
1100
1100
0000
,
0001
0100
0001
0100
0001
0101
0101
0000
,
1000
0010
1000
0010
1000
1010
1010
0000
,
1001
0110
1001
0000
;

//---------------dance-single - ----------------
#NOTEDATA:;
#CHARTNAME:;
#STEPSTYPE:dance-single;
#DESCRIPTION:;
#CHARTSTYLE:;
#DIFFICULTY:Beginner;
#METER:3;
#RADARVALUES:0.128885,0.169162,0.008354,0.000000,0.000000,108.000000,107.000000,1.000000,0.000000,0.000000,0.000000,0.000000,0.000000,0.000000,0.128885,0.169162,0.008354,0.000000,0.000000,108.000000,107.000000,1.000000,0.000000,0.000000,0.000000,0.000000,0.000000,0.000000;
#CREDIT:Benizom813;
#DISPLAYBPM:142.000000;
#NOTES:
0000
0000
0000
0000
,
0000
0000
0000
0000
,
0000
0000
0000
0000
,
0000
0000
0000
0000
,
0001
0000
0000
0000
,
1000
0000
0000
0000
,
0010
0000
0010
0000
,
0010
0000
0000
0000
,
1000
0000
0000
0000
,
0001
0000
0000
0000
,
0100
0000
0000
0000
,
0001
0000
0001
0000
,
0001
0000
0000
0000
,
1000
0000
0000
0000
,
0010
0010
0000
0000
,
0010
0010
0000
0000
,
1000
0000
0000
0000
,
0001
0000
0000
0000
,
0100
0100
0000
0000
,
0100
0100
0000
0000
,
0001
0000
0001
0000
,
0001
0000
0000
0000
,
1000
0000
1000
0000
,
1000
0000
0000
0000
,
0010
0000
0000
0010
,
0010
0000
0000
0000
,
0100
0000
0000
0100
,
0100
0000
0000
0000
,
1001
0000
0000
0001
,
0001
0000
0000
1000
,
1000
0000
0000
0010
,
0010
0000
0000
0000
,
1000
0000
0000
0000
,
0001
0001
0001
0001
,
0001
0000
0000
0000
,
0100
0000
0100
0000
,
0100
0000
0000
0000
,
1000
1000
1000
1000
,
1000
0000
0000
0000
,
0010
0000
0010
0000
,
0010
0000
0000
0000
,
1000
0000
0000
0000
,
0001
0001
0001
0001
,
0000
0000
0000
0000
,
1000
1000
1000
1000
,
0000
0000
0000
0000
,
0010
0000
0010
0000
,
0010
0000
0000
0000
,
0100
0000
0100
0000
,
0100
0000
0100
0000
,
0000
0000
0000
1000
,
1000
0000
0000
0010
,
0010
0000
0000
0100
,
0100
0000
0000
0000
,
0001
0000
0000
0000
,
1000
1000
1000
1000
,
1000
0000
0000
0000
,
0010
0000
0010
0000
,
0010
0000
0000
0000
,
0001
0001
0001
0001
,
0001
0000
0000
0000
,
0100
0000
0100
0000
,
0100
0000
0000
0000
,
0001
0000
0000
0000
,
1000
0000
1000
0000
,
0001
0000
0001
0000
,
0100
0000
0100
0000
,
0010
0010
0010
0000
;
