#VERSION:0.83;
#TITLE:Goblin;
#SUBTITLE:;
#ARTIST:A.C.E;
#TITLETRANSLIT:;
#SUBTITLETRANSLIT:;
#ARTISTTRANSLIT:;
#GENRE:;
#CREDIT:Kikoia;
#MUSIC:Goblin [Kikoia].ogg;
#BANNER:Goblin [Kikoia].png;
#BACKGROUND:Goblin [Kikoia]-bg.png;
#CDTITLE:;
#SAMPLESTART:70.184;
#SAMPLELENGTH:14.267;
#SELECTABLE:YES;
#OFFSET:0.926;
#BPMS:0.000=101.023;
#STOPS:;
#SPEEDS:20.000=1.000=0.000=0;
#SCROLLS:0.000=1.001,
20.000=0.000,
22.333=1.000,
120.000=0.500,
124.000=1.000,
156.000=0.000,
158.000=1.000
;
#TICKCOUNTS:0.000=4;
#TIMESIGNATURES:0.000=4=4;
#LABELS:0.000=Song Start;
#COMBOS:0.000=1;
#ORIGIN:;
#PREVIEWVID:;
#JACKET:;
#CDIMAGE:;
#DISCIMAGE:;
#BGCHANGES:1.000=Goblin [Kikoia].avi=1.000=1=0=0=StretchNoLoop==CrossFade==,
99999.000=-nosongbg-=1.000=0=0=0=StretchNoLoop====
;
#FGCHANGES:;

//--------------- dance-single - Kikoia ----------------
#NOTEDATA:;
#STEPSTYPE:dance-single;
#DESCRIPTION:Kikoia;
#DIFFICULTY:Beginner;
#METER:4;
#RADARVALUES:0.15086,0.206169,0.130373,0,0.006519,162,142,20,0,8,0,0,0,0,0.15086,0.206169,0.130373,0,0.006519,162,142,20,0,8,0,0,0,0;
#CHARTNAME:;
#CHARTSTYLE:;
#CREDIT:Kikoia;
#NOTES:
0000
0000
0000
0000
,
0000
0000
0000
0000
,
0000
0000
0000
0000
,
1000
0000
1000
0000
,
0001
0000
0001
0000
,
1001
0000
0000
0000
,
0010
0010
0010
0000
,
1000
1000
1000
0000
,
0010
0010
0010
0000
,
0001
0001
0001
0000
,
1000
0000
1000
0000
,
0001
0000
0001
0000
,
0001
0000
0001
0000
,
0001
0000
1000
0000
,
1001
0001
0000
0001
,
0000
0010
0000
0010
,
0000
1000
0000
1000
,
0000
0100
0000
0100
,
0100
0000
0010
0000
,
0010
0000
0010
0000
,
0001
0000
0001
0000
,
1000
1000
0001
0001
,
1001
0000
0000
0000
,
0110
0000
0000
0000
,
1001
0000
0000
0000
,
1000
0000
0001
0000
,
0001
0000
0010
0000
,
0001
0000
0100
0000
,
0001
0001
1000
1000
,
0010
0000
0100
0000
,
1001
0000
0000
0000
,
1000
1000
1000
0000
,
0001
0000
0001
0000
,
0001
0001
0001
0000
,
1000
0000
1000
0000
,
0010
0010
1000
0000
,
0001
0001
0010
0000
,
0010
0010
0001
0001
,
0010
0010
1000
1000
,
1001
0000
0000
0000
,
0110
0000
0000
0000
,
1000
0000
1000
0000
,
0100
0000
0100
0000
,
0010
0000
0010
0000
,
0001
0001
0001
0000
,
1000
1000
1000
0000
,
0110
0000
1001
0000
,
0110
0000
1001
0000
,
1000
1000
1000
0001
,
1001
0000
1000
1000
,
0010
0000
1000
0000
,
0001
0001
0010
0000
,
0001
0000
0110
0000
,
1001
1000
0001
0000
,
1001
0001
1000
0000
,
0010
1000
0010
1000
,
1001
0000
0110
0000
,
0001
0001
0001
0000
,
1000
1000
1000
0000
,
0010
0010
0010
0000
,
0100
0100
0100
0000
,
0110
0000
1001
0000
,
0000
0000
0000
0000
0000
MMMM
0000
0000
0000
0000
0000
0000
0000
0000
0000
0000
0000
0000
0000
0000
0000
0000
0000
0000
;

//--------------- dance-single - Kikoia ----------------
#NOTEDATA:;
#STEPSTYPE:dance-single;
#DESCRIPTION:Kikoia;
#DIFFICULTY:Easy;
#METER:6;
#RADARVALUES:0.260746,0.370952,0.228153,0.195559,0.006519,280,245,35,30,8,0,0,0,0,0.260746,0.370952,0.228153,0.195559,0.006519,280,245,35,30,8,0,0,0,0;
#CHARTNAME:;
#CHARTSTYLE:;
#CREDIT:Kikoia;
#NOTES:
0000
0000
0000
0000
,
0000
0000
0000
0000
,
0000
0000
0000
0000
,
1000
1000
0001
0001
,
1000
1000
0001
0001
,
2002
0000
0000
3003
,
1000
0001
1000
0001
,
0100
0010
0100
0010
,
1000
1000
0001
0001
,
0220
0000
0000
0000
0000
0330
0000
0000
,
1000
0010
1000
0010
,
1000
0001
1000
0001
,
0100
0001
0100
0001
,
0010
0001
0010
0001
,
0022
0000
0033
0000
0001
0010
0001
0000
,
0010
0001
0010
0000
0011
0000
1001
0000
,
1000
0010
1000
0000
0010
1000
0010
0000
,
1010
1001
0101
1001
,
1000
0001
1000
0000
0001
1000
0001
0000
,
1000
1000
0100
0000
0010
0010
0001
0000
,
0001
0001
1000
1000
,
0010
0010
0010
0000
0100
0100
0100
0000
,
2002
0000
0000
3003
1000
0000
0010
0000
,
2020
0000
0000
3030
2002
0000
0000
3003
,
2002
0000
0000
3003
0001
0000
0100
0000
,
0202
0000
0000
0303
2002
0000
0000
3003
,
1000
0100
1000
1000
,
0001
0100
0001
0001
,
1001
1001
0110
0110
,
0110
0000
1001
0000
1000
0001
1000
0001
,
2002
0000
0000
0000
0000
0000
0000
3003
,
1000
1000
1000
0000
0100
0100
0100
0000
,
0010
0010
0010
0000
0001
0001
0001
0000
,
0001
0001
0001
0000
0100
0100
0100
0000
,
0010
0010
0010
0000
1000
1000
1000
0000
,
1000
0001
1000
0000
0001
1000
0001
0000
,
0001
0010
0001
0000
1000
0100
1000
0000
,
0010
0010
0100
0100
,
0001
0001
1000
1000
,
0220
0000
0000
0000
,
0330
0000
0000
0000
,
2002
0000
0000
3003
,
2020
0000
0000
3030
,
0202
0000
0000
0303
,
1000
1000
0100
0100
,
0001
0001
0100
0100
,
0001
0010
0100
1000
,
0100
0010
0001
0001
,
2002
0000
0000
3003
,
0001
0001
0001
0000
0100
0100
0100
0000
,
0010
0010
0010
0000
1000
1000
1000
0000
,
1000
1000
1000
0000
0100
0100
0100
0000
,
0010
0010
0010
0000
0001
0001
0001
0000
,
0001
1000
0001
0000
1000
0001
1000
0000
,
1000
0010
1000
0000
0001
0100
0001
0000
,
0010
0010
0100
0100
,
1000
1000
0001
0001
,
1001
1001
1010
1010
,
1001
1001
0011
0011
,
0001
1000
0001
0000
1000
0001
1000
0000
,
1000
0010
1000
0010
0100
0001
0100
0001
,
1000
1000
1000
1000
0001
0001
0000
0000
,
0000
0000
0000
0000
0000
0000
0000
0000
0000
0000
0000
0000
0000
0000
0000
0000
0000
0000
0000
MMMM
0000
0000
0000
0000
0000
0000
0000
0000
0000
0000
0000
0000
0000
0000
0000
0000
0000
0000
;

//--------------- dance-single - Kikoia ----------------
#NOTEDATA:;
#STEPSTYPE:dance-single;
#DESCRIPTION:Kikoia;
#DIFFICULTY:Medium;
#METER:11;
#RADARVALUES:0.428368,0.494399,0.273783,0.254227,0.149929,460,418,42,39,10,0,0,0,0,0.428368,0.494399,0.273783,0.254227,0.149929,460,418,42,39,10,0,0,0,0;
#CHARTNAME:;
#CHARTSTYLE:;
#CREDIT:Kikoia;
#NOTES:
0000
0000
0000
0000
,
0000
0000
0000
0000
,
0000
0000
0000
0000
,
1000
0010
1000
0000
0001
0010
0001
0000
,
1001
0000
0000
0000
0110
0000
0000
0000
0000
1001
0000
0000
1001
0000
0000
1000
0000
0000
0010
0000
0000
0100
0000
0000
,
0110
0000
0000
0000
0000
0000
0000
0000
0000
0000
0000
0000
0000
0000
0000
0000
0000
0000
1000
0000
0010
1000
0000
0000
,
1001
1000
0010
0010
1001
0001
0010
0010
,
0001
0010
0100
1000
1000
0010
0100
0001
,
0001
0100
0010
1000
0100
1000
0001
0010
,
0011
0000
0000
0000
1001
0000
0000
0000
0000
2200
0000
0000
0000
0000
0000
0000
0000
0000
0000
0000
0000
3300
0000
0000
,
1000
1000
0001
0100
0001
0001
1000
0001
,
0100
0010
1000
0100
1000
0001
0010
0001
,
0001
0100
1000
0100
0001
0010
1000
0010
,
0001
0000
0010
0001
0000
0000
1000
0000
0000
1000
0000
0000
1001
0000
0000
0001
0000
0000
0101
0000
0000
0101
0000
0000
,
0100
0001
0010
0000
1001
0022
0000
0033
,
0001
0010
0100
1000
0010
1000
0001
0001
,
1000
0010
0100
0001
0010
0001
1000
1000
,
0010
0010
1000
0100
0010
0001
0100
0001
,
1000
0001
1000
0001
0000
0000
0001
0000
0100
0010
0100
0010
0000
0000
0010
0000
,
1010
1000
1001
0001
0010
0100
1000
1000
,
0001
0001
0010
0001
0100
0010
1000
1000
,
0010
1000
0100
1000
1000
0100
0001
0100
,
1000
0000
0000
0000
0000
0000
0000
0000
0000
0000
0000
0000
0000
0000
0000
0000
0000
0000
0000
1100
0000
0000
0000
0000
0000
0000
0000
0000
0000
0000
0000
0000
0000
0000
0000
0000
0022
0000
0000
0000
0000
0000
0000
0000
0000
0000
0000
0000
0000
0000
0000
0000
0000
0000
0000
0000
0000
0000
0000
0000
0033
0000
0000
0000
0000
0000
0000
0000
0000
0000
0000
0000
0001
0000
0000
0000
0000
0000
0000
0000
0000
0000
0000
0000
0010
0000
0000
0000
0000
0000
0000
0000
0000
0000
0000
0000
,
1001
0000
0000
0000
0000
0000
0000
0000
0000
0000
0000
0000
0000
0000
0000
0000
0000
0000
0000
0101
0000
0000
0000
0000
0000
0000
0000
0000
0000
0000
0000
0000
0000
0000
0000
0000
2020
0000
0000
0000
0000
0000
0000
0000
0000
0000
0000
0000
0000
0000
0000
0000
0000
0000
0000
0000
0000
0000
0000
0000
0000
0000
0000
0000
0000
0000
0000
0000
0000
0000
0000
0000
3030
0000
0000
0000
0000
0000
0000
0000
0000
0000
0000
0000
0010
0000
0000
0000
0000
0000
0000
0000
0000
0000
0000
0000
,
2000
0000
0000
0000
0000
0000
0000
0000
0000
0000
0000
0000
0000
0000
0000
0000
0000
0000
0000
3020
0000
0000
0000
0000
0000
0000
0000
0000
0000
0000
0000
0000
0000
0000
0000
0000
0230
0000
0000
0000
0000
0000
0000
0000
0000
0000
0000
0000
0300
0000
0000
0000
0000
0000
0000
0000
0000
0000
0000
0000
0100
0000
0000
0000
0000
0000
0000
0000
0000
0000
0000
0000
0001
0000
0000
0000
0000
0000
0000
0000
0000
0000
0000
0000
0100
0000
0000
0000
0000
0000
0000
0000
0000
0000
0000
0000
,
0001
0000
0000
0000
0000
0000
0000
0000
0000
0000
0000
0000
0000
0000
0000
0000
0000
0000
0000
1000
0000
0000
0000
0000
0000
0000
0000
0000
0000
0000
0000
0000
0000
0000
0000
0000
2002
0000
0000
0000
0000
0000
0000
0000
0000
0000
0000
0000
0000
0000
0000
0000
0000
0000
0000
0000
0000
0000
0000
0000
0000
0000
0000
0000
0000
0000
0000
0000
0000
0000
0000
0000
0000
0000
0000
0000
0000
0000
0000
0000
0000
0000
0000
0000
3003
0000
0000
0000
0000
0000
0000
0000
0000
0000
0000
0000
,
1000
0000
1000
0100
0000
0000
0100
0020
0000
0030
0010
0000
0001
0000
0010
0000
,
0001
0000
0001
0100
0000
0000
0100
0020
0000
0000
0000
0030
1000
0000
0001
0000
,
1000
0100
0001
0100
1000
0010
1000
0001
,
0100
0000
0000
0000
0000
0000
0000
0000
0000
0000
0000
0000
0000
0000
0000
0000
0000
0000
0000
0002
0000
0000
0000
0000
0000
0000
0000
0000
0000
0000
0000
0000
0000
0000
0000
0000
2000
0000
0000
0000
0000
0000
0000
0000
0000
0000
0000
0000
0000
0000
0000
0000
0000
0000
0000
0000
0000
0000
0000
0000
0000
0000
0000
0000
0000
0000
0000
0000
0000
0000
0000
0000
0000
0000
0000
0000
0000
0000
0000
0000
0000
0000
0000
0000
0000
0000
0000
0000
0000
0000
0000
0000
0000
0000
0000
0000
,
3003
0000
0000
0000
,
1010
0010
1000
0010
0100
0010
1000
0010
,
0101
0000
0101
0000
0001
0100
0001
0000
0100
0000
0001
0000
1000
0000
0100
0000
,
0011
0010
0001
0010
0100
0010
0001
0010
,
1100
0000
1100
0000
1000
0100
1000
0000
0100
0000
1000
0000
0001
0000
0001
0000
,
1000
0001
1000
0100
0010
0001
0010
0001
,
1000
0001
0100
0010
1000
0010
1000
0001
,
1000
0100
1000
0000
0001
0000
0010
0000
0001
0100
0001
0000
1000
0000
0010
0000
,
1010
1010
1001
1001
0220
0000
0000
0000
,
0330
0000
0000
0000
,
0000
0000
1000
0000
1000
2000
0000
3020
,
0000
0230
0000
0302
0000
2003
0000
3200
,
0000
0000
0000
0300
0000
0000
0020
0000
0000
0000
0000
0000
0031
0000
0010
0000
0000
0000
0001
0000
0000
0000
2000
0000
,
0000
0000
0000
0000
0000
0000
0000
0000
3000
1000
0000
0000
1000
0000
0000
0100
0000
0000
0010
0000
0000
0001
0000
0000
,
0001
0000
0001
0010
0001
0000
0100
0000
1000
0000
1000
0100
1000
0000
0001
0000
,
1000
0010
0100
0001
0100
0010
1000
0001
,
1000
2000
0001
3002
0010
0023
0100
0230
,
0302
0023
0230
2300
3020
0230
0302
2000
,
3003
0000
0000
0000
,
1001
0000
0010
1000
0001
0000
0010
0000
0100
0000
0010
0000
0001
0000
0010
0000
,
1100
0000
1100
0000
0100
1000
0001
0000
0010
0000
1000
0000
0001
0000
0100
0000
,
1001
0000
0100
0001
1000
0000
0010
0000
0100
0000
0010
0000
1000
0000
0010
0000
,
0101
0000
0101
0000
0100
0001
1000
0000
0001
0000
1000
0000
0010
1000
0001
0000
,
0001
0000
0001
0000
1000
0001
0100
0000
0100
0000
0001
0000
0010
0000
0100
0000
,
1000
0000
1000
0000
0010
0000
0100
0000
0001
0000
0001
0000
0001
0010
0100
0000
,
1000
0000
0001
0000
1000
0010
0100
0000
0001
0000
1000
0000
0001
0000
1000
0000
,
0001
0010
0100
0000
1100
0000
1001
0000
M00M
0000
0000
0000
0000
0000
0000
0000
,
1000
0000
0001
0000
0100
0010
1000
0000
0001
0000
1000
0100
0010
0000
0010
0000
,
0001
0000
1000
0000
0010
0100
0001
0000
0001
0000
1000
0010
1000
0000
1000
0000
,
0001
0000
1000
0000
0010
0100
0001
0000
1000
0000
0001
0010
0100
0000
0100
0000
,
1000
0000
0001
0000
0100
0010
1000
0000
1000
0000
0001
0100
0001
0000
0001
0000
,
1000
0000
1000
0000
1000
0100
1000
0100
0010
0000
0010
0000
0000
0000
0000
0000
,
0000
0000
0000
0000
0000
0000
0000
0000
0000
0000
0000
0000
0000
0000
0000
0000
0000
0000
0000
MMMM
0000
0000
0000
0000
0000
0000
0000
0000
0000
0000
0000
0000
0000
0000
0000
0000
0000
0000
;

//--------------- dance-single - Kikoia ----------------
#NOTEDATA:;
#STEPSTYPE:dance-single;
#DESCRIPTION:Kikoia;
#DIFFICULTY:Hard;
#METER:13;
#RADARVALUES:0.529873,0.617897,0.371563,0.195559,0.453046,569,512,57,30,21,1,2,0,0,0.529873,0.617897,0.371563,0.195559,0.453046,569,512,57,30,21,1,2,0,0;
#OFFSET:0.926;
#BPMS:0.000=101.023;
#SPEEDS:20.000=1.000=0.000=0;
#SCROLLS:0.000=1.001,
20.000=0.000,
22.333=1.000,
156.000=0.000,
160.000=0.500,
176.000=1.000,
192.000=0.500,
196.000=1.000
;
#TICKCOUNTS:0.000=4;
#TIMESIGNATURES:0.000=4=4;
#LABELS:0.000=Song Start;
#COMBOS:0.000=1;
#CHARTNAME:;
#CHARTSTYLE:;
#CREDIT:Kikoia;
#NOTES:
0000
0000
0000
0000
,
0000
0000
0000
0000
,
0000
0000
0000
0000
,
1000
0000
1000
0100
1000
0000
0002
0000
0003
0000
0001
0000
0001
0010
0100
0000
,
1000
1000
0000
0001
0001
0000
0100
0100
0000
0010
0010
0000
1000
0100
0010
0000
,
1001
0000
0000
0000
0000
0000
0000
0000
0000
0000
0000
0000
0000
0000
0000
0000
0000
0000
0000
0000
0000
0000
0000
0000
0000
0000
0000
0000
0000
0000
0000
0000
0000
0000
0000
0000
0000
0000
0000
0000
0000
0000
0000
0000
0000
0000
0000
0000
0000
0000
0000
0000
0000
0000
0000
0000
0000
0000
0000
0000
0000
0000
0000
0000
0000
0000
0000
0000
0000
0000
0000
0000
1000
0000
0000
0000
0000
0000
0000
0000
0010
0000
0000
0000
1000
0000
0000
0000
0000
0000
0000
0010
0000
0000
0000
0000
,
0100
0000
0000
0000
0000
0000
0000
0000
0000
0000
0000
0000
0101
0000
0000
0000
0000
0000
0000
0000
0000
0000
0000
0000
0000
0000
0000
0000
0000
0000
0001
0000
0000
0000
0000
0000
0000
0000
0000
0000
0000
0000
0000
0001
0000
0000
0000
0000
0010
0000
0000
0000
0000
0000
0000
0000
0000
0000
0000
0000
0010
0000
0000
0000
0000
0000
0000
0000
0000
0000
0000
0000
0001
0000
0000
0000
0000
0000
0000
0000
0010
0000
0000
0000
0001
0000
0000
0000
0000
0000
0000
0000
0000
0000
0000
0000
,
0101
0000
0000
0000
0000
0000
0000
0000
0000
0000
0000
0000
0000
0000
0000
0000
0000
0000
0000
1010
0000
0000
0000
0000
0000
0000
0000
0000
0000
0000
0000
0000
0000
0000
0000
0000
2000
0000
0000
0000
0000
0000
0000
0000
0000
0000
0000
0000
0010
0000
0000
0000
0000
0000
0000
0000
0000
0000
0000
0000
0010
0000
0000
0000
0000
0000
0000
0000
0000
0000
0000
0000
0001
0000
0000
0000
0000
0000
0000
0000
0000
0000
0000
0000
0001
0000
0000
0000
0000
0000
0000
0000
0000
0000
0000
0000
,
3001
0000
0000
0100
0000
0000
0010
0000
1000
0010
0000
0000
0100
0000
0000
0001
0000
0000
0010
0000
0001
0010
0000
0000
,
0002
0000
0000
0000
0000
0000
0000
0000
0000
0000
0000
0000
0000
0000
0000
0000
0000
0000
0000
0203
0000
0000
0000
0000
0000
0000
0000
0000
0000
0000
0000
0000
0000
0000
0000
0000
0020
0000
0000
0000
0000
0000
0000
0000
0000
0000
0000
0000
0000
0000
0000
0000
0000
0000
0000
0000
0000
0000
0000
0000
0330
0000
0000
0000
0000
0000
0000
0000
0000
0000
0000
0000
0MM0
0000
0000
0000
0000
0000
0000
0000
0000
0000
0000
0000
0000
0000
0000
0000
0000
0000
0000
0000
0000
0000
0000
0000
,
1001
0000
0000
0000
0000
0000
0000
0000
0000
0000
0000
0000
0001
0000
0000
0000
0000
0000
0000
0100
0000
0000
0000
0000
0010
0000
0000
0000
0000
0000
0000
0000
0000
0000
0000
0000
0100
0000
0000
0000
0000
0000
0000
0000
0000
0000
0000
0000
0001
0000
0000
0000
0000
0000
0000
0000
0000
0000
0000
0000
1000
0000
0000
0000
0000
0000
0000
0000
0000
0000
0000
0000
0001
0000
0000
0000
0000
0000
0000
0000
0000
0000
0000
0000
1000
0000
0000
0000
0000
0000
0000
0000
0000
0000
0000
0000
,
1010
0000
0000
0000
0000
0000
0000
0000
0000
0000
0000
0000
0010
0000
0000
0000
0000
0000
0000
1000
0000
0000
0000
0000
0010
0000
0000
0000
0000
0000
0000
0000
1000
0000
0000
0000
0000
0000
0000
0000
0000
0000
0000
0000
0000
0000
0000
0000
1000
0000
0000
0000
0000
0000
0000
0000
0000
0000
0000
0000
0001
0000
0000
0000
0000
0000
0000
0000
0000
0000
0000
0000
0010
0000
0000
0000
0000
0000
0000
0000
0000
0000
0000
0000
0100
0000
0000
0000
0000
0000
0000
0000
0000
0000
0000
0000
,
0011
0000
0000
0000
0000
0000
0000
0000
0000
0000
0000
0000
0010
0000
0000
0000
0000
0000
0000
0001
0000
0000
0000
0000
0010
0000
0000
0000
0000
0000
0000
0000
0001
0000
0000
0000
0000
0000
0000
0000
0000
0000
0000
0000
0000
0000
0000
0000
0010
0000
0000
0000
0000
0000
0000
0000
0000
0000
0000
0000
0001
0000
0000
0000
0000
0000
0000
0000
0000
0000
0000
0000
1000
0000
0000
0000
0000
0000
0000
0000
0000
0000
0000
0000
0100
0000
0000
0000
0000
0000
0000
0000
0000
0000
0000
0000
,
1000
0000
0000
0000
0000
0000
0000
0000
1000
0000
0000
0000
0010
0000
0000
0000
0000
0000
0000
0000
0000
0000
0000
0000
1010
0000
0000
0000
0000
0000
0000
0000
0000
0000
0000
0000
1010
0000
0000
0000
0000
0000
0000
0000
0000
0000
0000
0000
0101
0000
0000
0000
0000
0000
0000
0000
0000
0000
0000
0000
0000
0000
0000
0000
0000
0000
0000
0000
0000
0000
0000
0000
0001
0000
0000
0000
0000
0000
0000
0000
0100
0000
0000
0000
0001
0000
0000
0000
0000
0000
0000
0100
0000
0000
0000
0000
,
0010
0010
1001
1000
0001
2000
0010
0010
,
3001
0000
1000
0010
0000
0000
0100
0000
0001
0010
0000
0000
0001
0000
0000
0010
0000
0000
0100
0000
0000
1000
0000
0000
,
1000
1010
0001
0011
0001
0100
0010
1000
,
1000
0000
0010
1000
0000
0000
0001
0000
0100
0001
0000
0000
0010
0000
0001
0010
0000
0000
0011
0000
0000
1100
0000
0000
,
1000
0100
0010
0002
0000
0003
0001
0010
0100
0010
0001
0200
0000
0000
0301
1000
,
0100
0010
0001
0010
0100
1000
0010
0100
0001
0100
0010
1000
0000
1000
0100
0000
,
0010
0000
0001
0000
0010
0001
0010
0000
0100
1000
0100
0000
1000
0010
1000
0010
,
0100
0001
0100
0001
0100
0010
1000
0100
0010
0001
1000
0001
1000
0000
0100
0000
,
1001
0000
0000
0000
0000
0000
0000
0000
0000
0000
0000
0000
0000
0000
0000
0000
0000
0000
0000
0011
0000
0000
0000
0000
0000
0000
0000
0000
0000
0000
0000
0000
0000
0000
0000
0000
2200
0000
0000
0000
0000
0000
0000
0000
0000
0000
0000
0000
0000
0000
0000
0000
0000
0000
0000
0000
0000
0000
0000
0000
3300
0000
0000
0000
0000
0000
0000
0000
0000
0000
0000
0000
0010
0000
0000
0000
0000
0000
0000
0000
0000
0000
0000
0000
1000
0000
0000
0000
0000
0000
0000
0000
0000
0000
0000
0000
,
1001
0000
0000
0000
0000
0000
0000
0000
0000
0000
0000
0000
0000
0000
0000
0000
0000
0000
0000
1010
0000
0000
0000
0000
0000
0000
0000
0000
0000
0000
0000
0000
0000
0000
0000
0000
0202
0000
0000
0000
0000
0000
0000
0000
0000
0000
0000
0000
0000
0000
0000
0000
0000
0000
0000
0000
0000
0000
0000
0000
0000
0000
0000
0000
0000
0000
0000
0000
0000
0000
0000
0000
0303
0000
0000
0000
0000
0000
0000
0000
0000
0000
0000
0000
0100
0000
0000
0000
0000
0000
0000
0000
0000
0000
0000
0000
,
0110
0000
0000
0000
0000
0000
0000
0000
0000
0000
0000
0000
0000
0000
0000
0000
0000
0000
0000
0010
0000
0000
0000
0000
0000
0000
0000
0000
0000
0000
0000
0000
0000
0000
0000
0000
2020
0000
0000
0000
0000
0000
0000
0000
0000
0000
0000
0000
3030
0000
0000
0000
0000
0000
0000
0000
0000
0000
0000
0000
0010
0000
0000
0000
0000
0000
0000
0000
0000
0000
0000
0000
M010
0000
0000
0000
0000
0000
0000
0000
0000
0000
0000
0000
0001
0000
0000
0000
0000
0000
0000
0000
0000
0000
0000
0000
,
0011
0000
0000
0000
0000
0000
0000
0000
0000
0000
0000
0000
0000
0000
0000
0000
0000
0000
0000
0110
0000
0000
0000
0000
0000
0000
0000
0000
0000
0000
0000
0000
0000
0000
0000
0000
2200
0000
0000
0000
0000
0000
0000
0000
0000
0000
0000
0000
0000
0000
0000
0000
0000
0000
0000
0000
0000
0000
0000
0000
3000
0000
0000
0000
0000
0000
0000
0000
0000
0000
0000
0000
1300
0000
0000
0000
0000
0000
0000
0000
0000
0000
0000
0000
0001
0000
0000
0000
0000
0000
2000
0000
0000
0000
0000
0000
,
0000
3000
0001
0002
0000
0003
0100
0200
0000
0300
0000
0000
0001
0000
1000
0002
,
0000
0000
0000
0000
0000
0000
0003
0000
0000
0000
0000
0000
1000
0000
0000
0000
0000
0000
2000
0000
0000
0000
0000
0000
0000
0000
0000
0000
0000
0000
3000
0000
0000
0000
0000
0000
0010
0000
0000
0000
0000
0000
0020
0000
0000
0000
0000
0000
0000
0000
0000
0000
0000
0000
0000
0000
0000
0000
0000
0000
0000
0000
0000
0000
0000
0000
0000
0000
0000
0000
0000
0000
0030
0000
0000
0000
0000
0000
0000
0000
0000
0000
0000
0000
1000
0000
0000
0000
0000
0000
0000
0010
0000
0000
0000
0000
,
1000
0100
0010
0001
0010
0001
0100
0010
,
2000
0000
0000
0000
0000
0000
0000
0000
0000
0000
0000
0000
0000
0000
0000
0000
0000
0000
0000
3020
0000
0000
0000
0000
0000
0000
0000
0000
0000
0000
0000
0000
0000
0000
0000
0000
0230
0000
0000
0000
0000
0000
0000
0000
0000
0000
0000
0000
0001
0000
0000
0000
0000
0000
0000
0000
0000
0000
0000
0000
0301
0000
0000
0000
0000
0000
0000
0000
0000
0000
0000
0000
0001
0000
0000
0000
0000
0000
0010
0000
0000
0000
0000
0000
0100
0000
0000
0000
0000
0000
1000
0000
0000
0000
0000
0000
,
0100
0000
0100
0000
0010
0100
0010
0100
1000
0000
0001
0000
1001
0000
M001
0000
,
0011
0000
0010
0000
1100
0000
0100
0000
1000
0001
1000
0000
0010
0100
0010
0000
,
1000
0000
1000
0000
0010
1000
0001
0100
0001
0000
0100
0000
010M
0000
1000
0000
,
1100
0000
1000
0000
0101
0000
0001
0000
0001
1000
0001
0000
0010
0100
0010
0000
,
0001
0000
0001
0000
0010
0001
1000
0100
0010
0000
1100
0000
0100
1000
0100
0000
,
0001
0000
0001
0000
0010
0000
0010
0000
0100
0000
0100
0000
0010
0001
0010
0000
,
0001
0000
0001
0000
1000
0000
1000
0000
0010
0000
0010
0000
1000
0010
1000
0020
,
0000
0000
1000
1030
0000
0200
0000
0000
0320
0000
0001
0032
0000
0000
1003
2000
,
0000
0000
0001
0000
0002
0000
0000
0000
3003
0000
0000
0000
0000
MMMM
0000
0000
,
0000
0000
0000
0000
,
0000
0000
0000
0000
0000
0000
2000
0000
0000
0000
0000
0000
0001
0000
0000
0002
0000
0000
3000
0000
0000
0000
1000
0000
,
0000
0010
0000
0100
0000
1000
0000
0023
,
0000
0000
0000
0000
0000
0000
0001
0000
0000
0000
0000
0000
0001
0000
0001
0000
0000
0000
0100
0000
0000
0230
0000
0000
,
0000
0000
0300
0100
1000
0100
0010
0001
,
1000
0000
1000
0100
0010
0000
0010
0001
1000
0000
0010
0000
0100
0000
0001
0000
,
0001
0000
0001
0100
1000
0000
1000
0100
0010
0000
0010
1000
0001
0000
0001
0000
,
1000
0001
1000
0000
0010
1000
0010
0000
0100
0001
0100
0000
0001
0010
0001
0000
,
0001
0000
0100
0000
0010
0000
1000
0000
0010
0100
0001
1000
0100
0010
0001
0010
,
0100
0000
0100
0000
0010
0100
0010
0100
1000
0000
0001
0000
1001
0000
M001
0000
,
0011
0000
0010
0000
0110
0000
0100
0000
0100
1000
0010
0000
0100
0001
0010
0001
,
1000
0000
0001
0000
0010
0001
1000
0100
1000
0000
0100
0000
M100
0000
0001
0000
,
0011
0000
0010
0000
1010
0000
0010
0000
1000
0001
1000
0001
0010
0001
0010
0100
,
1000
0000
1100
0000
0100
0010
0100
1000
0100
0000
1100
0000
1001
0000
0001
0000
,
0100
0000
0100
0000
1010
0000
1010
0000
0001
0100
0001
0000
0011
0000
0011
0000
,
0001
1000
0001
0000
0001
0010
0001
0000
1000
0100
1000
0000
0010
0001
1000
2000
,
0000
0000
0010
0010
0000
3002
0000
0000
0100
0000
1000
2003
0000
0000
0001
3001
,
0000
1000
0001
1000
0101
1001
1010
1001
,
1000
0010
1000
0010
1000
0000
0100
0000
0010
0001
0010
0001
0010
0000
0001
0000
,
0001
1000
0100
0000
1000
0001
0010
0000
0001
0000
1001
0000
0001
0000
1010
0000
,
1000
0000
0001
0000
1000
0010
0100
0001
0010
0000
0010
0000
0001
0010
0100
1000
,
0010
0000
0000
0000
0000
0000
0000
0000
0000
0000
0000
0000
0000
0000
0000
0000
0000
0000
0000
0000
0000
0000
0000
0000
0010
0000
0000
0000
0000
0000
0000
0000
0000
0000
0000
0000
0000
0000
0000
0000
0000
0000
0000
0000
0000
0000
0000
0000
0000
0000
0000
0000
0000
0000
0000
0000
0000
0000
2020
0000
0000
0000
0000
0000
0000
0000
0000
0000
0000
0000
0000
0000
0000
0000
0000
0000
0000
0000
0000
0000
0000
0000
0000
0000
0000
0000
3030
0000
0000
0000
0000
0000
0000
0000
0000
0000
2002
0000
0000
0000
0000
0000
0000
0000
0000
0000
0000
0000
0000
0000
0000
0000
0000
0000
0000
0000
0000
0000
0000
0000
0000
0000
0000
0000
0000
3003
0000
0000
0000
0000
0000
0000
0000
0000
0022
0000
0000
0000
0000
0000
0000
0000
0000
0000
0000
0000
0000
0000
0000
0000
0000
0000
0000
0000
0033
0000
0000
0000
0000
0000
0000
0000
0000
0000
0000
0000
0000
0000
0110
0000
0000
0000
0000
0000
0000
0000
0000
0000
0000
0000
0000
0000
0000
0000
0000
0000
0000
0000
0000
0000
0000
0000
,
0100
0000
0100
0000
0010
0100
0010
0100
1000
0000
1001
0000
0000
0000
0000
0000
,
0000
0000
0000
0000
0000
MMMM
0000
0000
0000
0000
0000
0000
0000
0000
0000
0000
0000
0000
0000
0000
0000
0000
0000
0000
;
