#VERSION:0.83;
#TITLE:Funhouse;
#SUBTITLE:;
#ARTIST:P!nk;
#TITLETRANSLIT:;
#SUBTITLETRANSLIT:;
#ARTISTTRANSLIT:;
#GENRE:;
#CREDIT:;
#MUSIC:Funhouse [Pruz].ogg;
#BANNER:Funhouse [Pruz].png;
#BACKGROUND:Funhouse [Pruz]-bg.png;
#CDTITLE:;
#SAMPLESTART:97.501;
#SAMPLELENGTH:19.603;
#SELECTABLE:YES;
#OFFSET:-0.890;
#BPMS:0.000=104.000;
#STOPS:;
#SPEEDS:0.000=1.000=0.000=0;
#SCROLLS:0.000=1.000;
#TICKCOUNTS:0.000=4;
#TIMESIGNATURES:0.000=4=4;
#LABELS:0.000=Song Start;
#COMBOS:0.000=1;
#ORIGIN:;
#PREVIEWVID:;
#JACKET:Funhouse [Pruz]-jacket.png;
#CDIMAGE:;
#DISCIMAGE:;
#BGCHANGES:0.000=Funhouse [Pruz].avi=1.200=0=0=1===CrossFade_Fastest==,
12.000=Funhouse [Pruz].avi=1.000=0=0=1,
99999.000=-nosongbg-=1.000=0=0=0=StretchNoLoop====
;
#FGCHANGES:;

//--------------- dance-single - Pruz ----------------
#NOTEDATA:;
#STEPSTYPE:dance-single;
#DESCRIPTION:Pruz;
#DIFFICULTY:Beginner;
#METER:2;
#RADARVALUES:0.118724,0.148742,0,0.478493,0,99,99,0,57,0,0,0,0,0,0.118724,0.148742,0,0.478493,0,99,99,0,57,0,0,0,0,0;
#CHARTNAME:Pruz;
#CHARTSTYLE:;
#CREDIT:Pruz;
#NOTES:
0000
0000
0000
0000
,
0000
0000
0000
0000
,
0000
0000
0000
0000
,
0000
0000
0000
0000
,
0020
0030
0020
0030
,
0002
0003
0002
0003
,
2000
3000
2000
3000
,
0020
0030
0020
0030
,
1000
0001
2000
3000
,
0001
1000
0002
0003
,
1000
0010
2000
3000
,
0001
0010
0002
0003
,
1000
1000
0000
0000
,
0010
0010
0000
0000
,
1000
1000
0000
0000
,
0100
0100
0000
0000
,
1000
1000
0000
0000
,
0010
0010
0000
0000
,
0200
0000
0300
0200
0000
0300
0200
0000
,
0300
0000
0000
0000
0200
0300
0200
0300
,
0200
0300
0000
0002
0000
0000
0000
0000
,
0000
0000
0000
0003
,
2000
0000
0000
0000
,
0000
0000
0000
3000
0000
0000
0000
0000
,
0002
0003
2000
3000
,
0002
0003
0200
0300
,
0002
0003
2000
3000
,
0002
0003
0020
0030
,
0002
0003
2000
3000
,
0002
0003
0200
0300
,
0002
0003
2000
3000
,
0002
0003
0020
0030
,
0002
0000
0000
0000
,
2000
0000
0000
0000
0000
0000
0000
0000
0000
0000
0000
0000
0000
0000
0000
0000
0000
0000
0000
0000
0000
0000
0000
0000
0000
0000
0000
0000
0000
0000
0000
0000
0000
0000
0000
0000
0000
0000
0000
0000
0000
0000
0000
0000
0000
0000
0000
0000
0000
0000
0000
0000
0000
0000
0000
0000
0000
0000
0000
0000
0000
0000
0000
0000
0000
0000
0000
0000
0000
0000
0000
0000
0000
0000
0000
0000
0000
0000
0000
0000
0000
0000
0000
0000
0000
0000
0000
0000
0000
0000
0000
3000
0000
0000
0000
0000
,
0000
0000
0013
0010
,
0020
0030
0200
0300
,
0200
0300
0010
0010
,
0020
0030
0100
0100
,
0200
0000
0000
0000
0300
0000
0000
2000
,
0000
0000
0000
0000
,
0000
3000
0002
0000
,
0000
0000
0000
0000
0000
0000
0000
0003
,
0000
0000
1000
1000
,
0000
0000
0100
0100
,
0000
0000
1000
1000
,
0000
0000
0010
0010
,
0000
0000
1000
1000
,
0000
0000
0001
0001
,
0000
0000
0000
0000
0200
0000
0300
0200
,
0000
0300
0200
0000
0300
0000
0000
0000
,
0200
0300
0200
0300
0200
0300
0000
0000
;

//--------------- dance-single - Pruz ----------------
#NOTEDATA:;
#STEPSTYPE:dance-single;
#DESCRIPTION:Pruz;
#DIFFICULTY:Easy;
#METER:5;
#RADARVALUES:0.269827,0.339982,0.167892,0.520466,0.004197,225,205,20,62,0,0,0,0,0,0.269827,0.339982,0.167892,0.520466,0.004197,225,205,20,62,0,0,0,0,0;
#CHARTNAME:Pruz;
#CHARTSTYLE:;
#CREDIT:Pruz;
#NOTES:
0000
0000
0000
0000
,
0000
0000
0000
0000
,
0000
0000
0000
0000
,
0000
0000
0000
0000
0000
0000
0000
0010
,
0220
0330
2002
3003
0001
0100
0010
0000
,
0220
0330
2002
3003
0001
0010
0100
0000
,
0220
0330
2002
3003
0001
0100
0010
0000
,
0220
0330
2002
3003
1000
0100
0010
0000
,
0200
1300
0001
0000
0200
0301
1000
0000
,
0200
0300
0020
0030
0002
1003
0001
0000
,
0200
0300
0010
0000
2000
3001
1000
0000
,
0001
0001
0010
0010
0200
0000
0300
0000
,
1100
0011
0001
1000
,
0010
0100
0010
0000
2000
0000
3002
0000
,
0013
0010
0010
0000
0100
1000
0100
0000
,
0010
0010
0010
0000
0001
0000
1000
0000
,
1010
0101
0001
1000
,
0100
0010
0100
0000
2000
0000
3002
0000
,
0103
0000
0000
0100
0000
0000
0100
0000
,
0001
0000
1000
0000
0002
0003
0002
0003
,
0200
0300
0000
0001
0000
0000
1000
0000
,
0000
0001
0000
0000
1000
0000
0001
0000
,
1000
0000
0000
0001
0000
0000
1000
0000
,
0000
0001
0000
0000
2000
0000
0000
0000
,
3002
0010
0000
0010
,
0000
0100
0000
0203
,
0320
1000
0000
1000
,
0000
0100
0000
0230
,
0302
1003
2000
3001
,
0002
1003
2000
3001
,
0002
0010
0000
0010
,
2003
0010
0000
0010
,
3002
1000
1000
1000
,
0023
0000
0000
0000
0000
0000
0000
0000
0000
0000
0000
0000
0000
0000
0000
0000
0000
0000
0000
0000
0000
0000
0000
0000
0000
0000
0000
0000
0000
0000
0000
0000
0000
0000
0000
0000
0000
0000
0000
0000
0000
0000
0000
0000
0000
0000
0000
0000
0000
0000
0000
0000
0000
0000
0000
0000
0000
0000
0000
0000
0000
0000
0000
0000
0000
0000
0000
0000
0000
0000
0000
0000
0000
0000
0000
0000
0000
0000
0000
0000
0000
0000
0000
0000
0000
0000
0000
0000
0000
0000
0000
0200
0000
0000
0000
0000
,
0000
0300
0031
1000
,
0001
0000
0002
0003
1000
0000
0001
0000
,
1000
0000
2000
3000
0100
0000
1000
0000
,
0100
0000
0200
0300
1000
0000
0001
0000
,
0010
0010
0010
0010
0001
0000
0000
1000
,
0000
0000
0002
0003
0000
1000
0000
0000
,
0001
0000
0002
0003
1000
0000
0000
1000
,
0000
0000
0002
0003
0000
0001
0000
0000
,
0200
0300
0101
1010
,
1000
0000
0001
0000
0010
0100
0020
0030
,
0002
0000
2003
0000
3010
0010
0010
0000
,
0100
0001
0100
0000
0010
0010
0020
0030
,
1000
0001
0011
1100
,
1000
0000
0001
0000
0100
0010
0200
0300
,
0002
0000
2003
0000
3100
0000
0000
0100
,
0000
0100
1000
0001
,
2000
3000
2000
3000
0200
0300
0000
0000
;

//--------------- dance-single - Pruz ----------------
#NOTEDATA:;
#STEPSTYPE:dance-single;
#DESCRIPTION:Pruz;
#DIFFICULTY:Medium;
#METER:7;
#RADARVALUES:0.392148,0.424977,0.21826,0.352574,0.159498,327,301,26,42,0,0,0,0,0,0.392148,0.424977,0.21826,0.352574,0.159498,327,301,26,42,0,0,0,0,0;
#CHARTNAME:Pruz;
#CHARTSTYLE:;
#CREDIT:Pruz;
#NOTES:
0000
0000
0000
0000
,
0000
0000
0000
0000
,
0000
0000
0000
0000
,
0000
0000
0000
0000
0000
0000
0000
1000
,
2200
0000
3300
0000
0220
0000
0330
0000
0010
0000
0000
0001
1000
0000
0010
0000
,
0220
0000
0330
0000
0202
0000
0303
0000
0010
0000
0000
0001
0100
0000
0001
0000
,
0022
0000
0033
0000
0220
0000
0330
0000
0100
0000
0000
1000
0001
0000
0100
0000
,
0220
0000
0330
0000
2020
0000
3030
0000
0100
0000
0000
1000
0010
0000
1000
0000
,
0001
0001
0010
0000
0001
0001
1000
0000
,
0020
1030
0002
0013
0200
0300
1000
0000
,
0001
0001
0100
0000
0001
0001
1000
0000
,
0200
1300
0020
0130
0002
1003
0001
1000
,
1001
0000
0000
0000
0110
0000
0000
0000
0100
0000
0000
0001
1000
0000
0001
0000
,
0010
0000
0100
0000
0020
0000
0030
0000
0100
0000
0000
1000
0001
0000
1000
0000
,
0001
0000
0001
0000
0010
0000
0000
0000
0100
0000
0000
0010
0001
0000
1000
0000
,
0001
1000
0200
0300
0010
0000
0001
0000
,
1001
0000
0000
0000
0110
0000
0000
0000
0100
0000
0000
1000
0001
0000
1000
0000
,
0010
0000
0100
0000
0020
0000
0030
0000
0100
0000
0000
0001
1000
0000
0001
0000
,
1000
0000
0100
0010
0000
0100
1000
0000
,
0001
1000
0001
0000
0100
0001
1000
0100
,
0010
0000
0100
1000
0000
0100
0010
0000
,
0100
1000
0001
0100
0010
0000
0100
0000
,
0001
0010
0000
1000
0010
0000
0001
0010
,
0000
0000
0000
0100
0000
0000
1000
0000
0000
0001
0000
0000
1000
0000
0010
0000
1000
0000
0001
0000
0010
0000
0001
0000
,
1000
0001
0010
0001
,
1000
0010
1000
0001
,
0010
0000
0001
1000
0000
0000
0001
0000
0100
0010
0000
0000
,
1000
0000
0100
0010
0000
0000
0001
0000
1000
0001
0000
0000
,
0100
0000
0010
1000
0000
0000
0001
0000
0010
0001
0000
0000
,
0100
0000
0001
1000
0000
0000
0100
0000
0010
0100
0000
1000
,
0001
0000
0000
0100
0000
0001
1000
0000
0100
1000
0000
0000
,
0010
0000
0000
0100
0000
0001
0010
0000
0100
1000
0000
0000
,
0100
0000
0000
0100
0000
0000
0010
0000
0000
0010
0000
0001
,
2000
0000
0000
0000
0000
0000
0000
0000
0000
0000
0000
0000
0000
0000
0000
0000
0000
0000
0000
0000
0000
0000
0000
0000
0002
0000
0000
0000
0000
0000
0000
0000
0000
0000
0000
0000
0000
0000
0000
0000
0003
0000
0000
0000
0000
0000
0000
0000
0001
0000
0000
0000
0000
0000
0000
0000
0000
0000
0000
0000
0000
0000
0000
0000
0002
0000
0000
0000
0000
0000
0000
0000
0000
0000
0000
0000
0000
0000
0000
0000
0003
0000
0000
0000
0000
0000
0000
0000
0000
0000
0000
0002
0000
0000
0000
0000
,
0000
0000
0003
3000
1000
0000
1000
0000
,
0100
0100
0010
0010
,
0001
0001
0010
0010
,
0100
0100
1000
1000
,
0002
2003
3002
2003
3010
0000
0100
0001
,
0000
0100
0010
0000
0100
0001
1000
0100
,
0010
0000
0100
0000
1000
0010
0000
0001
,
0010
0000
1000
0001
0000
0100
0010
1000
,
0001
1000
0001
1000
1001
0000
0110
0000
,
0010
0000
0000
1000
0001
0000
1000
0000
0100
0000
0010
0000
0200
0000
0300
0000
,
0010
0000
0000
0001
1000
0000
0001
0000
1000
0000
1000
0000
0100
0000
0000
0000
,
0010
0000
0000
0100
1000
0000
0001
0000
1000
0000
0001
0000
0020
0000
0030
0000
,
0100
1000
1001
0110
,
0010
0000
0000
0001
1000
0000
0001
0000
0100
0000
0010
0000
0200
0000
0300
0000
,
0010
0000
0000
1000
0001
0000
1000
0000
0001
0000
0000
0000
1000
0000
0100
0000
,
0000
0010
0100
0000
1000
0001
1000
0200
,
0320
0032
2003
3002
0203
0300
0000
0000
;

//--------------- dance-single - Pruz ----------------
#NOTEDATA:;
#STEPSTYPE:dance-single;
#DESCRIPTION:Pruz;
#DIFFICULTY:Hard;
#METER:11;
#RADARVALUES:0.522865,0.552471,0.428125,0.277022,0.432323,436,385,51,33,8,0,0,0,0,0.522865,0.552471,0.428125,0.277022,0.432323,436,385,51,33,8,0,0,0,0;
#CHARTNAME:Pruz;
#CHARTSTYLE:;
#CREDIT:Pruz;
#NOTES:
0000
0000
0000
0000
,
0000
0000
0000
0000
,
0000
0000
0000
0000
,
0000
0000
0000
0000
0000
0000
0000
0001
,
2002
0000
3003
0000
2200
0000
3300
0000
0010
0000
0001
1000
0000
0001
0100
0000
,
0220
0000
0330
0000
0202
0000
0303
0000
0001
0000
0010
0100
0000
1000
0001
0000
,
0202
0000
0303
0000
0220
0000
0330
0000
1000
0000
0100
0001
0000
0100
1000
0000
,
1010
1000
0110
0100
0011
0001
0110
0010
,
1000
0100
0001
0100
0020
0030
0020
0030
,
0001
0100
1000
0100
0020
0030
0020
0030
,
1000
0100
0001
0100
0020
0030
0020
0030
,
0001
0100
1000
0100
0010
0010
1000
1000
,
1001
0000
0000
0000
0110
0000
0000
0000
1000
0100
0001
0100
0000
0000
0010
0000
,
0001
0000
1000
0000
0001
0000
0000
0000
0101
0000
0000
0001
1000
0000
0100
0000
,
1000
0000
1000
0000
0001
0000
0000
0000
1000
0010
0001
0010
0000
0000
0100
0000
,
0001
1000
0001
0010
0011
0001
0110
0100
,
1001
0000
0000
0000
0110
0000
0000
0000
0001
0100
1000
0100
0000
0000
0010
0000
,
1000
0000
0001
0000
1000
0000
0000
0000
1100
0000
0000
1000
0001
0000
0100
0000
,
0101
0000
0001
0000
1000
0000
1001
0000
0001
0010
1000
0010
0110
0000
0100
0000
,
1000
0001
1000
0010
1010
1000
0110
0100
,
1001
0000
0000
0001
0010
0000
0100
0000
0010
0000
0001
1000
0000
0010
1000
0000
,
0001
0000
0010
0100
1000
0000
0100
0010
0001
0000
0010
0100
1000
0000
0001
0000
,
1000
0000
0000
0001
0100
0000
0010
0000
0100
0000
0001
1000
0000
0100
1000
0000
,
0001
0000
0000
0000
0000
0000
0100
0000
0000
0010
0000
0000
1000
0000
0000
0000
0000
0000
MMMM
0000
0000
0000
0000
0000
0001
0000
0000
0000
0010
0000
0000
0000
0100
0000
0000
0000
1000
0000
0000
0000
0001
0000
0000
0000
1000
0000
0000
0000
,
0010
0010
0100
0001
0001
0100
0010
0010
1000
0001
0001
0010
,
0100
0100
1000
0010
0010
0001
0010
0100
0001
1000
0100
1000
,
0001
0000
0010
0100
0000
0010
0001
0000
1000
0010
0000
0001
,
0010
0000
0100
0001
0000
1000
0100
0000
0001
0100
0000
0010
,
0001
0000
1000
0010
0000
0001
0010
0000
0100
0001
0000
1000
,
0100
0000
0001
0100
0000
0010
0001
0000
1000
0001
0000
0100
,
0001
0000
0100
0010
0000
0100
0001
0000
1000
0100
0000
0001
,
0100
0000
0010
0001
0000
1000
0010
0000
0001
0010
0000
0100
,
0001
0000
0001
0100
0000
0100
1000
0000
1000
0010
0000
0010
,
0002
0000
0000
0000
0000
0000
0000
0000
0000
0000
0000
0000
0000
0000
0000
0000
0000
0000
0000
0000
0000
0000
0000
0000
2000
0000
0000
0000
0000
0000
0000
0000
0000
0000
0000
0000
0000
0000
0000
0000
3000
0000
0000
0000
0000
0000
0000
0000
1000
0000
0000
0000
0000
0000
0000
0000
0000
0000
0000
0000
0000
0000
0000
0000
2000
0000
0000
0000
0000
0000
0000
0000
0000
0000
0000
0000
0000
0000
0000
0000
3000
0000
0000
0000
0000
0000
0000
0000
0000
0000
0000
2000
0000
0000
0000
0000
,
0000
0000
3000
0003
0001
0000
0010
0000
,
1000
0000
0100
0002
0000
0000
0003
0000
0100
0000
0000
0000
1000
0000
0000
0000
,
0010
0000
0001
0200
0000
0000
0300
0000
0001
0000
0000
0000
0010
0000
0000
0000
,
1000
0000
0100
0002
0000
0000
0003
0000
0100
0000
0000
0000
1000
0000
0000
0000
,
0010
0010
0010
0010
1010
0000
0101
0001
,
0100
1000
0100
0010
0000
0000
1000
0000
1001
0000
0110
0000
1001
0000
0000
0000
,
0001
0010
1000
0010
0000
0000
0100
0000
1100
0000
0000
0000
0011
0000
0001
0000
,
0100
1000
0100
0001
0000
0000
1000
0000
1001
0000
0110
0000
1001
0000
MMMM
0000
,
1100
1100
0101
0101
1001
0000
0110
0000
,
0001
0010
1000
0010
0000
0000
0100
0000
1000
0000
0001
0000
2000
0000
3000
0000
,
1010
0000
0000
1000
0001
0000
0010
0000
0001
0000
0001
0000
1000
0000
0000
0000
,
0001
0100
1000
0100
0000
0000
0010
0000
1000
0000
0001
0000
2000
0000
3000
0000
,
1100
1000
0110
0010
1001
0000
0110
0000
,
1000
0010
0001
0010
0000
0000
0100
0000
0001
0000
1000
0000
0002
0000
0003
0000
,
0011
0000
0000
0001
1000
0000
0010
0000
1010
0000
1000
0000
0001
0000
1001
0000
,
1000
0100
0001
0100
0010
0000
0001
0000
1001
0000
0110
0000
1001
0000
1000
0000
,
0200
0302
0023
2030
3002
0003
0000
0000
;
