#VERSION:0.83;
#TITLE:Fog It Off;
#SUBTITLE:(Mashed By Fissunix);
#ARTIST:Taylor Swift vs. John Carpenter;
#TITLETRANSLIT:;
#SUBTITLETRANSLIT:;
#ARTISTTRANSLIT:;
#GENRE:;
#ORIGIN:;
#CREDIT:MrTwinkles;
#BANNER:Fog It Off [MrTwinkles].png;
#BACKGROUND:Fog It Off [MrTwinkles]-bg.png;
#PREVIEWVID:;
#JACKET:Fog It Off [MrTwinkles]-jacket.png;
#CDIMAGE:;
#DISCIMAGE:;
#LYRICSPATH:;
#CDTITLE:;
#MUSIC:Fog It Off [MrTwinkles].ogg;
#OFFSET:-0.204000;
#SAMPLESTART:11.110000;
#SAMPLELENGTH:22.153000;
#SELECTABLE:YES;
#BPMS:0.000=176.050;
#STOPS:;
#DELAYS:;
#WARPS:;
#TIMESIGNATURES:0.000=4=4;
#TICKCOUNTS:0.000=4;
#COMBOS:0.000=1;
#SPEEDS:0.000=1.000=0.000=0;
#SCROLLS:0.000=1.000;
#FAKES:;
#LABELS:0.000=Song Start;
#BGCHANGES:;
#KEYSOUNDS:;
#ATTACKS:
;

//---------------dance-single - MrTwinkles----------------
#NOTEDATA:;
#CHARTNAME:MrTwinkles;
#STEPSTYPE:dance-single;
#DESCRIPTION:MrTwinkles;
#CHARTSTYLE:;
#DIFFICULTY:Hard;
#METER:11;
#RADARVALUES:0.439963,0.624061,0.403300,0.681943,0.025665,420.000000,365.000000,55.000000,93.000000,69.000000,0.000000,9.000000,0.000000,0.000000,0.439963,0.624061,0.403300,0.681943,0.025665,420.000000,365.000000,55.000000,93.000000,69.000000,0.000000,9.000000,0.000000,0.000000;
#CREDIT:MrTwinkles;
#NOTES:
0000
0000
MM00
MM00
MM00
MM00
0022
0000
,
0000
0000
0000
0033
1000
0000
0000
0000
,
0000
000M
000M
0000
000M
0000
000M
000M
,
0000
0000
0000
0000
0000
0000
0000
0000
0000
0000
0000
0000
0000
0000
0000
0000
0000
0000
0000
0000
0000
0000
0000
2200
0000
0000
0000
0000
0000
0000
0000
0000
,
0000
0000
0000
0000
0000
0000
0000
0000
0000
0000
0000
0000
0000
0000
0000
0000
0000
0000
0000
0000
3300
0000
0000
0001
0000
0000
0000
0000
0000
0000
0000
0000
,
0000
0000
2000
0002
,
0000
3003
0000
0000
0000
0000
0020
0000
,
0000
0000
0031
0001
,
0000
0000
MMMM
0000
0000
0000
1000
0100
,
0010
0001
0010
0100
1000
0010
1000
0010
,
0001
0010
1000
0000
1100
0000
0022
0000
,
0000
0033
0100
1000
0010
0100
0001
1000
,
0100
0010
0001
0100
0010
1000
0002
0020
,
0000
0033
1000
0000
0000
0000
1100
0000
,
0101
1100
0000
0001
,
1000
0100
0001
0100
0000
1001
0000
0000
,
0000
0000
0000
2002
,
0000
0000
0000
0003
3002
0003
0200
0000
,
2300
3020
0030
0002
,
1000
1003
2000
3200
,
0302
0000
0000
0000
0023
0000
0030
0000
0000
0000
0000
0000
1000
0000
0100
1000
,
0100
1000
0001
0010
0001
0000
0100
0010
,
0100
0000
2002
0000
3003
0000
0100
1000
,
1100
0000
0000
0000
0010
0001
0011
0000
,
0000
0000
2000
0020
,
0000
3030
2000
0000
3020
0000
0032
0000
,
0200
0003
4300
0000
0000
3000
1000
0001
,
0010
0001
0000
0000
0010
0100
0010
0000
,
0100
0000
0001
0000
0100
0000
0000
0000
0001
0000
0010
0001
0010
0000
0001
0000
,
1000
0100
1000
0000
0010
0100
0010
0000
,
2002
0000
0000
0000
3003
0000
0010
1000
,
1010
0000
0000
0000
0100
1000
1100
0000
,
0000
0000
0000
0000
0000
0000
0001
0010
,
0100
1000
0100
0010
0001
0100
1000
0100
,
0001
0100
1000
0000
0011
0000
2200
0000
,
0000
3300
0010
0001
0100
0010
1000
0001
,
0010
0100
1000
0010
0100
0001
2000
0200
,
0000
3300
0002
0020
,
0033
1100
0101
1100
,
1000
0100
0001
0100
1000
0000
0110
0000
,
0000
1100
0110
0022
,
0000
0033
0001
1000
0010
0100
0001
0000
,
0100
0010
1000
1000
0010
0100
0002
0020
,
0000
0033
2000
0002
,
3003
0000
1000
0100
1000
0100
1000
0000
,
0001
0020
0000
0030
0002
0000
0200
0000
,
0003
0300
1000
0000
1010
0000
0011
0000
,
0001
0100
1000
0100
0001
0000
0010
0000
,
0001
0010
0100
1000
0100
0000
0120
0000
,
0000
0100
0000
1000
,
0001
1030
0000
0210
,
0000
0000
1000
0301
,
1000
0010
0010
0100
0001
0000
0200
0000
,
0000
0310
0000
0011
,
1010
0011
0000
1000
,
0001
0010
1000
0010
0000
1001
0000
0000
,
0000
0000
0000
2002
,
0000
0000
0000
0003
3002
0000
0203
0000
,
2300
0000
3020
0000
0000
0030
0002
0000
,
0103
0001
2000
3200
,
0302
0000
0000
0000
0023
0000
0000
0000
0030
0000
0000
0000
0001
0000
0010
0001
,
0010
0001
1000
0100
1000
0000
0010
0100
,
0010
0000
2002
0000
3003
0000
0010
0001
,
0011
0000
0000
0000
0100
1000
1100
0000
,
1000
0001
0000
0100
0000
0000
0020
0000
,
0000
0000
0000
2000
,
0000
0000
0030
0002
,
0000
0000
3000
0020
,
0000
0000
0003
0200
,
0000
0000
0030
2000
,
0000
0000
0000
0000
0300
3000
0011
0000
,
0000
0110
0000
1100
,
0000
0000
0000
1001
,
0100
0000
1000
0000
1000
0010
1000
0000
,
MM11
0000
MM11
0000
0001
0100
0001
0000
,
11MM
11MM
0000
0020
,
0001
0001
0001
0000
0030
0000
1000
0001
,
0000
001M
0010
0000
0001
1000
0000
M100
,
0100
0000
0001
0000
0010
0001
0000
001M
,
0010
1000
0010
0110
,
0000
1100
0000
0000
0011
0000
M40M
M00M
,
M04M
M30M
M40M
M03M
M04M
M30M
M40M
M03M
,
M04M
M30M
M40M
M03M
0300
0000
2002
0000
,
0000
0000
0000
3000
2003
0000
3020
0000
,
0032
0000
0203
0000
0000
0300
2000
0000
,
3010
1000
0002
0023
,
2030
0000
0000
0000
3200
0000
0000
0000
0300
0000
0000
0000
0001
0000
0010
0001
,
0010
0001
1000
0100
1000
0000
0010
0100
,
0010
0000
2002
0000
3003
0000
0010
0001
,
0011
0000
0000
0000
0100
0001
0101
0000
,
0000
0000
0000
2002
,
0000
0000
0000
0003
3002
0000
0203
0000
,
2300
3020
0030
0004
,
0003
1000
0100
1000
0000
0000
0010
0100
,
0010
0000
0000
0000
0100
0000
0001
0000
0100
0000
0000
0000
1000
0000
0100
1000
,
0100
1000
0001
0010
0001
0000
0100
0010
,
0100
0000
2002
0000
3003
0000
0100
1000
,
1100
0000
0000
0000
0010
0001
0022
M000
,
0M00
M000
0M00
M000
0M00
M000
0000
0M00
,
0000
M000
0000
0M00
0000
M000
0000
0M33
,
0000
M000
0000
0000
0000
0000
0000
0000
;

//---------------dance-single - ----------------
#NOTEDATA:;
#CHARTNAME:;
#STEPSTYPE:dance-single;
#DESCRIPTION:;
#CHARTSTYLE:;
#DIFFICULTY:Medium;
#METER:9;
#RADARVALUES:0.398062,0.549267,0.388634,0.388634,0.000000,380.000000,327.000000,53.000000,53.000000,0.000000,0.000000,0.000000,0.000000,0.000000,0.398062,0.549267,0.388634,0.388634,0.000000,380.000000,327.000000,53.000000,53.000000,0.000000,0.000000,0.000000,0.000000,0.000000;
#CREDIT:MrPlex;
#NOTES:
0000
0000
0000
0000
,
0000
0000
0000
0000
,
0000
0000
0000
0000
,
0000
0000
0000
0000
,
0000
0000
0000
0000
,
0000
0000
0000
0000
,
0000
0000
0000
0000
,
0000
0000
0000
0000
,
0000
0000
0000
2000
,
0000
3002
0000
0103
,
0001
1000
0010
0200
,
0000
0320
0000
1030
,
0001
0010
0100
0220
,
0330
2002
3003
1000
,
0001
0000
0100
0000
0001
1000
0001
0000
,
1000
0000
0100
0010
0002
0000
1003
0000
,
0000
0000
0000
0000
1000
0100
1000
0100
,
2000
0000
3001
1000
,
0010
0000
0100
0000
0001
0100
0001
0100
,
0002
0000
0103
0010
,
1000
0000
0001
0000
0010
0000
0001
1000
,
0001
1000
0001
0000
1000
0000
0100
0000
,
0010
0000
0001
0000
0000
0000
1000
0100
,
1000
0000
0000
0000
0001
0100
0001
0000
,
0000
0000
0000
0000
0000
0000
1000
0001
,
1000
0001
1000
0000
0002
0000
0203
0000
,
0320
0000
2030
0000
3001
0000
1000
0001
,
1000
0001
1000
0000
0002
0000
2003
0000
,
3200
0000
0320
0000
0031
0000
1000
0100
,
1000
0100
2000
0000
3002
0000
2003
0000
,
3002
0000
0103
0000
0000
0000
0001
0100
,
0001
0000
0000
0000
1000
0100
1000
0000
,
0000
0000
0000
0001
,
1000
0010
0100
0001
,
0010
0000
0100
1000
0100
1000
0100
0000
,
1000
0010
0100
0001
,
1000
0000
0001
0100
0001
0100
0001
0000
,
0000
0000
0101
1100
,
0000
0000
1000
0001
1000
0001
1000
0000
,
0000
0000
1010
0011
,
0000
0000
1000
0001
1000
0001
1000
0000
,
0001
1000
0010
0100
,
0001
0000
1000
0100
1000
0100
1000
0000
,
0100
1000
0010
0100
,
0001
0000
0100
0010
0100
0010
0100
0000
,
0000
0000
0110
2002
,
3003
0000
0001
1000
0001
0000
1000
0000
,
0000
0000
0110
2002
,
3003
0001
1000
0020
,
0030
0200
0300
0001
,
0100
0010
1000
0200
,
0300
2000
3000
0001
,
1000
0010
0100
0220
,
0330
2002
3003
0001
,
0100
0000
0001
0000
1000
0100
1000
0000
,
0001
0010
0001
0010
0001
1000
0001
0000
,
0000
0000
0000
0000
1000
0010
1000
0010
,
1000
0000
1010
0110
,
0101
0000
1001
0000
0000
0000
0001
0010
,
0001
0000
0011
0110
,
1100
0000
1001
0000
0000
0000
1000
0001
,
1000
0001
1000
0000
0001
0000
0100
0000
,
0010
0000
2002
0000
3003
0000
0001
0100
,
0001
0000
0000
0000
1000
0100
1000
0000
,
0000
0000
0000
2002
,
3003
0000
0000
0020
,
0030
0000
0000
2000
,
3000
0000
0000
0002
,
0003
0000
0000
2000
,
3000
0100
0000
0020
,
0030
0001
0000
2000
,
3000
0010
0000
0200
,
0300
0001
0000
0101
,
0110
1010
0000
1001
,
1100
1001
0000
1001
,
0101
1010
0000
1010
,
0110
0000
1001
0000
0000
0000
0001
0100
,
0001
0000
1000
0000
0010
0100
0010
0000
,
1000
0000
0001
0000
0010
0000
0100
1000
,
0100
1000
0010
1010
,
0000
0110
0000
0000
2002
0000
0000
0000
,
3003
0000
0000
0000
,
0000
0000
0000
0000
0000
0000
0001
0100
,
0001
0100
0001
0000
0101
0000
0110
0000
,
1010
0000
2002
0000
3003
0000
1000
0100
,
1000
0100
1000
0000
1100
0000
0110
0000
,
0011
0000
2002
0000
3003
0000
0001
0100
,
0001
1000
0010
0100
,
0001
0000
1000
0000
0000
0000
0001
0100
,
0001
0000
0000
0000
1000
0100
1000
0000
,
0000
0000
0000
0000
0000
0000
0001
0010
,
0100
0010
0001
0000
0011
0000
0110
0000
,
1100
0000
1001
0000
0000
0000
1000
0010
,
0100
0010
1000
0000
1010
0000
0110
0000
,
0101
0000
1001
0000
0000
0000
0001
1000
,
0001
1000
0001
0000
1000
0000
0010
0000
,
0100
0000
0001
0000
0000
0000
1000
0100
,
1000
0000
0000
0000
0001
0100
0001
0000
,
0000
1000
0001
0200
,
0000
0000
0000
0000
0000
0000
0000
0300
;

//---------------dance-single - ----------------
#NOTEDATA:;
#CHARTNAME:;
#STEPSTYPE:dance-single;
#DESCRIPTION:;
#CHARTSTYLE:;
#DIFFICULTY:Easy;
#METER:6;
#RADARVALUES:0.237790,0.292942,0.109991,0.102658,0.000000,227.000000,212.000000,15.000000,14.000000,0.000000,0.000000,0.000000,0.000000,0.000000,0.237790,0.292942,0.109991,0.102658,0.000000,227.000000,212.000000,15.000000,14.000000,0.000000,0.000000,0.000000,0.000000,0.000000;
#CREDIT:MrPlex;
#NOTES:
// measure 0
0000
0000
0000
0000
,  // measure 1
0000
0000
0000
0000
,  // measure 2
0000
0000
0000
0000
,  // measure 3
0000
0000
0000
0000
,  // measure 4
0000
0000
0000
0000
,  // measure 5
0000
0000
0000
0000
,  // measure 6
0000
0000
0000
0000
,  // measure 7
0000
0000
0000
0000
,  // measure 8
0000
0000
0000
1000
,  // measure 9
0000
0001
0000
1000
,  // measure 10
0010
0100
0001
1000
,  // measure 11
0000
0001
0000
1000
,  // measure 12
0100
0010
0001
0100
,  // measure 13
0000
0100
0000
0010
,  // measure 14
1000
0001
0000
1000
,  // measure 15
0100
0010
0001
1000
,  // measure 16
0000
0000
0000
1001
,  // measure 17
0000
0000
0001
0100
,  // measure 18
0001
0100
0000
1001
,  // measure 19
0000
0000
1000
0100
,  // measure 20
1000
0100
0000
1001
,  // measure 21
0000
0000
1000
0010
,  // measure 22
1000
0010
0000
1000
,  // measure 23
0001
0000
0001
1000
,  // measure 24
0000
0000
0000
1001
,  // measure 25
0000
0000
0001
0010
,  // measure 26
0001
0010
0000
1001
,  // measure 27
0000
0000
1000
0010
,  // measure 28
1000
0010
0000
1001
,  // measure 29
0000
0000
0001
0100
,  // measure 30
0001
0100
0000
0001
,  // measure 31
1000
0000
0001
1000
,  // measure 32
0000
0000
0000
2000
,  // measure 33
3000
0100
0000
0010
,  // measure 34
0000
0001
1000
0002
,  // measure 35
0003
0100
0000
0010
,  // measure 36
0000
1000
0010
2000
,  // measure 37
3000
0000
0001
0001
,  // measure 38
0000
1000
0001
2000
,  // measure 39
3000
0000
0001
0001
,  // measure 40
0000
1000
0001
0100
,  // measure 41
0000
0100
0000
0010
,  // measure 42
0000
0010
1000
0001
,  // measure 43
0000
0001
0000
1000
,  // measure 44
0000
1000
0100
0020
,  // measure 45
0030
0000
0100
0100
,  // measure 46
0000
0100
0010
0200
,  // measure 47
0300
0000
0010
0010
,  // measure 48
0000
0010
0001
2000
,  // measure 49
3000
0002
0003
1000
,  // measure 50
0000
0010
0000
0200
,  // measure 51
0300
0020
0030
0100
,  // measure 52
0001
1000
0001
2000
,  // measure 53
3000
0200
0300
1000
,  // measure 54
0001
1000
0000
0001
,  // measure 55
1000
0010
0100
0002
,  // measure 56
0003
0000
0000
1001
,  // measure 57
0000
0000
1000
0010
,  // measure 58
1000
0010
0000
1001
,  // measure 59
0000
0000
0001
0010
,  // measure 60
0001
0010
0000
1001
,  // measure 61
0000
0000
1000
0100
,  // measure 62
1000
0100
0000
1000
,  // measure 63
0001
0000
1000
0001
,  // measure 64
0000
0000
0000
1000
,  // measure 65
0000
0000
0000
0001
,  // measure 66
0000
0000
0000
0100
,  // measure 67
0000
0000
0000
0010
,  // measure 68
0000
0000
0000
1000
,  // measure 69
0000
0000
0000
0001
,  // measure 70
0000
0000
0000
1000
,  // measure 71
0000
0000
0000
0100
,  // measure 72
0000
0000
0000
1000
,  // measure 73
0010
1000
0000
0001
,  // measure 74
0010
0001
0000
1000
,  // measure 75
0100
1000
0000
0001
,  // measure 76
0100
0001
0000
1000
,  // measure 77
0001
1000
0000
0001
,  // measure 78
1000
0001
0000
1000
,  // measure 79
0100
0010
0001
0100
,  // measure 80
0000
0100
0000
0000
0100
0000
0000
0000
,  // measure 81
0000
0000
0000
0000
,  // measure 82
0000
0000
0000
1001
,  // measure 83
0000
0000
1000
0010
,  // measure 84
1000
0010
0000
1001
,  // measure 85
0000
0000
0001
0010
,  // measure 86
0001
0010
0000
1001
,  // measure 87
0000
0000
1000
0100
,  // measure 88
1000
0100
0000
1000
,  // measure 89
0001
0000
1000
0001
,  // measure 90
0000
0000
0000
1001
,  // measure 91
0000
0000
0001
0100
,  // measure 92
0001
0100
0000
1001
,  // measure 93
0000
0000
1000
0100
,  // measure 94
1000
0100
0000
1001
,  // measure 95
0000
0000
0001
0010
,  // measure 96
0001
0010
0000
0001
,  // measure 97
1000
0000
0001
1000
,  // measure 98
0000
0010
0000
0200
,  // measure 99
0000
0000
0000
0000
0000
0000
0000
0300
;

//---------------dance-single - ----------------
#NOTEDATA:;
#CHARTNAME:;
#STEPSTYPE:dance-single;
#DESCRIPTION:;
#CHARTSTYLE:;
#DIFFICULTY:Beginner;
#METER:3;
#RADARVALUES:0.120466,0.179193,0.036664,0.000000,0.000000,115.000000,110.000000,5.000000,0.000000,0.000000,0.000000,0.000000,0.000000,0.000000,0.120466,0.179193,0.036664,0.000000,0.000000,115.000000,110.000000,5.000000,0.000000,0.000000,0.000000,0.000000,0.000000,0.000000;
#CREDIT:MrPlex;
#NOTES:
// measure 0
0000
0000
0000
0000
,  // measure 1
0000
0000
0000
0000
,  // measure 2
0000
0000
0000
0000
,  // measure 3
0000
0000
0000
0000
,  // measure 4
0000
0000
0000
0000
,  // measure 5
0000
0000
0000
0000
,  // measure 6
0000
0000
0000
0000
,  // measure 7
0000
0000
0000
0000
,  // measure 8
0000
0000
0000
1000
,  // measure 9
0000
0000
0000
0001
,  // measure 10
0000
0001
0000
0001
,  // measure 11
0000
0000
0000
0100
,  // measure 12
0000
0100
0000
0100
,  // measure 13
0000
0000
0000
0010
,  // measure 14
0000
0000
0000
1000
,  // measure 15
0000
1000
0000
1000
,  // measure 16
0000
0000
0000
1001
,  // measure 17
0000
0000
0000
0001
,  // measure 18
0000
0001
0000
0001
,  // measure 19
0000
0000
0000
0100
,  // measure 20
0000
0100
0000
0100
,  // measure 21
0000
0000
0000
0010
,  // measure 22
0000
0010
0000
0010
,  // measure 23
0000
0000
0000
1000
,  // measure 24
0000
0000
0000
1001
,  // measure 25
0000
0000
0000
1000
,  // measure 26
0000
1000
0000
1000
,  // measure 27
0000
0000
0000
0100
,  // measure 28
0000
0100
0000
0100
,  // measure 29
0000
0000
0000
0010
,  // measure 30
0000
0010
0000
0010
,  // measure 31
0000
0000
0000
0001
,  // measure 32
0000
0000
0000
1000
,  // measure 33
0000
0000
0000
0000
,  // measure 34
0000
0010
0000
0010
,  // measure 35
0000
0000
0000
0000
,  // measure 36
0000
1000
0000
1000
,  // measure 37
0000
0000
0000
0001
,  // measure 38
0000
0000
0000
0100
,  // measure 39
0000
0000
0000
0100
,  // measure 40
0000
0000
0000
0001
,  // measure 41
0000
0000
0000
0000
,  // measure 42
0000
1000
0000
1000
,  // measure 43
0000
0000
0000
0000
,  // measure 44
0000
0010
0000
0010
,  // measure 45
0000
0000
0000
1000
,  // measure 46
0000
0000
0000
0001
,  // measure 47
0000
0000
0000
0100
,  // measure 48
0000
0100
0000
0100
,  // measure 49
0000
0000
0000
0001
,  // measure 50
0000
0000
0000
1000
,  // measure 51
0000
0000
0000
0010
,  // measure 52
0000
0000
0000
1000
,  // measure 53
0000
1000
0000
1000
,  // measure 54
0000
0000
0000
0001
,  // measure 55
0000
0001
0000
0001
,  // measure 56
0000
0000
0000
1001
,  // measure 57
0000
0000
0000
0001
,  // measure 58
0000
0001
0000
0001
,  // measure 59
0000
0000
0000
0100
,  // measure 60
0000
0100
0000
0100
,  // measure 61
0000
0000
0000
0010
,  // measure 62
0000
0000
0000
1000
,  // measure 63
0000
0000
0000
1000
,  // measure 64
0000
0000
0000
0001
,  // measure 65
0000
0000
0000
1000
,  // measure 66
0000
0000
0000
1000
,  // measure 67
0000
0000
0000
0001
,  // measure 68
0000
0000
0000
0100
,  // measure 69
0000
0000
0000
0100
,  // measure 70
0000
0000
0000
0010
,  // measure 71
0000
0010
0000
0010
,  // measure 72
0000
0000
0000
1000
,  // measure 73
0000
0000
0000
0001
,  // measure 74
0000
0000
0000
0100
,  // measure 75
0000
0000
0000
0100
,  // measure 76
0000
0000
0000
0001
,  // measure 77
0000
0000
0000
1000
,  // measure 78
0000
0000
0000
0010
,  // measure 79
0000
0010
0000
0010
,  // measure 80
0000
0000
0000
1000
,  // measure 81
0000
0000
0000
0001
,  // measure 82
0000
0000
0000
1001
,  // measure 83
0000
0000
0000
1000
,  // measure 84
0000
1000
0000
1000
,  // measure 85
0000
0000
0000
0001
,  // measure 86
0000
0001
0000
0001
,  // measure 87
0000
0000
0000
0100
,  // measure 88
0000
0000
0000
0010
,  // measure 89
0000
0000
0000
0010
,  // measure 90
0000
0000
0000
1001
,  // measure 91
0000
0000
0000
1000
,  // measure 92
0000
1000
0000
1000
,  // measure 93
0000
0000
0000
0001
,  // measure 94
0000
0001
0000
0001
,  // measure 95
0000
0000
0000
0010
,  // measure 96
0000
0000
0000
0100
,  // measure 97
0000
0000
0000
0100
;
