#TITLE:Dance With The Vamps;
#SUBTITLE:;
#ARTIST:E-Rotic;
#TITLETRANSLIT:;
#SUBTITLETRANSLIT:;
#ARTISTTRANSLIT:;
#GENRE:;
#CREDIT:Firippu;
#BANNER:Dance with the Vamps [djfipu].png;
#BACKGROUND:Dance with the Vamps [djfipu]-bg.png;
#LYRICSPATH:;
#CDTITLE:cdtitle.png;
#MUSIC:Dance with the Vamps [djfipu].ogg;
#OFFSET:-0.000000;
#SAMPLESTART:38.863998;
#SAMPLELENGTH:29.091000;
#SELECTABLE:YES;
#BPMS:0.000000=132.000000
,184.000000=66.000000
,200.000000=132.000000
;
#STOPS:
;
#BGCHANGES:;
#KEYSOUNDS:;
#ATTACKS:;

//---------------dance-single - Firippu----------------
#NOTES:
     dance-single:
     :
     Beginner:
     3:
     0.132107,0.257290,0.238646,0.119323,0.000000,124.000000,92.000000,32.000000,16.000000,0.000000,0.000000,0.132107,0.257290,0.238646,0.119323,0.000000,124.000000,92.000000,32.000000,16.000000,0.000000,0.000000:
// measure 0
0000
0000
0000
0000
,  // measure 1
0000
0000
0000
0000
,  // measure 2
0000
0000
0000
0000
,  // measure 3
0000
0000
0000
0000
,  // measure 4
0000
0000
0000
0000
,  // measure 5
0000
0000
0000
0000
,  // measure 6
1001
0000
0000
0000
,  // measure 7
1000
0000
0000
0000
,  // measure 8
0001
0000
0000
0000
,  // measure 9
0100
0000
0000
0000
,  // measure 10
0001
0000
0000
0000
,  // measure 11
1000
0000
0000
0000
,  // measure 12
0010
0000
0000
0000
,  // measure 13
1000
0000
0000
0000
,  // measure 14
0110
0000
0000
0000
,  // measure 15
0001
0000
0000
0000
,  // measure 16
0010
0000
0000
0000
,  // measure 17
0010
0000
0000
0000
,  // measure 18
0001
0000
0000
0000
,  // measure 19
1000
0000
0000
0000
,  // measure 20
0010
0000
0000
0000
,  // measure 21
0100
0000
0000
0000
,  // measure 22
0110
0000
1000
0000
,  // measure 23
0110
0000
0001
0000
,  // measure 24
0110
0000
1000
0000
,  // measure 25
0110
0000
0001
0000
,  // measure 26
1001
0000
0000
0000
,  // measure 27
0110
0000
0000
0000
,  // measure 28
0001
0000
1000
0000
,  // measure 29
0001
0000
1000
0000
,  // measure 30
1001
0000
0010
0000
,  // measure 31
0110
0000
0100
0000
,  // measure 32
0110
0000
0010
0000
,  // measure 33
0110
0000
0100
0000
,  // measure 34
0001
0000
0001
0000
,  // measure 35
1000
0000
1000
0000
,  // measure 36
0100
0000
0100
0000
,  // measure 37
0010
0000
0010
0000
,  // measure 38
0002
0000
0000
0000
,  // measure 39
0023
0000
0000
0000
,  // measure 40
0230
0000
0000
0000
,  // measure 41
2300
0000
0000
0000
,  // measure 42
3020
0000
0000
0000
,  // measure 43
2030
0000
0000
0000
,  // measure 44
3002
0000
0000
0000
,  // measure 45
0203
0000
0000
0300
,  // measure 46
1001
0000
0110
0000
,  // measure 47
1001
0000
0110
0000
,  // measure 48
0110
0000
1001
0000
,  // measure 49
0110
0000
1001
0000
,  // measure 50
2001
3000
2001
3000
,  // measure 51
2001
3000
2001
3000
,  // measure 52
0001
0000
0010
0000
,  // measure 53
0010
0000
0001
0000
,  // measure 54
1000
0000
1000
0000
,  // measure 55
0010
0000
0010
0000
,  // measure 56
0100
0000
0100
0000
,  // measure 57
0220
0000
0000
0330
,  // measure 58
0110
0000
0001
0000
,  // measure 59
0110
0000
1000
0000
,  // measure 60
0110
0000
0001
0000
,  // measure 61
0110
0000
1000
0000
,  // measure 62
1001
0000
0000
0000
,  // measure 63
0110
0000
0000
0000
,  // measure 64
1000
0000
0001
0000
,  // measure 65
1000
0000
0001
0000
,  // measure 66
2002
0000
0000
0000
,  // measure 67
0000
0000
0000
0000
,  // measure 68
0000
0000
0000
0000
,  // measure 69
3003
0000
0000
0000
;

//---------------dance-single - Firippu----------------
#NOTES:
     dance-single:
     :
     Easy:
     5:
     0.234384,0.308748,0.372884,0.208815,0.000000,220.000000,170.000000,50.000000,28.000000,0.000000,0.000000,0.234384,0.308748,0.372884,0.208815,0.000000,220.000000,170.000000,50.000000,28.000000,0.000000,0.000000:
// measure 0
0000
0000
0000
0000
,  // measure 1
0000
0000
0000
0000
,  // measure 2
0000
0000
0000
0000
,  // measure 3
0000
0000
0000
0000
,  // measure 4
0000
0000
0000
0000
,  // measure 5
0000
0000
0000
0000
,  // measure 6
0001
0001
0000
0000
,  // measure 7
0100
0100
0000
0000
,  // measure 8
0001
0001
0000
0000
,  // measure 9
0010
0010
0000
0000
,  // measure 10
1000
1000
0000
0000
,  // measure 11
0010
0010
0000
0000
,  // measure 12
0001
0001
0000
0000
,  // measure 13
0110
0000
0000
0000
,  // measure 14
1000
0100
1000
0000
,  // measure 15
0010
0001
0010
0000
,  // measure 16
0001
0100
0001
0000
,  // measure 17
0001
0010
0001
0000
,  // measure 18
1000
0001
1000
0000
,  // measure 19
0010
0100
0010
0000
,  // measure 20
1100
0000
0000
0000
,  // measure 21
0011
0000
0000
0000
,  // measure 22
1100
1000
1000
1000
,  // measure 23
0110
0100
0100
0100
,  // measure 24
0011
0010
0010
0010
,  // measure 25
0101
0001
0001
0001
,  // measure 26
1010
0000
0011
0000
,  // measure 27
0101
0000
1100
0000
,  // measure 28
0100
0100
0100
0100
,  // measure 29
0200
0000
0000
0300
,  // measure 30
0011
0001
0001
0001
,  // measure 31
0110
0010
0010
0010
,  // measure 32
1100
0100
0100
0100
,  // measure 33
1010
1000
1000
1000
,  // measure 34
0101
0000
1100
0000
,  // measure 35
1010
0000
0011
0000
,  // measure 36
0010
0010
0010
0010
,  // measure 37
0020
0000
0000
0030
,  // measure 38
1000
0010
0101
0000
,  // measure 39
0001
0010
1100
0000
,  // measure 40
0100
1000
0101
0000
,  // measure 41
0100
0001
1010
0000
,  // measure 42
0002
0000
1003
0000
,  // measure 43
2000
0000
3001
0000
,  // measure 44
0100
0100
0100
0100
,  // measure 45
0220
0000
0000
0330
,  // measure 46
2200
0000
0000
3300
0202
0000
0000
0303
,  // measure 47
2200
0000
0000
3300
0022
0000
0000
0033
,  // measure 48
0202
0000
0000
0303
0220
0000
0000
0330
,  // measure 49
2200
0000
0000
3300
2002
0000
0000
3003
,  // measure 50
0110
0010
0010
0010
,  // measure 51
1001
0001
0001
0001
,  // measure 52
0101
0100
0100
0100
,  // measure 53
0011
0001
0001
0001
,  // measure 54
1100
1000
1000
1000
,  // measure 55
1010
0010
0010
0010
,  // measure 56
0110
0100
0100
0100
,  // measure 57
2002
0000
0000
3003
,  // measure 58
0101
0001
0001
0001
,  // measure 59
0110
0100
0100
0100
,  // measure 60
1010
0010
0010
0010
,  // measure 61
1100
1000
1000
1000
,  // measure 62
0011
0000
1010
0000
,  // measure 63
1100
0000
0101
0000
,  // measure 64
0100
0100
0100
0100
,  // measure 65
0200
0000
0000
0300
,  // measure 66
1002
0000
0000
0000
0000
0000
0000
0003
,  // measure 67
0220
0000
0000
0000
,  // measure 68
0000
0000
0000
0000
,  // measure 69
0330
0000
0000
0000
;

//---------------dance-single - Firippu----------------
#NOTES:
     dance-single:
     :
     Medium:
     8:
     0.322811,0.463122,0.484749,0.357969,0.000000,303.000000,238.000000,65.000000,48.000000,0.000000,0.000000,0.322811,0.463122,0.484749,0.357969,0.000000,303.000000,238.000000,65.000000,48.000000,0.000000,0.000000:
// measure 0
0000
0000
0000
0000
,  // measure 1
0000
0000
0000
0000
,  // measure 2
0000
0000
0000
0000
,  // measure 3
0000
0000
0000
0000
,  // measure 4
0000
0000
0000
0000
,  // measure 5
0000
1001
1001
0000
0000
0000
0000
0000
,  // measure 6
0001
0010
0100
0000
,  // measure 7
0100
0000
0000
0100
0000
0000
1000
0000
,  // measure 8
1000
0100
1000
0000
,  // measure 9
0010
0000
0000
0010
0000
0000
0100
0000
,  // measure 10
0100
0000
0000
0110
0000
0000
0001
0000
,  // measure 11
0010
0000
0000
1001
0000
0000
0100
0000
,  // measure 12
0100
0000
0000
1001
0000
0000
0000
0000
,  // measure 13
0110
0000
0000
1010
0000
0000
0000
0000
,  // measure 14
0001
0010
0001
0000
0010
0000
0010
0000
,  // measure 15
0100
0010
0100
0000
1000
0000
1000
0000
,  // measure 16
0001
0100
0001
0000
0010
0000
0010
0000
,  // measure 17
0001
0010
0001
0000
0100
0000
0100
0000
,  // measure 18
0010
0010
0010
0000
0100
0000
0100
0000
,  // measure 19
0010
0010
0010
0000
1000
0000
1000
0000
,  // measure 20
2002
0000
0000
0000
0000
3003
0000
0000
,  // measure 21
1001
0000
0000
0000
,  // measure 22
0100
0001
1000
0000
1000
0100
1000
0000
,  // measure 23
1100
1100
1100
1100
,  // measure 24
0010
0100
0010
0000
0010
0100
0001
0000
,  // measure 25
0101
0101
0101
0101
,  // measure 26
0220
0000
0330
0220
0000
0000
0330
0000
,  // measure 27
2002
0000
3003
2002
0000
0000
3003
0000
,  // measure 28
1000
0001
1000
0002
0000
2003
0000
0002
,  // measure 29
0000
3003
0000
0000
,  // measure 30
0010
0001
0100
0000
0001
0100
0001
0000
,  // measure 31
0101
0101
0101
0101
,  // measure 32
0010
0100
0010
0000
0100
0010
0100
0000
,  // measure 33
0110
0110
0110
0110
,  // measure 34
2200
0000
3300
2200
0000
0000
0000
3300
,  // measure 35
0022
0000
0033
0022
0000
0000
0000
0033
,  // measure 36
0010
0100
0010
0200
0000
0320
0000
0200
,  // measure 37
0000
0000
0000
0330
,  // measure 38
1000
0000
1000
0000
1000
1000
1000
0000
,  // measure 39
0010
0000
0010
0000
0010
0010
0010
0000
,  // measure 40
0010
0000
0010
0000
0010
0010
0010
0000
,  // measure 41
0100
0000
0100
0000
0100
0100
0100
0000
,  // measure 42
0001
0000
0001
0000
0001
0001
0001
0000
,  // measure 43
0010
0000
0010
0000
0010
0010
0010
0000
,  // measure 44
0100
0000
0100
0000
0100
0100
0100
0000
,  // measure 45
1000
0000
1000
0000
1000
1000
1000
0000
,  // measure 46
0001
0010
0100
0000
0010
0100
1000
0000
,  // measure 47
1000
1000
1000
0000
0100
0010
0001
0000
,  // measure 48
0001
0010
0001
0000
0001
0100
0001
0000
,  // measure 49
0001
1000
0001
0000
1000
0010
1000
0000
,  // measure 50
0011
0011
0101
0101
,  // measure 51
0011
0101
0011
0101
,  // measure 52
1100
1100
1010
1010
,  // measure 53
1100
1010
1100
1010
,  // measure 54
2020
0000
3030
0202
0000
0000
0303
0000
,  // measure 55
0220
0000
0330
2002
0000
0000
3003
0000
,  // measure 56
1000
0010
0100
0002
0000
0023
0000
0002
,  // measure 57
0000
0033
0000
0000
,  // measure 58
0100
1000
0010
0000
1000
0010
1000
0000
,  // measure 59
1010
1010
1010
1010
,  // measure 60
0100
0010
0100
0000
0010
0100
0010
0000
,  // measure 61
0110
0110
0110
0110
,  // measure 62
0022
0000
0033
0022
0000
0000
0000
0033
,  // measure 63
2200
0000
3300
2200
0000
0000
0000
3300
,  // measure 64
0100
0010
0100
0020
0000
0230
0000
0020
,  // measure 65
0000
0000
0000
0330
,  // measure 66
2000
0000
0000
0000
,  // measure 67
0002
0000
0000
0000
,  // measure 68
0000
0000
0000
0000
,  // measure 69
3003
0000
0000
0000
;

//---------------dance-single - Firippu----------------
#NOTES:
     dance-single:
     :
     Hard:
     11:
     0.400584,0.746141,0.484749,0.499664,0.257290,376.000000,311.000000,65.000000,67.000000,0.000000,3.000000,0.400584,0.746141,0.484749,0.499664,0.257290,376.000000,311.000000,65.000000,67.000000,0.000000,3.000000:
// measure 0
0000
0000
0000
0000
,  // measure 1
0000
0000
0000
0000
,  // measure 2
0000
0000
0000
0000
,  // measure 3
0000
0000
0000
0000
,  // measure 4
0000
0000
0000
0000
,  // measure 5
0000
1002
2000
0000
0000
0000
3003
0000
,  // measure 6
1100
0000
0010
0011
0000
1100
0000
0000
,  // measure 7
0101
0000
0010
0110
0000
1001
0000
0000
,  // measure 8
0110
0000
0010
0110
0000
0011
0000
0000
,  // measure 9
1001
0000
1000
0011
0000
1100
0000
0000
,  // measure 10
1010
0000
0010
0101
0000
0101
0000
0000
,  // measure 11
0011
0000
0001
1001
0000
1001
0000
0000
,  // measure 12
0110
0000
0000
1001
0000
1100
0000
0000
,  // measure 13
1010
0000
0000
0101
0000
0110
0000
0000
,  // measure 14
0001
0100
1000
0100
0001
0100
1000
0100
,  // measure 15
0010
1000
0010
0001
0010
0100
0010
0010
,  // measure 16
1000
0010
1000
0001
1000
0010
1000
0100
,  // measure 17
1000
0001
0010
0001
0100
1000
0100
0100
,  // measure 18
0010
0100
0010
0001
0010
1000
0010
0001
,  // measure 19
0010
0100
0010
1000
0100
0001
1000
0010
,  // measure 20
0001
0000
0000
0001
0100
0100
0000
0010
,  // measure 21
0110
0000
0000
0000
0000
0000
1000
0000
0100
0000
0000
0001
0000
0000
0010
0000
,  // measure 22
1000
0000
0000
0000
1100
0000
0000
0000
0010
0000
0000
0001
0000
0000
0100
0000
,  // measure 23
0110
0000
0000
0000
0011
0000
0000
0000
0100
0000
0000
0100
0000
0000
1000
0000
,  // measure 24
2000
0000
0010
0010
3000
0200
0000
0020
,  // measure 25
0000
0000
0000
0000
0330
0000
0000
0000
1000
0000
0000
1000
0000
0000
1000
0000
,  // measure 26
1200
0000
0000
1000
0300
0000
1100
0000
,  // measure 27
0102
0000
0000
0100
0003
0000
0101
0000
,  // measure 28
0001
0010
0001
0200
0000
0320
0000
2030
,  // measure 29
0000
0000
3000
0000
0000
0000
0001
0000
0010
0000
0000
1000
0000
0000
0100
0000
,  // measure 30
0001
0000
0000
0000
0011
0000
0000
0000
0100
0000
0000
1000
0000
0000
0010
0000
,  // measure 31
0110
0000
0000
0000
1100
0000
0000
0000
0010
0000
0000
0010
0000
0000
0001
0000
,  // measure 32
0002
0000
0100
0100
0003
0020
0000
0200
,  // measure 33
0000
0000
0000
0000
0330
0000
0000
0000
0001
0000
0000
0001
0000
0000
0001
0000
,  // measure 34
0021
0000
0000
0001
0030
0000
0011
0000
,  // measure 35
2010
0000
0000
0010
3000
0000
1010
0000
,  // measure 36
1000
0100
1000
0220
0330
0202
0303
2020
,  // measure 37
0000
0000
3030
0000
0000
0000
0002
0000
0200
0003
0000
0302
0000
0000
0203
0000
,  // measure 38
0002
0000
0000
0000
0000
0000
0300
0000
0203
0000
0000
2300
0000
3000
0200
0000
,  // measure 39
2000
0000
0000
0000
0000
0000
3300
0000
0200
0000
0000
0320
0000
0000
0230
0000
,  // measure 40
0320
0030
0001
0002
0003
0020
0000
2000
,  // measure 41
0000
0000
0000
0000
0000
0000
0030
0000
3020
0000
0000
2000
0000
0030
3001
0000
,  // measure 42
0012
0000
0000
2013
0000
0000
0000
0000
,  // measure 43
3102
0000
0000
2103
0000
0000
3000
0000
,  // measure 44
2000
0000
0000
3200
0000
0000
0301
0000
0002
0000
0200
0000
0003
0000
2000
0000
,  // measure 45
0000
0000
0000
3300
,  // measure 46
1000
0001
0000
0000
0000
0000
0001
0010
0000
0001
0010
0000
0000
0000
0000
0000
0010
0100
0000
0000
0000
0000
0100
0010
0000
0100
0010
0000
0000
0000
0001
1000
,  // measure 47
0001
1000
0000
0000
0000
0000
0100
0010
0000
0001
0010
0000
0000
0000
0000
0000
1000
0100
0000
0000
0000
0000
1000
0100
0000
1000
0010
0000
0000
0000
0010
0100
,  // measure 48
0010
0100
0000
0000
0000
0000
0001
1000
0000
0001
1000
0000
0000
0000
0000
0000
0001
0010
0000
0000
0000
0000
0001
0100
0000
0001
0010
0000
0000
0000
1000
0100
,  // measure 49
1000
0100
0000
0000
0000
0000
0100
0010
0000
0001
1000
0000
0000
0000
0000
0000
0100
0010
0000
0000
0000
0000
1000
0100
0000
0010
0001
0000
0000
0000
0000
0000
,  // measure 50
2100
3100
2100
3100
,  // measure 51
2100
3100
2100
3100
,  // measure 52
0010
0001
0000
0000
0000
0000
0001
0010
0000
0010
0100
0000
0000
0000
0000
0000
,  // measure 53
1000
0100
0000
0000
0000
0000
0100
0010
0000
0010
0001
0000
0000
0000
0000
0000
,  // measure 54
1200
0000
0000
1000
0300
0000
1100
0000
,  // measure 55
0102
0000
0000
0100
0003
0000
0101
0000
,  // measure 56
0001
0010
0001
0200
0000
0320
0000
2030
,  // measure 57
0000
0000
3000
0000
0000
0000
0001
0000
0010
0000
0000
1000
0000
0000
0100
0000
,  // measure 58
0001
0000
0000
0000
0011
0000
0000
0000
0100
0000
0000
1000
0000
0000
0010
0000
,  // measure 59
0110
0000
0000
0000
1100
0000
0000
0000
0010
0000
0000
0010
0000
0000
0001
0000
,  // measure 60
0002
0000
0100
0100
0003
0020
0000
0200
,  // measure 61
0000
0000
0000
0000
0330
0000
0000
0000
0001
0000
0000
0001
0000
0000
0001
0000
,  // measure 62
0021
0000
0000
0001
0030
0000
0011
0000
,  // measure 63
2010
0000
0000
0010
3000
0000
1010
0000
,  // measure 64
1000
0100
1000
0020
0000
0230
0000
0302
,  // measure 65
0000
0003
1100
0000
0101
0000
0110
0000
,  // measure 66
2000
0000
0000
0000
0000
0000
3010
0001
,  // measure 67
0020
0000
0000
0000
,  // measure 68
0000
0000
0000
0000
,  // measure 69
0030
0000
0000
0000
;

//---------------dance-single - Firippu----------------
#NOTES:
     dance-single:
     :
     Challenge:
     15:
     0.495403,0.849057,0.313222,0.492207,0.577970,465.000000,423.000000,42.000000,66.000000,156.000000,23.000000,0.495403,0.849057,0.313222,0.492207,0.577970,465.000000,423.000000,42.000000,66.000000,156.000000,23.000000:
// measure 0
0000
0000
0000
0000
,  // measure 1
0000
0000
0000
0000
,  // measure 2
0000
0000
0000
0000
,  // measure 3
0000
0000
0000
0000
,  // measure 4
0000
0000
0000
0000
,  // measure 5
0000
1010
4004
0000
0000
0000
3003
0000
,  // measure 6
0001
0010
1000
0200
0000
0001
0000
1000
,  // measure 7
0000
0000
0010
0000
0000
0000
1000
0000
0000
0000
0310
0000
1000
0100
0010
0000
,  // measure 8
1000
0100
0001
2000
0000
0001
0000
3011
,  // measure 9
0000
0000
2000
0000
0000
0000
3011
0000
0000
0000
0110
0000
0100
1000
0100
0000
,  // measure 10
0001
0010
1000
0020
0000
0001
0000
0031
,  // measure 11
0010
0001
0000
0002
0000
0000
0203
1000
,  // measure 12
0300
0000
0200
1000
0300
0000
0200
1000
,  // measure 13
1300
0000
0000
0000
0000
0000
0000
0000
0000
1100
0000
0000
0000
0000
0000
0011
0000
0000
0001
0010
0001
0010
0000
0000
,  // measure 14
0110
0000
0000
0010
0000
0000
0001
0000
0000
1000
0000
0000
0010
0000
0000
0001
0000
0000
0010
0000
0000
1000
0001
1000
,  // measure 15
0010
0000
0000
0100
0000
0000
0010
0000
0000
1000
0000
0000
0100
0000
0000
0001
0000
0000
0100
0000
0000
1000
0100
1000
,  // measure 16
0100
0000
0000
0100
0000
0000
1000
0000
0000
0010
0000
0000
0001
0000
0000
1000
0000
0000
0100
0000
0000
0001
0100
0001
,  // measure 17
0100
0000
0000
0100
0000
0000
0001
0000
0000
0001
0000
0000
1000
0000
0000
1000
0000
0000
0010
0000
0000
1000
0001
1000
,  // measure 18
0001
0000
0000
0100
0000
0000
0001
0000
0000
0010
0000
0000
0001
0000
0000
1000
0000
0000
0001
0000
0000
1000
0010
1000
,  // measure 19
0010
0000
0000
0100
0000
0000
0010
0000
0000
0010
0000
0000
0100
0000
0000
0010
0000
0000
0100
0000
0000
0100
0010
0100
,  // measure 20
0020
0000
0030
0200
0320
2000
3030
1000
,  // measure 21
1001
0000
0000
0000
0000
0000
0001
0000
0100
0000
0000
1000
0000
0000
0100
0000
,  // measure 22
0001
0010
0100
0000
1000
0100
0010
0000
0100
1000
0010
0000
0010
0100
0001
0000
,  // measure 23
0001
0010
0001
0000
0001
0100
0001
0000
0001
1000
0001
0000
0001
0010
1000
0000
,  // measure 24
1000
0010
0001
0000
1000
0010
0001
0000
0001
0010
1000
0000
0100
0010
0001
0000
,  // measure 25
0010
0100
1000
0000
0100
0010
0001
0000
1010
0000
0000
0001
0000
0000
1000
0000
,  // measure 26
0220
0000
0000
0001
0330
0110
0MM0
0000
,  // measure 27
2002
0000
0000
0100
3003
1001
M00M
0000
,  // measure 28
0001
0010
1000
0200
0000
0302
0000
2000
,  // measure 29
0000
0000
0000
0000
3003
0000
1000
0000
2010
0000
0000
0010
3000
0000
0010
0000
,  // measure 30
1000
0100
1000
0000
0010
0001
0010
0000
0100
0010
0100
0000
0001
0010
0001
0000
,  // measure 31
0010
0100
1000
0000
1000
0001
1000
0000
0001
1000
0001
0000
0100
0010
1000
0000
,  // measure 32
1000
0010
0100
0000
0010
1000
0001
0000
0010
0001
1000
0000
0001
0010
0100
0000
,  // measure 33
0010
0100
0010
0000
0100
1000
0010
0000
1001
0000
0000
0001
0000
0000
1000
0000
,  // measure 34
2200
0000
0000
0001
3300
1100
MM00
0000
,  // measure 35
0202
0000
0000
1000
0303
0101
0M0M
0000
,  // measure 36
1000
0100
0001
0020
0000
2030
0000
0002
,  // measure 37
0000
0000
0000
0000
3003
0000
4000
0000
3400
0000
0000
0304
0000
0000
0103
0000
,  // measure 38
0400
0000
0000
0000
0000
0000
0000
0000
0340
0000
0000
0034
0000
0000
1003
0000
,  // measure 39
4000
0000
0000
0000
0000
0000
0000
3000
0400
0000
0000
0340
0000
0000
0430
0000
,  // measure 40
4300
0000
0000
0000
3040
0000
0034
0000
0000
0000
4000
0003
0000
0000
3400
0000
,  // measure 41
0000
0000
0000
0000
0000
0000
0000
0000
0340
0000
0000
4030
0000
0000
3001
0000
,  // measure 42
0014
0000
0000
4013
0000
0000
0000
0000
,  // measure 43
3104
0000
0000
4103
0000
0000
3000
0000
,  // measure 44
4000
0000
0000
3400
0000
0000
0301
0000
0004
0000
0400
0003
0000
0000
4300
0000
,  // measure 45
0000
0000
0000
0000
0000
0000
0000
3000
,  // measure 46
1000
0100
000M
M000
01M0
000M
0100
0100
M000
01M0
0100
M00M
00M0
0M00
M000
00M0
0100
100M
0000
0M0M
10M0
000M
10M0
1000
0M00
10M0
100M
00M0
0M00
00M0
M001
0100
,  // measure 47
0010
0010
M00M
0M0M
M010
000M
M01M
0010
0M0M
0010
M010
000M
0M0M
0M00
M0M0
M00M
0010
0M01
0000
0000
0M01
00M0
M001
0M01
M000
0001
0M01
0M00
M0M0
0000
0010
0100
,  // measure 48
0010
0010
M000
000M
0M10
M000
0010
0010
000M
0M10
0010
M00M
0M00
00M0
000M
0M00
0010
M001
0000
M0M0
0M01
M000
0M01
0001
00M0
0M01
M001
0M00
00M0
0M00
100M
0010
,  // measure 49
0100
0100
M00M
M0M0
010M
M000
M10M
0100
M0M0
0100
010M
M000
M0M0
00M0
0M0M
M00M
0100
10M0
0000
0000
10M0
0M00
100M
10M0
000M
1000
10M0
00M0
0M0M
0000
0000
0000
,  // measure 50
MM22
M133
M2M2
13M3
,  // measure 51
M22M
133M
22MM
33M1
,  // measure 52
M22M
133M
2M2M
313M
,  // measure 53
M2M2
M313
MM22
1M33
,  // measure 54
M22M
133M
2M2M
3M31
,  // measure 55
M22M
133M
22MM
331M
,  // measure 56
1000
0100
0001
2000
0000
0002
3000
0200
,  // measure 57
0000
0000
0000
0000
0303
0000
1000
0000
0100
0000
0000
0001
0000
0000
0100
0000
,  // measure 58
1000
0010
0100
0000
0001
0100
0010
0000
0100
0001
0010
0000
0010
0100
1000
0000
,  // measure 59
1000
0010
1000
0000
1000
0100
1000
0000
1000
0001
1000
0000
1000
0010
0001
0000
,  // measure 60
0001
0010
1000
0000
0001
0010
1000
0000
1000
0010
0001
0000
0100
0010
1000
0000
,  // measure 61
0010
0100
0001
0000
0100
0010
1000
0000
0011
0000
0000
1000
0000
0000
0001
0000
,  // measure 62
0220
0000
0000
1000
0330
0110
0MM0
0000
,  // measure 63
2002
0000
0000
0100
3003
1001
M00M
0000
,  // measure 64
1000
0010
0001
0200
0000
2300
0000
0020
,  // measure 65
0000
0000
0000
3030
,  // measure 66
2002
0000
0000
0000
0000
3003
0200
2300
,  // measure 67
0002
0000
0000
0000
,  // measure 68
0000
0000
0000
0000
,  // measure 69
3003
0000
0000
0000
;
