#VERSION:0.83;
#TITLE:Bustin';
#SUBTITLE:;
#ARTIST:Ray Parker Jr remixed by neilcic;
#TITLETRANSLIT:;
#SUBTITLETRANSLIT:;
#ARTISTTRANSLIT:;
#GENRE:;
#ORIGIN:;
#CREDIT:;
#BANNER:Bustin [mikeythedrumguy].png;
#BACKGROUND:Bustin [mikeythedrumguy]-bg.png;
#PREVIEWVID:;
#JACKET:Bustin [mikeythedrumguy]-jacket.png;
#CDIMAGE:;
#DISCIMAGE:;
#LYRICSPATH:;
#CDTITLE:;
#MUSIC:Bustin [mikeythedrumguy].ogg;
#OFFSET:-0.855000;
#SAMPLESTART:42.697868;
#SAMPLELENGTH:14.694003;
#SELECTABLE:YES;
#DISPLAYBPM:114.000000;
#BPMS:0.000=114.560,
230.000=112.500,
232.000=114.500;
#STOPS:;
#DELAYS:;
#WARPS:;
#TIMESIGNATURES:0.000=4=4;
#TICKCOUNTS:0.000=4;
#COMBOS:0.000=1;
#SPEEDS:0.000=1.000=0.000=0;
#SCROLLS:0.000=1.000;
#FAKES:;
#LABELS:0.000=Song Start;
#BGCHANGES:3.750=Bustin [mikeythedrumguy].avi=1.000=0=0=1=====,
99999=-nosongbg-=1.000=0=0=0 // don't automatically add -songbackground-
;
#KEYSOUNDS:;
#ATTACKS:
;

//---------------dance-single - ----------------
#NOTEDATA:;
#CHARTNAME:;
#STEPSTYPE:dance-single;
#DESCRIPTION:;
#CHARTSTYLE:;
#DIFFICULTY:Beginner;
#METER:2;
#RADARVALUES:0.100392,0.139832,0.014342,0.000000,0.000000,98.000000,96.000000,2.000000,0.000000,0.000000,0.000000,0.000000,0.000000,0.000000,0.100392,0.139832,0.014342,0.000000,0.000000,98.000000,96.000000,2.000000,0.000000,0.000000,0.000000,0.000000,0.000000,0.000000;
#CREDIT:bentheotherdrumguy;
#DISPLAYBPM:114.000000;
#NOTES:
0000
0000
0000
0000
,
0000
0000
0000
0000
,
1000
0000
0000
0000
,
0001
0000
0000
0000
,
0100
0000
0000
0000
,
0010
0000
0000
0000
,
1000
0000
1000
0000
,
0000
0000
0000
0000
,
0001
0000
0001
0000
,
0000
0000
0000
0000
,
0100
0100
0000
0000
,
0100
0100
0000
0000
,
0001
0000
0000
0000
,
1000
0000
0000
0000
,
0010
0010
0000
0000
,
0010
0010
0000
0000
,
1000
0000
0000
0000
,
0001
0000
0000
0000
,
1000
0000
1000
0000
,
1000
0000
1000
0000
,
0001
0000
0001
0000
,
0001
0000
0001
0000
,
0100
0000
0100
0000
,
0100
0000
0100
0000
,
0100
0000
0100
0000
,
0100
0000
0000
0000
,
0001
0000
0001
0000
,
0001
0000
0001
0000
,
1000
0000
1000
0000
,
1000
0000
1000
0000
,
0010
0000
0000
0000
,
0010
0000
0000
0000
,
1000
0000
0000
0000
,
0001
0000
0000
0000
,
0000
1000
1000
1000
,
0000
0000
0000
0000
,
0000
0001
0001
0001
,
0000
0000
0000
0000
,
0000
0100
0100
0100
,
0000
0000
0000
0000
,
0000
0001
0001
0001
,
0000
0000
0000
0000
,
1001
0000
0000
0000
,
1000
0000
0000
0000
,
0010
0000
0010
0000
,
0010
0000
0000
0000
,
1000
0000
0000
0000
,
0001
0000
0000
0000
,
0100
0000
0100
0000
,
0100
0000
0000
0000
,
0010
0000
0010
0000
,
0010
0000
0000
0000
,
1000
0000
1000
0000
,
1000
0000
0000
0000
,
0001
0001
0000
0000
,
1000
0000
1000
0000
,
1000
0000
0000
0000
,
0010
0000
0000
0000
,
1001
0000
1000
0000
,
1000
0000
1000
0000
,
0001
0000
0001
0000
,
0100
0000
0100
0000
,
0010
0000
0010
0000
,
0010
0000
0010
0000
,
1000
0000
0001
0000
,
1000
0000
0000
0000
;

//---------------dance-single - ----------------
#NOTEDATA:;
#CHARTNAME:;
#STEPSTYPE:dance-single;
#DESCRIPTION:;
#CHARTSTYLE:;
#DIFFICULTY:Hard;
#METER:11;
#RADARVALUES:0.385178,0.544269,0.129076,0.968068,0.215126,376.000000,358.000000,18.000000,135.000000,0.000000,0.000000,0.000000,0.000000,0.000000,0.385178,0.544269,0.129076,0.968068,0.215126,376.000000,358.000000,18.000000,135.000000,0.000000,0.000000,0.000000,0.000000,0.000000;
#CREDIT:mikeythedrumguy;
#DISPLAYBPM:114.000000;
#NOTES:
0000
0000
0000
0000
,
0000
0000
0000
0000
,
0001
0000
0000
0000
1000
0000
0000
0000
0010
0000
0000
0000
1000
0000
0100
0010
,
0001
0000
0000
0000
0100
0000
0000
0000
0010
0000
0000
0000
0001
0000
0100
0010
,
0100
0000
0001
0000
1000
0000
0000
0000
0010
0000
0000
0000
0100
0000
0001
0010
,
0100
0000
1000
0000
0001
0000
0000
0000
1000
0000
0001
0000
1000
0000
0100
0010
,
0001
0000
0100
0010
1000
0000
0000
0000
0010
0000
0000
0000
1000
0000
0010
0100
,
0001
0000
0000
0000
0100
0000
0000
0000
0010
0000
0000
0000
1000
0000
0001
0010
,
0001
0000
1000
0100
1000
0000
0000
0000
0010
0000
0000
0000
1000
0000
0000
0000
,
0001
0010
0001
0010
0001
0010
0001
0010
0100
1000
0100
1000
0100
1000
0100
1000
,
0100
0000
0000
0000
0002
0003
2000
3000
,
0000
0000
0001
0000
0010
0100
0010
0000
0002
0000
0003
0000
0020
0000
0030
0000
,
0000
0000
0100
0000
1000
0001
0010
0000
0002
0000
0003
0000
0200
0000
0300
0000
,
0000
0000
0001
0000
1000
0100
0010
0000
0200
0000
0300
0000
2000
0000
3000
0000
,
0000
0000
0001
0000
0100
0010
0100
0000
0002
0000
0003
0000
0020
0000
0030
0000
,
0000
0000
0100
0000
0010
0001
1000
0000
0002
0000
0003
0000
0200
0000
0300
0000
,
0000
0000
0010
0000
1000
0010
0100
0000
0002
0000
0003
0000
2000
0000
3000
0000
,
0002
0000
0000
0000
0023
0000
0000
0000
2030
0000
0000
0000
3200
0000
0000
0300
,
2002
3003
0010
0202
0303
1000
0220
0330
,
0001
2020
3030
0100
2002
3003
0010
0000
,
0001
1000
0100
1000
0010
0100
0001
0010
,
0100
1000
0001
1000
0010
0100
0010
1000
,
0002
0000
0000
0203
0000
0000
0300
0000
0020
0000
0000
2030
0000
0000
3000
0000
,
0200
0000
0000
2300
0000
0000
3000
0000
0002
0000
0000
0023
0000
0000
0030
0000
,
0200
0300
1000
0002
0003
0100
0020
0030
,
1000
0200
0300
0010
0002
0003
2000
3000
,
0020
0030
0100
0000
0001
0000
1000
0000
,
0010
0000
0100
0000
2020
3030
0202
0303
,
2020
3030
0101
0000
0001
0000
1000
0000
,
0001
1000
0002
0203
,
0302
0000
0000
2003
0000
0000
3000
0000
0020
0000
0000
0230
0000
0000
0300
0000
,
0002
0000
0000
0023
0000
0000
0030
0000
0200
0000
0000
0300
2000
0000
0000
3000
,
0020
0000
0000
0230
0000
0000
0300
0000
0002
0000
0000
2003
0000
0000
3000
0000
,
0200
0000
0000
0320
0000
0000
0030
0000
0001
0000
1000
0010
0100
0001
0000
0000
,
0000
0002
2003
3020
,
0230
0000
0001
0000
0001
0000
0000
0000
0010
0000
0000
0000
0001
0000
0001
0300
,
0000
0002
2003
3200
,
0320
0001
0001
0000
0100
0000
0031
0000
,
2001
3002
2003
3200
,
2300
0001
0001
0000
0010
0000
0100
0100
,
3002
0203
0320
2030
,
3000
0000
0000
0000
2200
0000
0000
3300
0022
0000
0000
0033
2200
0000
0000
0000
,
3300
0000
0001
1000
0000
0000
1000
0001
0000
0000
0001
0100
0000
0000
0100
0010
,
0000
0000
0010
1000
0000
0000
1000
0100
0000
0000
0100
0010
0002
0000
0000
0000
,
2003
0000
3200
0000
,
2300
0000
0000
0000
0000
0000
0000
3000
0200
0000
0000
0000
0000
0000
0300
0000
,
0000
0000
0001
1000
0001
1000
0001
0000
2000
0000
0000
0000
3020
0000
0000
0000
,
1030
1000
0001
0001
0200
0000
0320
0000
,
2030
0001
0000
3001
0020
0001
0000
0031
,
0200
0010
0000
0310
2000
0010
0000
3010
,
0001
0000
0000
0000
0000
0000
0100
0000
0000
0010
0000
0000
0000
0000
0000
1000
0000
0000
0001
0000
0000
0000
0000
0000
0020
0000
0000
0000
0030
0000
0000
0000
0000
0000
0000
0000
0000
0000
0000
0000
0000
0000
0000
0000
0000
0000
0000
0000
,
1000
0000
0010
0100
0000
0001
1000
0000
0200
0000
0000
0000
0300
0000
0000
0000
,
1000
0000
0100
0000
0010
0001
0010
0000
0100
0000
1000
0000
0010
0000
1000
0100
,
1000
0000
0001
0000
0010
0100
0010
0000
0001
0000
1000
0000
0010
0000
1000
0001
,
1000
0000
0000
0000
0100
0000
0000
0000
2002
0000
0000
3003
0220
0000
0000
0330
,
0000
0000
0010
0000
0100
0000
0000
0000
2002
0000
0000
3003
0220
0000
0000
0330
,
2000
3200
0302
0023
,
2030
3200
0302
0023
,
2030
0000
0000
0000
3001
0000
0000
0000
0010
1000
0010
1000
0010
0000
0000
0000
,
0000
0000
0001
0000
0000
0000
0000
0000
0010
0001
0010
0001
0010
0000
0000
0000
,
0001
0010
0100
1000
0010
0100
0001
0010
,
0001
1000
0010
0100
0001
1000
0010
0100
,
0002
0000
0000
0023
0000
0000
0000
0030
0200
0000
0000
0320
0000
0000
0000
0030
,
0002
0000
0000
2003
0000
0000
0000
3000
0020
0000
0000
0030
0200
0000
0000
0300
,
0002
0000
0000
0023
0000
0000
0000
0030
0200
0000
0000
0320
0000
0000
0000
0030
,
0001
0000
0010
0000
0100
0000
1000
0000
0020
0000
0000
0030
2002
0000
0000
0000
,
3003
0000
0000
0000
;

//---------------dance-single - ----------------
#NOTEDATA:;
#CHARTNAME:;
#STEPSTYPE:dance-single;
#DESCRIPTION:;
#CHARTSTYLE:;
#DIFFICULTY:Medium;
#METER:9;
#RADARVALUES:0.311421,0.378622,0.215126,0.451765,0.000000,304.000000,274.000000,30.000000,63.000000,0.000000,0.000000,0.000000,0.000000,0.000000,0.311421,0.378622,0.215126,0.451765,0.000000,304.000000,274.000000,30.000000,63.000000,0.000000,0.000000,0.000000,0.000000,0.000000;
#CREDIT:bentheotherdrumguy;
#DISPLAYBPM:114.000000;
#NOTES:
0000
0000
0000
0000
,
0000
0000
0000
0000
,
1000
0000
0010
0000
0100
0000
0001
1000
,
1000
0000
0001
0000
1000
0000
0100
0010
,
0010
0000
0001
0000
1000
0000
0010
0100
,
0100
0001
1000
0010
,
0000
1001
0000
0000
0000
0000
0000
0000
,
0010
0010
0010
0010
,
0000
1001
0000
0000
0000
0000
0000
0000
,
0100
0100
0100
0100
,
0001
0100
0001
0000
2000
0000
3002
0000
,
1003
0100
1000
0000
0002
0000
2003
0000
,
3010
0000
0100
0000
0001
0000
1000
0100
,
2000
3001
1000
0010
,
1000
0001
1000
0000
0002
0000
0103
0000
,
0001
1000
0001
0000
2000
0000
3100
0000
,
1000
0001
0100
0010
,
1010
0101
0011
1100
,
0002
0013
0002
0103
,
0002
0013
0002
0103
,
0001
1000
0001
1000
0001
1000
0001
1000
,
0001
1000
0001
1000
0001
1000
0001
0000
,
2000
3100
0002
0013
,
2000
3100
0002
0013
,
2000
3010
0002
0103
,
2000
3010
2002
3003
,
0001
1000
0001
1000
0001
1000
0001
1000
,
0001
1000
0001
1000
0010
0000
0010
0000
,
1000
0001
1000
0001
1000
0001
1000
0001
,
1000
0001
1000
0001
0010
0000
0010
0000
,
0021
0130
0210
1300
,
2100
3001
1002
0103
,
0201
0310
0120
1030
,
2001
0000
3001
0000
1000
0001
0100
0000
,
0000
0002
0203
0320
,
0000
1000
1030
0000
,
0000
2000
3200
0320
,
0000
0001
0031
0000
,
0000
0002
2003
3020
,
0000
0100
0130
0000
,
0000
0020
2030
3002
,
0203
0010
0310
1001
,
0001
0100
0001
0000
0100
0000
0010
0000
,
1000
0100
1000
0000
0100
0000
1000
0000
,
0002
0003
2000
3000
,
0002
0003
2000
3000
,
0000
0001
0100
0000
1010
0000
0101
0000
,
0000
1000
0100
0000
1100
0000
0011
0000
,
2000
3000
0002
0003
,
2000
3000
0002
0003
,
1000
0100
0010
0000
0001
0000
0000
0000
,
1000
0010
0100
0000
0001
0000
0000
0000
,
0100
0010
1000
0001
,
1000
0010
0100
0100
,
0001
0100
0010
0000
1010
0000
0101
0000
,
1000
0100
0010
0000
0011
0000
1100
0000
,
0002
1003
2000
3010
,
0020
0130
0200
0301
,
1000
0100
1000
0100
1000
0100
1000
0100
,
1000
0100
1000
0100
2000
0000
3002
0000
,
0103
0001
0100
0001
0100
0001
0100
0001
,
0100
0001
0100
0001
2000
0000
3010
0000
,
1002
0103
2001
3100
,
1002
0013
2001
3010
,
1020
0130
0201
0310
,
1000
0000
0010
2002
,
3003
0000
0000
0000
;

//---------------dance-single - ----------------
#NOTEDATA:;
#CHARTNAME:;
#STEPSTYPE:dance-single;
#DESCRIPTION:;
#CHARTSTYLE:;
#DIFFICULTY:Easy;
#METER:4;
#RADARVALUES:0.160832,0.212975,0.014342,0.157759,0.000000,157.000000,155.000000,2.000000,22.000000,0.000000,0.000000,0.000000,0.000000,0.000000,0.160832,0.212975,0.014342,0.157759,0.000000,157.000000,155.000000,2.000000,22.000000,0.000000,0.000000,0.000000,0.000000,0.000000;
#CREDIT:bentheotherdrumguy;
#DISPLAYBPM:114.000000;
#NOTES:
0000
0000
0000
0000
,
0000
0000
0000
0000
,
0001
0000
0000
1000
,
0010
0000
0000
0100
,
0001
0000
0000
1000
,
0100
0000
0000
1000
,
0001
0000
0000
1000
,
0010
0000
0000
0010
,
0100
0000
0000
0100
,
0002
0000
0000
0003
,
1000
0100
0000
0000
,
0010
0001
0000
0000
,
1000
0000
0001
0001
,
1000
0000
1000
1000
,
0001
0100
0000
0000
,
0010
1000
0000
0000
,
0001
0000
1000
1000
,
0001
0000
0001
0001
,
0100
0000
0100
0000
,
0100
0000
0100
0000
,
0100
0100
0100
0100
,
0100
0100
0100
0100
,
0010
0000
0010
0000
,
0010
0000
0010
0000
,
1000
0000
0001
0000
,
1000
0000
2002
3003
,
0001
0001
0001
0001
,
1000
1000
1000
1000
,
0001
0001
1000
1000
,
0001
1000
0001
1000
,
0020
0030
0020
0030
,
0020
0030
0020
0030
,
2000
3000
0002
0003
,
0200
0300
0000
0000
,
0000
0001
0010
0200
,
0000
0000
0300
0000
,
0000
1000
0010
0200
,
0000
0300
0000
0000
,
0000
0001
1000
0020
,
0000
0030
0000
0000
,
0000
1000
0001
0200
,
0000
0000
0300
0000
,
0001
0100
0000
0000
,
0010
1000
0000
0000
,
0001
0000
1000
0000
,
0001
0000
1000
0000
,
0001
0010
0100
0100
,
1000
0010
0100
0100
,
0001
0000
1000
0000
,
0001
0000
1000
0000
,
0001
0100
0001
0000
,
1000
0100
1000
0000
,
0001
0000
1000
0000
,
0010
0000
0010
0000
,
1000
0001
0000
0000
,
0001
1000
0010
0010
,
1000
0000
0001
0000
,
0100
0100
0100
0000
,
0001
1000
0001
1000
,
0001
1000
0001
1000
,
0010
0100
0010
0100
,
0010
0100
0010
0100
,
0002
0003
2000
3000
,
0002
0003
2000
3000
,
0200
0300
0020
0030
,
0100
0000
0000
2002
,
3003
0000
0000
0000
;

//---------------dance-single - ----------------
#NOTEDATA:;
#CHARTNAME:;
#STEPSTYPE:dance-single;
#DESCRIPTION:;
#CHARTSTYLE:;
#DIFFICULTY:Challenge;
#METER:12;
#RADARVALUES:0.495815,0.589356,0.186443,0.322689,0.290420,484.000000,458.000000,26.000000,45.000000,0.000000,0.000000,0.000000,0.000000,0.000000,0.495815,0.589356,0.186443,0.322689,0.290420,484.000000,458.000000,26.000000,45.000000,0.000000,0.000000,0.000000,0.000000,0.000000;
#CREDIT:bentheotherdrumguy;
#DISPLAYBPM:114.000000;
#NOTES:
// measure 0
0000
0000
0000
0000
,  // measure 1
0000
0000
0000
0000
,  // measure 2
1000
0010
0100
0000
0001
1000
0001
0000
,  // measure 3
1000
0100
0010
0000
0001
1000
0001
0000
,  // measure 4
1000
0010
0100
0000
0001
0100
0001
0000
,  // measure 5
0100
0010
1000
0000
0001
1000
0001
0000
,  // measure 6
1000
0000
0100
1000
0100
0000
0000
0000
1000
0000
0000
0000
1010
0000
0000
0000
,  // measure 7
0001
0100
0010
1000
0100
0010
0001
0000
,  // measure 8
0010
0000
0001
0010
0001
0000
0000
0000
1000
0000
0000
0000
1001
0000
0000
0000
,  // measure 9
0001
0100
0001
0100
0001
0100
0001
0100
0010
1000
0010
1000
0010
1000
0010
1000
,  // measure 10
0001
0000
0010
0000
0100
0000
0000
0000
0210
0000
0000
0000
1300
0000
0001
1000
,  // measure 11
0001
1000
0010
0000
1020
0000
0230
0000
,  // measure 12
0301
0000
0100
0000
0010
0000
1000
0000
0100
0000
0010
0000
0001
0000
1000
0100
,  // measure 13
2000
0000
0000
0000
3001
0000
1000
0000
0010
0000
0100
0000
0001
0000
0100
0010
,  // measure 14
0100
0000
0010
0000
1000
0000
0000
0000
2010
0000
0000
0000
3001
0000
1000
0001
,  // measure 15
1000
0001
0100
0000
0201
0000
0320
0000
,  // measure 16
1030
0100
1000
0100
1000
0000
0001
0000
0100
0000
0010
0000
1000
0000
0000
0000
,  // measure 17
0001
0000
0001
0000
1000
0000
1000
0000
0010
0000
0100
0000
0001
1000
0000
0000
,  // measure 18
2010
0000
0000
3001
0000
0000
0012
0000
0000
1003
0000
0000
2100
0000
0000
3001
,  // measure 19
0000
0000
0102
0000
0000
1003
0000
0000
2001
0000
0000
3010
0000
0000
0001
0000
,  // measure 20
1000
0010
1000
0010
0100
0001
0100
0001
,  // measure 21
1000
0100
1000
0100
0010
0001
0010
0001
,  // measure 22
2000
0000
0000
3010
0000
0000
1000
0000
0002
0000
0000
0013
0000
0000
0001
0000
,  // measure 23
2000
0000
0000
3100
0000
0000
1000
0000
0002
0000
0000
0103
0000
0000
0001
0000
,  // measure 24
2000
0000
0000
3010
0000
0000
0100
0000
0002
0000
0000
0013
0000
0000
0100
0000
,  // measure 25
2000
0000
0000
3010
0000
0000
0100
0000
0001
0100
0001
0100
0010
0000
0000
0000
,  // measure 26
1010
1000
0001
0001
0010
0010
0001
0001
,  // measure 27
1000
1000
0100
0100
1001
0000
1010
0000
,  // measure 28
0101
0100
0010
0010
1000
1000
0001
0001
,  // measure 29
0010
0010
0100
0100
1100
0000
0011
0000
,  // measure 30
1000
0000
0001
0100
0000
0100
0010
0000
1000
0000
0001
0010
0000
0010
0100
0000
,  // measure 31
1000
0000
0001
0100
0000
0100
0010
0000
1000
0000
0001
0010
0000
0010
0100
0000
,  // measure 32
1000
0000
0010
1000
0000
1000
0001
0000
0100
0000
0001
1000
0000
1000
0010
0000
,  // measure 33
0100
0000
0001
1000
0000
1000
0010
0000
0100
0000
0001
0000
1000
0000
0000
0000
,  // measure 34
0010
1000
0200
0000
0320
0000
0032
0000
,  // measure 35
0000
0000
1000
0000
0000
0100
0000
0000
1000
0000
0000
0000
1003
0000
0000
0000
,  // measure 36
1000
0001
0200
0000
0320
0000
2030
0000
,  // measure 37
0000
0000
0001
0000
0000
0100
0000
0000
0001
0000
0000
0000
3001
0000
0000
0000
,  // measure 38
1000
0000
0010
0000
0100
0000
0100
0000
0001
0000
1000
0200
0000
0000
0000
0000
,  // measure 39
0310
0001
1000
0000
1001
0000
1001
0000
,  // measure 40
0001
0100
0020
0000
2030
0000
3002
0000
,  // measure 41
0203
0000
0000
0000
0010
0000
0000
0000
0310
0000
0000
0000
0001
1000
0010
0100
,  // measure 42
0010
0000
1000
0000
0010
0000
0100
0000
0001
0000
1000
0000
0001
0000
1000
0100
,  // measure 43
1000
0100
0010
0000
0001
0000
1000
0000
0010
0000
0100
0000
0001
0000
0000
0000
,  // measure 44
0200
0000
0310
1000
0200
0000
0310
0001
,  // measure 45
0200
0000
0310
1000
0200
0000
0310
0001
,  // measure 46
0100
0000
0001
1000
0001
1000
0001
1000
0020
0000
0000
0000
0230
0000
0000
0000
,  // measure 47
0301
0100
0010
1000
2010
0000
3001
0000
,  // measure 48
0002
0103
0200
1300
,  // measure 49
2000
3010
0020
0031
,  // measure 50
1000
0001
0000
1000
0000
0010
0100
0000
0001
0000
0000
0000
0000
0000
0000
0000
,  // measure 51
0001
1000
0000
0001
0000
0100
0010
0000
1000
0000
0000
0000
0000
0000
0000
0000
,  // measure 52
0001
0000
1000
0000
0010
0100
0010
0000
1000
0000
0001
0000
0010
0000
0100
1000
,  // measure 53
0001
0000
1000
0000
0010
0100
0010
0000
1000
0000
0001
0000
0010
0000
0001
0010
,  // measure 54
0100
1000
0001
0000
1000
0000
0000
0000
1010
0000
0000
0000
0101
0000
0000
0000
,  // measure 55
0000
0000
1001
0000
0000
0110
0000
0000
1002
0000
0000
0000
0103
0000
0000
0000
,  // measure 56
0201
1000
0001
1000
,  // measure 57
0320
0000
0000
0000
0001
0000
0000
0000
1030
0001
1000
0001
1000
0001
1000
0001
,  // measure 58
1000
0000
0010
0000
0100
0000
0001
0000
1000
0100
1000
0100
1000
0000
0010
0000
,  // measure 59
1000
0100
0010
0001
1000
0010
0100
0001
,  // measure 60
1000
0000
1000
0000
0010
0000
1000
0000
0001
0100
0001
0100
0001
0000
0100
0000
,  // measure 61
0010
1000
0001
0010
0100
1000
0001
0001
,  // measure 62
1000
0000
0001
0000
0100
0010
0100
0000
0001
0000
1000
0000
0100
0010
0100
0000
,  // measure 63
1000
0000
0001
0000
0010
0100
0010
0000
0001
0000
1000
0000
0010
0100
0010
0000
,  // measure 64
1000
0000
0001
0000
1000
0100
0010
0000
0001
0000
1000
0000
0001
0010
0100
0000
,  // measure 65
1000
1000
0001
0001
0200
0000
0310
0000
;
