#TITLE:Boogeyman Remix;
#SUBTITLE:(VeggieTales);
#ARTIST:Shama Mrema feat. drĂ»;
#TITLETRANSLIT:;
#SUBTITLETRANSLIT:;
#ARTISTTRANSLIT:;
#GENRE:;
#CREDIT:MrTwinkles;
#BANNER:Boogeyman Remix [MrTwinkles].png;
#BACKGROUND:Boogeyman Remix [MrTwinkles]-bg.png;
#LYRICSPATH:;
#CDTITLE:;
#MUSIC:Boogeyman Remix [MrTwinkles].ogg;
#OFFSET:0.745000;
#SAMPLESTART:36.367001;
#SAMPLELENGTH:16.229000;
#SELECTABLE:YES;
#BPMS:0.000000=109.989998
;
#STOPS:63.000000=2.045000
;
#BGCHANGES:2.400=Boogeyman Remix [MrTwinkles].avi=1.000=0=0=0=StretchNoLoop====,
99999=-nosongbg-=1.000=0=0=0 // don't automatically add -songbackground-
;
#KEYSOUNDS:;
#ATTACKS:;

//---------------dance-single - MrTwinkles----------------
#NOTES:
     dance-single:
     MrTwinkles:
     Hard:
     11:
     0.444898,0.535164,0.320098,0.373448,0.340104,467.000000,419.000000,48.000000,56.000000,39.000000,0.000000,0.444898,0.535164,0.320098,0.373448,0.340104,467.000000,419.000000,48.000000,56.000000,39.000000,0.000000:
0000
0000
0000
0000
,
0000
0000
0000
0000
,
0000
0000
0000
0000
,
0000
0000
0000
0000
,
0000
0000
0000
0000
,
0000
0000
0000
0000
,
0000
0000
0000
0000
,
0100
1000
0000
1000
0100
0000
0000
0000
0010
0001
0000
0001
0010
0000
0000
0000
,
0100
0010
0000
0010
0100
0000
0000
0000
0010
1000
0000
1000
0010
0100
0000
0000
,
1001
0010
0000
1000
0001
0010
0000
0000
1001
0000
0100
0001
1000
0000
0000
0100
,
0010
0001
0000
0001
0100
0001
0000
1000
0010
1000
0000
0001
0100
0000
0000
0000
,
0010
0100
0000
0100
0010
0000
0000
0000
0011
0000
0000
0000
0101
0000
0000
0000
,
0100
0001
0100
0001
0100
0000
0010
1000
0010
1000
0010
0000
0200
0002
0300
0003
,
0100
0001
0000
0001
0100
0000
0000
0000
1000
0100
0100
1000
0000
0000
0000
0000
,
2002
0000
0000
0000
,
0000
0000
0000
0000
0000
0000
0000
0000
0000
0000
0000
3003
0000
0000
0000
0000
,
0000
0000
0110
0000
0000
0110
0000
0000
0110
0000
0000
0000
0001
0000
0010
0000
,
MMMM
0000
2000
0000
0000
0002
3000
0000
2000
0003
0000
0000
3000
0000
0001
0000
,
0001
0000
0100
0010
0100
0000
0001
0000
1000
0010
0100
0000
0000
0000
0010
1000
,
0010
0000
1000
0000
0100
0000
0010
0001
1000
0000
0002
0000
0200
0000
0000
0000
,
0303
0000
0110
0000
0000
1100
0000
0000
1000
0000
0100
0000
0001
0000
0100
0000
,
MMMM
0000
0002
0000
0000
2000
0003
0000
0002
3000
0000
0000
0003
1000
0100
0000
,
0010
0000
0010
0000
0001
0000
0100
0000
2001
0000
0000
0010
0000
0000
3100
0000
,
0000
0000
0000
0000
0000
1000
1000
0100
,
0020
0000
0000
0030
0100
0000
0001
0000
0100
0000
0000
0000
0001
0000
0001
0000
,
0010
0000
0100
0000
1200
0000
0000
1000
0000
0000
0000
0300
0001
0000
0010
0000
,
2200
0300
3001
0100
0101
1000
0001
0100
,
0110
0000
0001
0000
0100
0000
0001
1000
0000
0000
0000
0010
0100
0000
0001
0000
,
0202
0300
0103
0020
1000
0130
0001
0100
,
1000
0100
0001
0100
1000
0000
1000
0100
,
1000
0010
0001
0010
1000
1010
1000
0100
,
0001
0000
0100
0000
1000
0000
0100
0000
0001
0000
0000
1000
0100
0000
0010
0000
,
0001
0010
0000
0001
0000
0000
0010
0000
1000
0100
M000
0100
0001
0010
0001
0000
,
1000
0100
1100
0101
1010
0000
0100
0010
,
1000
M100
0100
0001
001M
0010
1000
0100
,
0012
0003
2100
3000
0220
0000
0330
0000
,
MMMM
0000
0002
0000
0003
0020
0000
0030
0200
0000
1000
0300
1000
0000
0100
0000
,
MMMM
0000
0002
0000
0000
2000
0003
0000
0002
3000
0000
0000
0003
0000
1000
0000
,
1000
0000
0010
0100
0010
0000
1000
0000
0001
0100
0010
0000
0000
0000
0100
0001
,
0100
0000
0001
0000
0010
0000
0100
1000
0001
0000
2000
0000
0020
0000
0000
0000
,
3030
0000
0110
0000
0000
1100
0000
0000
0001
0000
0010
0000
1000
0000
0010
0000
,
MMMM
0000
2000
0000
0000
0002
3000
0000
2000
0003
0000
0000
3000
0001
0010
0000
,
0100
0000
0100
0000
1000
0000
0010
0000
1002
0000
0000
0100
0000
0000
0013
0000
,
0000
00M0
0000
0M00
0000
00M0
0000
0M00
,
0011
0000
0000
0010
1000
0000
0100
0000
1000
0001
0100
0000
0110
0000
0000
0000
,
1010
0000
0000
0010
0001
0000
0010
0000
0001
1000
0010
0000
0110
0000
0000
0000
,
0011
0000
1000
0000
0010
1000
0000
0001
0100
0000
0001
0000
0110
0000
0000
0000
,
0020
1030
0200
0310
0002
0103
0110
0000
,
0001
1000
0000
0010
0100
0000
1000
0000
0010
0010
0000
0000
0101
0000
0000
0000
,
2000
3020
0230
0302
2003
3010
1100
0000
,
0010
0000
0100
0000
0001
1000
0000
0000
1010
0000
0101
0000
0110
0000
0000
0000
,
0001
0010
0001
1000
0100
0010
1100
0000
,
MMMM
0000
0001
0000
0001
0010
1000
0000
0000
0000
1000
0000
1000
0100
0001
0000
,
0000
0000
0110
0000
1000
0100
0010
0001
0010
0100
1000
0000
0000
0000
1001
0000
,
0000
0000
1000
0000
0010
0100
0010
0000
0000
0000
0100
0000
0001
1000
0001
0000
,
0000
0000
0100
0010
0001
0010
0001
1000
0010
1000
0001
0000
0000
0000
1001
0000
,
0000
0000
1000
0000
1000
0010
0001
0000
0000
0000
0001
0000
0001
0100
1000
0000
,
0000
0000
0110
0000
0001
0010
0100
1000
0100
0010
0001
0000
0000
0000
1001
0000
,
0000
0000
0001
0000
0100
0010
0100
0000
0000
0000
0010
0000
1000
0001
1000
0000
,
0000
0000
0010
0100
1000
0100
1000
0001
0100
0001
1000
0000
0000
0000
1001
0000
,
0000
0000
2000
0000
3000
0200
0000
0300
0020
0000
0001
0030
0001
0000
0010
0000
,
MMMM
0000
2000
0000
0000
0002
3000
0000
2000
0003
0000
0000
3000
0000
0001
0000
,
0001
0000
0100
0010
0100
0000
0001
0000
1000
0010
0100
0000
0000
0000
0010
1000
,
0010
0000
1000
0000
0100
0000
0010
0001
1000
0000
0002
0000
0200
0000
0000
0000
,
0303
0000
0110
0000
0000
1010
0000
0000
1000
0000
0100
0000
0001
0000
0100
0000
,
MMMM
0000
0002
0000
0000
2000
0003
0000
0002
3000
0000
0000
0003
1000
0100
0000
,
0010
0000
0010
0000
0001
0000
0100
0000
2001
0000
0000
0010
0000
0000
3100
0000
;

//---------------lights-cabinet - SMLightsBuilder----------------
#NOTES:
     lights-cabinet:
     SMLightsBuilder:
     Easy:
     1:
     0.810725,0.936537,1.280393,0.880270,0.340104,851.000000,419.000000,192.000000,132.000000,0.000000,221.000000,0.810725,0.936537,1.280393,0.880270,0.340104,851.000000,419.000000,192.000000,132.000000,0.000000,221.000000:
// measure 0
000000
000000
000000
000000
,  // measure 1
000000
000000
000000
000000
,  // measure 2
000000
000000
000000
000000
,  // measure 3
000000
000000
000000
000000
,  // measure 4
000000
000000
000000
000000
,  // measure 5
000000
000000
000000
000000
,  // measure 6
000000
000000
000000
000000
,  // measure 7
010011
100000
000000
100000
010011
000000
000000
000000
001011
000100
000000
000100
001011
000000
000000
000000
,  // measure 8
010011
001000
000000
001000
010011
000000
000000
000000
001011
100000
000000
100000
001011
010000
000000
000000
,  // measure 9
100111
001000
000000
100000
000111
001000
000000
000000
100111
000000
010000
000100
100011
000000
000000
010000
,  // measure 10
001011
000100
000000
000100
010011
000100
000000
100000
001011
100000
000000
000100
010011
000000
000000
000000
,  // measure 11
001011
010000
000000
010000
001011
000000
000000
000000
001111
000000
000000
000000
010111
000000
000000
000000
,  // measure 12
010011
000100
010000
000100
010011
000000
001000
100000
001011
100000
001000
000000
020022
000200
030033
000300
,  // measure 13
010011
000100
000000
000100
010011
000000
000000
000000
000111
010000
010000
000100
000000
000000
000000
000000
,  // measure 14
200222
000000
000000
000000
,  // measure 15
000000
000000
000000
000000
000000
000000
000000
000000
000000
000000
000000
300333
000000
000000
000000
000000
,  // measure 16
000000
000000
011011
000000
000000
011011
000000
000000
011011
000000
000000
000000
000111
000000
001000
000000
,  // measure 17
000000
000000
200022
000000
000000
000200
300033
000000
200022
000333
000000
000000
300000
000000
000100
000000
,  // measure 18
000111
000000
010000
001000
010011
000000
000100
000000
100011
001000
010000
000000
000000
000000
001000
100000
,  // measure 19
001011
000000
100000
000000
010011
000000
001000
000100
100011
000000
000222
000000
020000
000000
000000
000000
,  // measure 20
030333
000000
011011
000000
000000
110011
000000
000000
100011
000000
010000
000000
000111
000000
010000
000000
,  // measure 21
000000
000000
000222
000000
000000
200000
000333
000000
000222
300033
000000
000000
000300
100000
010000
000000
,  // measure 22
001011
000000
001000
000000
000111
000000
010000
000000
200122
000000
000000
001000
000000
000000
310033
000000
,  // measure 23
000000
000000
000000
000000
000000
100000
100011
010000
,  // measure 24
002022
000000
000000
003033
010011
000000
000100
000000
010011
000000
000000
000000
000111
000000
000100
000000
,  // measure 25
001011
000000
010000
000000
120022
000000
000000
100000
000000
000000
000000
030033
000111
000000
001000
000000
,  // measure 26
220022
030033
300100
010000
010111
100000
000111
010000
,  // measure 27
011011
000000
000100
000000
010011
000000
000100
100000
000000
000000
000000
001000
010011
000000
000100
000000
,  // measure 28
020222
030033
010300
002022
100000
013033
000111
010000
,  // measure 29
100011
010000
000111
010000
100011
000000
100011
010000
,  // measure 30
100011
001000
000111
001000
100011
101011
100011
010000
,  // measure 31
000111
000000
010000
000000
100011
000000
010000
000000
000111
000000
000000
100000
010011
000000
001000
000000
,  // measure 32
000111
001000
000000
000100
000000
000000
001000
000000
100011
010000
000000
010000
000111
001000
000100
000000
,  // measure 33
100011
010000
110011
010111
101011
000000
010011
001000
,  // measure 34
100011
010000
010011
000100
001011
001000
100011
010000
,  // measure 35
001222
000333
210022
300033
022022
000000
033033
000000
,  // measure 36
000000
000000
000222
000000
000333
002022
000000
003033
020022
000000
100000
030033
100011
000000
010000
000000
,  // measure 37
000000
000000
000222
000000
000000
200000
000333
000000
000222
300033
000000
000000
000300
000000
100000
000000
,  // measure 38
100011
000000
001000
010000
001011
000000
100000
000000
000111
010000
001000
000000
000000
000000
010000
000100
,  // measure 39
010011
000000
000100
000000
001011
000000
010000
100000
000111
000000
200022
000000
002000
000000
000000
000000
,  // measure 40
303033
000000
011011
000000
000000
110011
000000
000000
000111
000000
001000
000000
100011
000000
001000
000000
,  // measure 41
000000
000000
200022
000000
000000
000200
300033
000000
200022
000333
000000
000000
300000
000100
001000
000000
,  // measure 42
010011
000000
010000
000000
100011
000000
001000
000000
100222
000000
000000
010000
000000
000000
001333
000000
,  // measure 43
000000
000000
000000
000000
,  // measure 44
001111
000000
000000
001000
100011
000000
010000
000000
100011
000100
010000
000000
011011
000000
000000
000000
,  // measure 45
101011
000000
000000
001000
000111
000000
001000
000000
000111
100000
001000
000000
011011
000000
000000
000000
,  // measure 46
001111
000000
100000
000000
001011
100000
000000
000100
010011
000000
000100
000000
011011
000000
000000
000000
,  // measure 47
002022
103033
020022
031033
000222
010333
011011
000000
,  // measure 48
000111
100000
000000
001000
010011
000000
100000
000000
001011
001000
000000
000000
010111
000000
000000
000000
,  // measure 49
200022
302000
023000
030200
200300
301033
110011
000000
,  // measure 50
001011
000000
010000
000000
000111
100000
000000
000000
101011
000000
010111
000000
011011
000000
000000
000000
,  // measure 51
000111
001000
000111
100000
010011
001000
110011
000000
,  // measure 52
000000
000000
000100
000000
000111
001000
100000
000000
000000
000000
100000
000000
100011
010000
000100
000000
,  // measure 53
000000
000000
011011
000000
100011
010000
001000
000100
001011
010000
100000
000000
000000
000000
100111
000000
,  // measure 54
000000
000000
100000
000000
001011
010000
001000
000000
000000
000000
010000
000000
000111
100000
000100
000000
,  // measure 55
000000
000000
010000
001000
000111
001000
000100
100000
001011
100000
000100
000000
000000
000000
100111
000000
,  // measure 56
000000
000000
100000
000000
100011
001000
000100
000000
000000
000000
000100
000000
000111
010000
100000
000000
,  // measure 57
000000
000000
011011
000000
000111
001000
010000
100000
010011
001000
000100
000000
000000
000000
100111
000000
,  // measure 58
000000
000000
000100
000000
010011
001000
010000
000000
000000
000000
001000
000000
100011
000100
100000
000000
,  // measure 59
000000
000000
001000
010000
100011
010000
100000
000100
010011
000100
100000
000000
000000
000000
100111
000000
,  // measure 60
000000
000000
200022
000000
300033
020022
000000
030033
002022
000000
000100
003033
000111
000000
001000
000000
,  // measure 61
000000
000000
200022
000000
000000
000200
300033
000000
200022
000333
000000
000000
300000
000000
000100
000000
,  // measure 62
000111
000000
010000
001000
010011
000000
000100
000000
100011
001000
010000
000000
000000
000000
001000
100000
,  // measure 63
001011
000000
100000
000000
010011
000000
001000
000100
100011
000000
000222
000000
020000
000000
000000
000000
,  // measure 64
030333
000000
011011
000000
000000
101011
000000
000000
100011
000000
010000
000000
000111
000000
010000
000000
,  // measure 65
000000
000000
000222
000000
000000
200000
000333
000000
000222
300033
000000
000000
000300
100000
010000
000000
,  // measure 66
001011
000000
001000
000000
000111
000000
010000
000000
200122
000000
000000
001000
000000
000000
310033
000000
;

//---------------dance-single - ----------------
#NOTES:
     dance-single:
     :
     Medium:
     8:
     0.308666,0.358777,0.146712,0.166718,0.026675,324.000000,302.000000,22.000000,25.000000,0.000000,0.000000,0.308666,0.358777,0.146712,0.166718,0.026675,324.000000,302.000000,22.000000,25.000000,0.000000,0.000000:
0000
0000
0000
0000
,
0000
0000
0000
0000
,
0000
0000
0000
0000
,
0000
0000
0000
0000
,
0000
0000
0000
0000
,
0000
0000
0000
0000
,
0000
0000
0000
0000
,
0001
0000
0100
0000
0010
1000
0001
0000
,
1000
0000
0100
0000
0010
0001
1000
0000
,
0001
0000
0100
0000
0001
1000
0001
0000
,
1000
0100
0010
0001
0010
0100
1000
0000
,
0001
0100
0010
0000
2010
0000
3001
0000
,
1000
0001
0100
0000
0102
0000
1003
0000
,
0001
1000
0100
0000
1000
0001
0200
0000
,
0310
1000
0010
1000
0001
0100
0001
0100
,
0010
1000
0001
0001
1000
1000
0000
0000
,
0002
0100
0000
0103
,
2000
0100
0000
3100
,
1000
0000
0001
0100
0001
0000
1000
0010
,
1000
0000
0001
0010
0001
0000
1000
0000
,
0002
0010
0000
0010
,
2003
0010
0000
0010
,
3001
0100
0001
0000
0101
0000
0110
0000
,
2002
0000
0000
3003
,
1000
0100
1000
0000
0200
0000
0310
0000
,
0001
0100
0001
0000
0200
0000
0310
0000
,
1000
0010
1000
0000
0001
0100
0001
0000
,
1000
0100
0010
0001
1000
0000
0000
0000
,
0001
0010
0100
0000
0010
0001
0100
0000
,
0001
1000
0001
1000
0001
0000
0000
0000
,
1000
0010
0100
0000
0010
1000
0100
0000
,
1000
0001
1000
0001
1000
0000
0000
0000
,
0001
0000
0101
0000
1000
0010
0100
0000
,
1000
0000
1010
0000
0001
0000
1000
0001
,
0100
0000
0001
1000
0100
0000
1000
0001
,
0010
0010
0100
0100
2000
0000
3001
0000
,
0000
0000
0001
0000
0000
1000
0000
0000
0001
0000
0100
0000
0001
0000
0100
0000
,
0000
0000
0001
0000
0000
1000
0000
0000
0200
0000
0000
0000
0300
0000
0000
0000
,
1000
0010
1000
0000
0001
0100
0001
0000
,
2000
3200
0320
0031
,
0000
0000
1000
0000
0000
0001
0000
0000
1000
0000
0100
0000
1000
0000
0100
0000
,
0000
0000
1000
0000
0000
0001
0000
0000
0200
0000
0000
0000
0300
0000
0000
0000
,
0001
1000
0001
0000
0101
0000
0110
0000
,
2002
0000
0000
3003
,
0101
0000
0100
0010
1000
0001
0001
0000
,
1100
0000
1000
0010
0100
0001
0001
0000
,
1010
0000
0001
1000
0100
0010
0010
0000
,
0110
0000
0010
0001
1000
0001
0001
0000
,
1000
0000
1010
0000
0001
0100
0101
0000
,
1000
0000
1100
0000
0001
0010
0011
0000
,
1000
0010
0100
0001
1000
0100
0100
0000
,
2002
0000
0000
3003
,
0000
0001
0100
0001
0000
1000
0100
1000
,
0000
0001
0010
0100
1000
0001
0000
0000
,
0000
1000
0010
1000
0000
0001
0010
0001
,
0000
1000
0100
0010
0001
1000
0000
0000
,
0000
0001
0100
0001
0000
1000
0010
1000
,
0000
0001
0010
0100
1000
0001
0000
0000
,
0000
1000
0010
1000
0000
0001
0100
0001
,
0000
1000
0100
0010
0001
1000
0000
0000
,
0000
0000
0001
0000
0000
0100
0000
0000
0001
0000
1000
0000
0001
0000
1000
0000
,
0000
0000
0001
0000
0000
1000
0000
0000
0200
0000
0000
0000
0300
0000
0000
0000
,
1000
0010
0100
0010
1000
0000
0001
0000
,
0100
0001
0010
0001
0100
0000
0001
0000
,
0000
0000
1000
0000
0000
0010
0000
0000
1000
0000
0001
0000
1000
0000
0001
0000
,
0000
0000
1000
0000
0000
0001
0000
0000
0200
0000
0000
0000
0300
0000
0000
0000
,
0001
1000
0001
0000
1100
0000
0110
0000
,
2002
3003
0000
0000
;

//---------------dance-single - ----------------
#NOTES:
     dance-single:
     :
     Easy:
     4:
     0.164812,0.201812,0.020006,0.046681,0.000000,173.000000,170.000000,3.000000,7.000000,0.000000,0.000000,0.164812,0.201812,0.020006,0.046681,0.000000,173.000000,170.000000,3.000000,7.000000,0.000000,0.000000:
// measure 0
0000
0000
0000
0000
,  // measure 1
0000
0000
0000
0000
,  // measure 2
0000
0000
0000
0000
,  // measure 3
0000
0000
0000
0000
,  // measure 4
0000
0000
0000
0000
,  // measure 5
0000
0000
0000
0000
,  // measure 6
0000
0000
0000
0000
,  // measure 7
0001
0000
1000
0000
,  // measure 8
0001
0100
0010
0000
,  // measure 9
1000
0000
0001
0000
,  // measure 10
1000
0100
0010
0000
,  // measure 11
0001
0100
0001
0001
,  // measure 12
1000
0100
1000
1000
,  // measure 13
0010
0000
0010
0000
,  // measure 14
1000
0001
1000
0001
,  // measure 15
0100
0010
0100
0000
,  // measure 16
0000
0001
0000
0001
,  // measure 17
0000
1000
0000
1000
,  // measure 18
0010
0010
0100
0000
,  // measure 19
0100
0100
0001
0000
,  // measure 20
0000
1000
0000
1000
,  // measure 21
0000
0001
0000
0001
,  // measure 22
0010
0010
0100
0100
,  // measure 23
2000
0000
0000
3000
,  // measure 24
0001
0000
0100
0000
,  // measure 25
0010
1000
0001
0000
,  // measure 26
1000
0000
0100
0000
,  // measure 27
0010
0001
1000
0000
,  // measure 28
0001
0000
1000
0000
,  // measure 29
0010
0010
1000
0000
,  // measure 30
1000
0000
0001
0000
,  // measure 31
0100
0100
0001
0000
,  // measure 32
1000
0100
0010
0010
,  // measure 33
0001
1000
0020
0030
,  // measure 34
1000
0010
0100
0100
,  // measure 35
0001
1000
0200
0300
,  // measure 36
0000
1000
0001
1000
,  // measure 37
0000
0001
1000
0001
,  // measure 38
0100
0100
0010
0000
,  // measure 39
0010
0010
0100
0000
,  // measure 40
0000
0001
1000
0001
,  // measure 41
0000
1000
0001
1000
,  // measure 42
0100
0100
0010
0010
,  // measure 43
0002
0000
0000
0003
,  // measure 44
1000
0000
0000
0000
0000
0010
0010
0000
,  // measure 45
0010
0000
0000
0000
0000
0100
0100
0000
,  // measure 46
0100
0000
0000
0000
0000
0001
0001
0000
,  // measure 47
0001
0000
0000
0000
0000
1000
1000
0000
,  // measure 48
1000
0000
0000
0000
0000
0010
0010
0000
,  // measure 49
0010
0000
0000
0000
0000
1000
1000
0000
,  // measure 50
1000
0000
0000
0000
0000
0001
0001
0000
,  // measure 51
2002
0000
0000
3003
,  // measure 52
0001
0100
0000
0100
,  // measure 53
0000
0100
0010
1000
,  // measure 54
0001
1000
0000
1000
,  // measure 55
0000
1000
0100
0010
,  // measure 56
0001
0100
0000
0100
,  // measure 57
0000
0100
0001
1000
,  // measure 58
0100
1000
0000
1000
,  // measure 59
0000
0001
1000
0000
,  // measure 60
1001
0000
0001
0100
,  // measure 61
0010
0000
0010
0000
,  // measure 62
1000
1000
0001
0001
,  // measure 63
1000
0100
0010
0000
,  // measure 64
1001
0000
1000
0000
,  // measure 65
0010
0010
0010
0000
,  // measure 66
1000
0010
0100
0001
,  // measure 67
2000
3000
0000
0000
;

//---------------dance-single - ----------------
#NOTES:
     dance-single:
     :
     Beginner:
     1:
     0.083835,0.134041,0.046681,0.000000,0.000000,88.000000,81.000000,7.000000,0.000000,0.000000,0.000000,0.083835,0.134041,0.046681,0.000000,0.000000,88.000000,81.000000,7.000000,0.000000,0.000000,0.000000:
// measure 0
0000
0000
0000
0000
,  // measure 1
0000
0000
0000
0000
,  // measure 2
0000
0000
0000
0000
,  // measure 3
0000
0000
0000
0000
,  // measure 4
0000
0000
0000
0000
,  // measure 5
0000
0000
0000
0000
,  // measure 6
0000
0000
0000
0000
,  // measure 7
1000
0000
0000
0000
,  // measure 8
0010
0000
0000
0000
,  // measure 9
1000
0000
0000
0000
,  // measure 10
0001
0000
0000
0000
,  // measure 11
0100
0000
0100
0000
,  // measure 12
0100
0000
0000
0000
,  // measure 13
0010
0000
0010
0000
,  // measure 14
0010
0000
0000
0000
,  // measure 15
1000
0000
0000
0000
,  // measure 16
0000
0000
0000
0000
,  // measure 17
0000
0010
0000
0010
,  // measure 18
0000
0000
0000
0000
,  // measure 19
1000
0000
1000
0000
,  // measure 20
1000
0000
0000
0000
,  // measure 21
0000
0001
0001
0000
,  // measure 22
0001
0000
0000
0000
,  // measure 23
1000
0000
0000
0000
,  // measure 24
0010
0000
0000
0000
,  // measure 25
1000
0000
1000
0000
,  // measure 26
1000
0000
0000
0000
,  // measure 27
0001
0000
0001
0000
,  // measure 28
0001
0000
0000
0000
,  // measure 29
0100
0000
0100
0000
,  // measure 30
0100
0000
0000
0000
,  // measure 31
0001
0000
0001
0000
,  // measure 32
0001
0000
0000
0000
,  // measure 33
1000
0000
0000
0000
,  // measure 34
0010
0000
0010
0000
,  // measure 35
0010
0000
0000
0000
,  // measure 36
1000
1000
0000
0000
,  // measure 37
1000
1000
0000
0000
,  // measure 38
0001
0000
0001
0000
,  // measure 39
0001
0000
0000
0000
,  // measure 40
0100
0100
0000
0000
,  // measure 41
0100
0100
0000
0000
,  // measure 42
0001
0000
0001
0000
,  // measure 43
0001
0000
0000
0000
,  // measure 44
1000
0000
0000
1001
,  // measure 45
0000
0000
0000
1001
,  // measure 46
0000
0000
0000
1001
,  // measure 47
0000
0000
0000
1001
,  // measure 48
0000
0000
0000
1001
,  // measure 49
0000
0000
0000
1001
,  // measure 50
0000
0000
0000
1001
,  // measure 51
0000
0000
0000
0000
,  // measure 52
0000
0001
0000
0001
,  // measure 53
0000
0001
0000
0000
,  // measure 54
0000
1000
0000
1000
,  // measure 55
0000
1000
0000
0000
,  // measure 56
0000
0010
0000
0010
,  // measure 57
0000
0010
0000
0000
,  // measure 58
0000
1000
0000
1000
,  // measure 59
0000
1000
0000
0000
,  // measure 60
0001
0000
0000
0000
,  // measure 61
1000
0000
0000
0000
,  // measure 62
0010
0000
0010
0000
,  // measure 63
0010
0000
0000
0000
,  // measure 64
1000
0000
0000
0000
,  // measure 65
0001
0000
0000
0000
,  // measure 66
0100
0000
0100
0000
,  // measure 67
0100
0000
0000
0000
;
