#VERSION:0.83;
#TITLE:Alex Theme;
#SUBTITLE:(Machine Head Mix);
#ARTIST:Akira Yamaoka ft. Mary Elizabeth McGlynn;
#TITLETRANSLIT:;
#SUBTITLETRANSLIT:;
#ARTISTTRANSLIT:;
#GENRE:;
#ORIGIN:;
#CREDIT:Ben Fears;
#BANNER:Alex Theme (Machine Head Mix) [Ben Fears].png;
#BACKGROUND:Alex Theme (Machine Head Mix)-bg [Ben Fears].png;
#PREVIEWVID:;
#JACKET:Alex Theme (Machine Head Mix) [Ben Fears]-jacket.png;
#CDIMAGE:;
#DISCIMAGE:;
#LYRICSPATH:;
#CDTITLE:;
#MUSIC:Alex Theme (Machine Head Mix) [Ben Fears].ogg;
#OFFSET:0.003000;
#SAMPLESTART:97.136086;
#SAMPLELENGTH:10.894000;
#SELECTABLE:YES;
#BPMS:0.000=83.990;
#STOPS:;
#DELAYS:;
#WARPS:;
#TIMESIGNATURES:0.000=4=4;
#TICKCOUNTS:0.000=4;
#COMBOS:0.000=1;
#SPEEDS:0.000=1.000=0.000=0;
#SCROLLS:0.000=1.000;
#FAKES:;
#LABELS:0.000=Song Start;
#BGCHANGES:0.000=Alex Theme (Machine Head Mix) [Ben Fears].avi=1.000=0=0=0=StretchNoLoop====,
99999=-nosongbg-=1.000=0=0=0 // don't automatically add -songbackground-
;
#KEYSOUNDS:;
#ATTACKS:
;

//---------------dance-single - ----------------
#NOTEDATA:;
#CHARTNAME:;
#STEPSTYPE:dance-single;
#DESCRIPTION:;
#CHARTSTYLE:;
#DIFFICULTY:Hard;
#METER:11;
#RADARVALUES:0.436949,0.489518,0.243071,0.310590,0.263327,453.000000,417.000000,36.000000,46.000000,0.000000,0.000000,0.000000,0.000000,0.000000,0.436949,0.489518,0.243071,0.310590,0.263327,453.000000,417.000000,36.000000,46.000000,0.000000,0.000000,0.000000,0.000000,0.000000;
#CREDIT:Ben Fears;
#DISPLAYBPM:120.000000;
#NOTES:
// measure 0
0000
0000
0000
0000
,  // measure 1
0000
0000
0000
0000
,  // measure 2
1001
0001
0100
0010
1000
0100
1000
0100
,  // measure 3
1001
1000
0100
0010
0001
0100
0001
0100
,  // measure 4
1010
0001
0010
0100
0011
1000
0100
0010
,  // measure 5
1001
0010
0100
0001
1000
1000
0001
0001
,  // measure 6
0101
0100
0010
1000
0001
0010
0001
0010
,  // measure 7
1100
0100
0010
0001
1000
0010
1000
0010
,  // measure 8
0101
1000
0100
0010
1100
0001
0010
0100
,  // measure 9
1000
1000
0100
1000
0010
0100
0001
1000
0010
0100
0001
1000
0001
0001
0100
0001
,  // measure 10
1000
0000
0010
0100
0020
0000
1030
0000
0001
0000
1000
0100
2000
0000
3001
0000
,  // measure 11
1000
0000
0001
0100
0002
0000
1003
0000
0001
0000
0100
0010
0200
0000
0310
0000
,  // measure 12
1000
0000
0010
1000
0002
0000
0013
0000
0001
0000
1000
0100
0020
0000
0031
0000
,  // measure 13
1000
0000
0001
1000
0020
0000
0130
0000
0001
0000
1000
0100
2000
0000
3001
0000
,  // measure 14
1000
0010
1000
0000
1020
0000
0230
0000
0301
0100
0001
0000
0102
0000
2003
0000
,  // measure 15
3100
1000
0100
0000
2100
0000
3002
0000
0013
0001
0010
0000
0012
0000
2003
0000
,  // measure 16
3001
1000
0010
0000
1020
0000
0230
0000
0301
1000
0100
0000
1200
0000
0320
0000
,  // measure 17
0031
0001
0010
0100
0010
0001
1000
0010
0100
0001
1000
0001
1000
1000
0100
1000
,  // measure 18
0001
0000
0100
0001
1000
0000
0010
1000
0100
0000
0010
0000
0110
0000
1001
0000
,  // measure 19
0001
0000
1000
0100
0010
0000
0100
0010
0001
0000
0010
0001
1000
0000
0001
0000
,  // measure 20
1000
0000
0010
1000
0001
0000
0100
0001
0010
0000
0100
0000
0110
0000
1001
0000
,  // measure 21
1000
0000
0001
0010
0200
0000
1000
0000
1300
0000
1000
0010
0200
0000
0001
0000
,  // measure 22
0301
0000
1000
0010
0100
0000
0001
0000
0101
0000
1000
0000
1010
0000
1100
0000
,  // measure 23
0001
0000
1000
0100
0010
0000
0001
0010
0100
0000
1000
0010
0200
0000
0302
0000
,  // measure 24
1003
0000
0001
0100
0010
0000
1000
0000
1010
0000
0001
0000
0101
0000
0011
0000
,  // measure 25
1000
1000
0100
1000
0010
0100
0010
1000
0100
0010
0001
1000
0001
0001
1000
0010
,  // measure 26
0200
0000
0000
0000
0002
0000
0000
0300
,  // measure 27
2000
0000
0000
0003
0200
0000
0000
3000
,  // measure 28
0020
0000
0000
0300
0002
0000
0000
0030
,  // measure 29
2000
0000
0000
0003
0020
0000
0000
3030
,  // measure 30
0000
1000
0010
0100
0000
0010
0100
0001
,  // measure 31
0000
0100
0001
1000
0000
0001
1000
0100
,  // measure 32
2000
0001
0100
0001
3002
0100
1000
0100
,  // measure 33
2003
0010
0100
0002
0000
0000
3003
0000
,  // measure 34
0101
0000
0100
0010
1000
0000
0100
0000
1100
0000
0100
0010
0001
0000
1000
0000
,  // measure 35
1001
0000
0001
0010
0100
0000
0010
0100
1000
0000
0100
1000
0010
1000
0001
0000
,  // measure 36
1001
0000
1000
0100
0010
0000
0001
0000
1001
0000
0001
0100
0010
0000
1000
0000
,  // measure 37
1100
0000
0100
1000
0002
0000
0100
0000
1000
0000
0103
0001
2000
0000
0100
0000
,  // measure 38
3100
0000
1000
0001
0100
0000
0101
0000
1010
0000
0001
1000
0100
0000
1100
0000
,  // measure 39
0011
0000
1000
0100
0010
0000
0100
0010
0001
0000
0010
0001
1000
0001
0100
0000
,  // measure 40
0101
0000
0100
0010
2000
0000
3001
0000
1000
0000
0100
0010
0002
0000
1003
0000
,  // measure 41
0001
0001
0100
0001
1000
0001
0100
0010
1000
0001
0010
0100
1000
1000
0010
0100
,  // measure 42
0002
0100
0100
1000
1000
0100
1000
0100
,  // measure 43
2003
0010
0010
0001
0001
0010
0001
0010
,  // measure 44
3002
0010
0010
1000
1000
0010
1000
0010
,  // measure 45
2003
0100
0100
0001
0001
0100
0001
3100
,  // measure 46
0000
1000
0010
0100
0001
0010
0010
0010
,  // measure 47
0000
0001
0010
0100
1000
0010
0010
0010
,  // measure 48
2000
0000
0000
0000
3001
0000
0001
1000
,  // measure 49
0020
0000
0000
0000
,  // measure 50
0030
0000
0000
0000
;

//---------------dance-single - ----------------
#NOTEDATA:;
#CHARTNAME:;
#STEPSTYPE:dance-single;
#DESCRIPTION:;
#CHARTSTYLE:;
#DIFFICULTY:Medium;
#METER:7;
#RADARVALUES:0.274902,0.286959,0.114783,0.162047,0.000000,285.000000,268.000000,17.000000,24.000000,0.000000,0.000000,0.000000,0.000000,0.000000,0.274902,0.286959,0.114783,0.162047,0.000000,285.000000,268.000000,17.000000,24.000000,0.000000,0.000000,0.000000,0.000000,0.000000;
#CREDIT:Ben Fears;
#DISPLAYBPM:120.000000;
#NOTES:
0000
0000
0000
0000
,
0000
0000
0000
0000
,
0001
0100
0001
0000
1000
1000
0010
0000
,
1000
0100
1000
0000
0001
0001
0010
0000
,
0001
0010
0100
1000
0001
0010
0100
1000
,
0010
0100
0001
1000
0010
0100
0001
1000
,
0010
1000
0010
0000
1000
1000
0001
0000
,
0001
0010
0001
0000
0001
0001
1000
0000
,
1000
0100
0010
0001
1000
0100
0010
0001
,
1000
0010
0100
0001
1000
0010
0100
0001
,
0000
1000
0010
1000
0000
0001
0100
0001
,
0000
1000
0100
1000
0000
0001
0010
0001
,
0000
1000
0001
0100
0000
0001
1000
0100
,
0000
1000
0001
0010
0000
0001
1000
0010
,
0000
1000
1000
0010
0000
0100
0100
0001
,
0000
1000
1000
0100
0000
0010
0010
0001
,
0000
0001
1000
0200
0000
1300
0001
0200
,
0000
0301
1000
0020
0000
1030
0001
1000
,
0001
0100
0010
1000
0100
1000
0010
0010
,
0200
0001
0010
0301
,
0001
0100
0010
1000
0001
0010
0001
0001
,
2000
0100
0001
3100
,
1000
0010
0100
0010
1000
0001
1000
1000
,
0020
0100
1000
0130
,
0100
0001
1000
0001
1000
0100
0010
0010
,
0002
0100
0010
1003
,
2200
0000
0000
3300
0002
0000
0003
0000
,
2000
3000
0020
0030
,
0200
0300
0002
0003
,
2000
3000
0020
0030
,
0000
1000
1000
0100
0000
0001
0001
0100
,
0000
1000
1000
0010
0000
0001
0001
0010
,
0000
1000
0100
0010
0000
0001
0010
0100
,
0000
1000
0001
2002
0000
0000
3003
0000
,
0101
0000
1000
0000
1010
0000
0101
1100
,
0001
1000
0001
0000
1000
0100
1000
0000
,
1100
0000
0001
0000
0011
0000
1001
0011
,
1000
0100
2000
0000
3001
0100
0002
0000
,
1003
0000
0010
0000
1001
0000
0101
1100
,
0001
1000
0001
0000
1000
0100
1000
0000
,
1001
0000
1000
0000
1010
0000
0110
0101
,
1000
0100
0010
0000
0001
1000
0010
0000
,
1000
0001
0100
0001
1000
1000
1000
1000
,
0000
0001
1000
0100
1000
0001
0001
0001
,
0000
0001
0010
0001
1000
1000
0001
0001
,
0000
1000
0010
1000
0001
0001
1000
1000
,
0020
0000
0130
0000
0200
0000
0301
1000
,
0000
0000
0100
0000
1000
0001
1000
0000
,
0002
0000
0000
0000
0103
0000
0001
1000
,
0020
0000
0000
0000
,
0030
0000
0000
0000
;

//---------------dance-single - ----------------
#NOTEDATA:;
#CHARTNAME:;
#STEPSTYPE:dance-single;
#DESCRIPTION:;
#CHARTSTYLE:;
#DIFFICULTY:Easy;
#METER:4;
#RADARVALUES:0.143720,0.151919,0.013504,0.162047,0.000000,149.000000,147.000000,2.000000,24.000000,0.000000,0.000000,0.000000,0.000000,0.000000,0.143720,0.151919,0.013504,0.162047,0.000000,149.000000,147.000000,2.000000,24.000000,0.000000,0.000000,0.000000,0.000000,0.000000;
#CREDIT:Ben Fears;
#DISPLAYBPM:120.000000;
#NOTES:
0000
0000
0000
0000
,
0000
0000
0000
0000
,
1000
0001
0100
0100
,
0001
1000
0100
0100
,
2000
3000
0002
0003
,
0200
0300
0020
0030
,
1000
0010
1000
1000
,
0001
0010
0001
0001
,
2000
3000
0200
0300
,
2002
0000
0000
3003
,
0001
1000
0010
0100
,
0001
0010
0100
0100
,
1000
0010
0100
0001
,
1000
0001
0100
0100
,
0010
1000
0001
0010
,
0100
1000
0001
0001
,
1000
0010
0100
0001
,
2000
0000
3002
0000
,
0103
0000
0000
0000
0010
0000
1000
1000
,
1000
0001
1000
0001
,
0100
0000
0000
0000
0001
0000
0100
0100
,
0100
0010
1000
0001
,
1000
0000
0000
0000
1000
0000
0001
0001
,
0001
0100
0001
1000
,
0010
0000
0000
0000
1000
0000
0010
0010
,
0020
0030
0200
0300
,
0002
0000
0003
0000
,
2000
0000
3000
0000
,
0200
0000
0000
0300
,
0020
0000
0000
0030
,
0001
0001
0001
0000
,
1000
1000
1000
0000
,
0010
0010
0010
0000
,
1000
0001
0000
0000
,
1001
0000
0000
0000
1000
0000
0010
0010
,
0000
1000
0001
0100
,
0010
0000
0000
0000
1000
0000
0001
0001
,
0000
1000
0100
0010
,
0001
0000
0000
0000
1000
0000
0010
0010
,
0000
1000
0001
0100
,
0010
0000
0000
0000
1000
0000
0001
0001
,
2000
3000
0002
0003
,
1000
0000
0010
0000
0100
0100
0000
0000
,
0001
0000
1000
0000
0100
0100
0000
0000
,
1000
0000
0001
0000
0010
0010
0000
0000
,
0001
0000
1000
0000
0010
0010
0000
0000
,
2000
3000
0002
0003
,
0200
0000
0300
0000
,
0002
0003
2000
3000
,
0020
0000
0000
0000
,
0030
0000
0000
0000
;

//---------------dance-single - ----------------
#NOTEDATA:;
#CHARTNAME:;
#STEPSTYPE:dance-single;
#DESCRIPTION:;
#CHARTSTYLE:;
#DIFFICULTY:Beginner;
#METER:1;
#RADARVALUES:0.068484,0.099254,0.033760,0.000000,0.000000,71.000000,66.000000,5.000000,0.000000,0.000000,0.000000,0.000000,0.000000,0.000000,0.068484,0.099254,0.033760,0.000000,0.000000,71.000000,66.000000,5.000000,0.000000,0.000000,0.000000,0.000000,0.000000,0.000000;
#CREDIT:Ben Fears;
#DISPLAYBPM:120.000000;
#NOTES:
0000
0000
0000
0000
,
0000
0000
0000
0000
,
0001
0000
0000
0000
,
1000
0000
0000
0000
,
0010
0000
0000
0000
,
0010
0000
0000
0000
,
1000
0000
1000
0000
,
1000
0000
0000
0000
,
0001
0000
0001
0000
,
0001
0000
0000
0000
,
0100
0000
0100
0000
,
0010
0000
0000
0000
,
0010
0000
0010
0000
,
1000
0000
0000
0000
,
0001
0000
0001
0000
,
1000
0000
0000
0000
,
1000
0000
1000
0000
,
0010
0000
0000
0000
,
1001
0000
1000
1000
,
0000
0000
0000
0000
,
0010
0000
0010
0010
,
0000
0000
0000
0000
,
0100
0000
0100
0100
,
0000
0000
0000
0000
,
0001
0000
0001
0001
,
0000
0000
0000
0000
,
1000
0000
0000
0000
,
0001
0000
0000
0000
,
0100
0000
0000
0000
,
0010
0000
0000
0000
,
1000
0000
1000
0000
,
1000
0000
0000
0000
,
0001
0000
0001
0000
,
0001
0000
0000
0000
,
1001
0000
0000
0010
,
0010
0000
0000
0000
,
1001
0000
0000
0100
,
0100
0000
0000
0000
,
1001
0000
0000
0010
,
0010
0000
0000
0000
,
1001
0000
0000
0100
,
0100
0000
0000
0000
,
0001
0000
0001
0000
,
0001
0000
0000
0000
,
1000
0000
1000
0000
,
1000
0000
0000
0000
,
0010
0000
0000
0000
,
0010
0000
0000
0000
,
1000
0000
0000
0000
,
0001
0000
0000
0000
;
