#TITLE:愛して愛して愛して;
#SUBTITLE:;
#ARTIST:Kikuo;
#TITLETRANSLIT:Aishite Aishite Aishite;
#SUBTITLETRANSLIT:;
#ARTISTTRANSLIT:;
#GENRE:;
#CREDIT:;
#MUSIC:Aishite Aishite Aishite [Pruz].ogg;
#BANNER:Aishite Aishite Aishite [Pruz].png;
#BACKGROUND:Aishite Aishite Aishite [Pruz]-bg.png;
#CDTITLE:;
#SAMPLESTART:62.254;
#SAMPLELENGTH:24.983;
#SELECTABLE:YES;
#OFFSET:0.300;
#BPMS:0.000=114.879
,39.000=120.000
,40.500=114.879
;
#STOPS:;
#BGCHANGES:;
#FGCHANGES:;

//--------------- dance-single - Pruz ----------------
#NOTES:
     dance-single:
     Pruz:
     Beginner:
     2:
     0,0,0,0,0:
0000
0000
0000
0000
,
0000
0000
0000
0000
,
0000
0000
0000
0000
,
0002
0000
0000
0000
,
0000
0003
0000
0000
0000
0000
2000
0000
0000
0000
0000
0000
,
0000
0000
0000
0000
0000
0000
0000
3000
0000
0000
0000
0000
,
0020
0000
0000
0000
,
0000
0030
0000
0000
0000
0000
0200
0000
0000
0000
0000
0000
,
0000
0000
0000
0000
0000
0000
0000
0300
0000
0000
0000
0000
,
0002
0000
0000
2000
,
0000
3003
0000
0000
2000
0000
0000
0000
,
0000
0000
0000
0000
,
0000
0000
0000
3000
,
0000
0000
0000
0000
0001
0000
0000
0200
,
0000
0000
0301
0000
0000
2000
0000
0000
,
3100
0000
0000
0100
0000
0000
0100
0000
,
0000
2000
0000
0000
3002
0000
0000
0000
,
0000
0000
0000
0000
,
2000
0000
0000
3003
,
0000
0000
0000
0000
1000
0000
0000
0200
,
0000
0000
1300
0000
0000
0002
0000
0000
,
0103
0000
0000
0100
0000
0000
0100
0000
,
0000
0001
0000
0000
2000
0000
0000
3000
,
0000
0200
0000
0300
,
0010
0000
0000
0010
0000
0000
0002
0000
,
0000
0003
0000
0000
2000
0000
0000
3000
,
0000
0000
0020
0000
0000
0030
0000
0000
,
0100
0000
0000
0100
0000
0000
0001
0000
,
0000
0001
0000
0000
1000
0000
0000
1000
,
0000
0000
0020
0000
0000
0130
0000
0000
,
0001
0000
0000
0001
0000
0000
1000
0000
,
0000
1000
0000
0000
0100
0000
0000
0100
,
0000
0000
2000
0000
0000
3000
0000
0000
,
0001
0000
0000
0001
0000
0000
0100
0000
,
0000
0200
0000
0000
0301
0000
0000
0001
,
0000
0000
2000
0000
0000
3000
0000
0000
,
0200
0000
0000
0300
0000
0000
0020
0000
,
0000
0030
0000
0000
0200
0000
0000
0300
,
0000
0000
1000
0000
0000
1000
0000
0000
,
0002
0000
0000
0003
0000
0000
0200
0000
,
0000
0300
0000
0000
0010
0000
0010
0000
,
0010
0010
0010
0010
,
2000
0000
0000
0000
,
0000
0000
0000
0000
,
0000
0000
0000
0000
0000
0000
0000
0000
0000
0000
3000
0000
,
0002
0000
0000
0000
,
0000
0000
0000
0000
,
0000
0000
0000
0000
0000
0003
0000
0000
,
1000
0000
0000
0001
0000
0000
1000
0000
,
0000
0100
0000
0000
1000
0000
0000
0001
,
0000
0000
1000
0000
0000
0001
0000
0000
,
1000
0000
0000
0010
0000
0000
1000
0000
,
0000
0001
0000
0000
0200
0000
0000
0000
,
0000
0000
0000
0000
,
0320
0000
0000
0000
,
0000
0000
0000
0000
,
0000
0000
0000
0000
,
2030
0000
0000
0000
,
0000
0000
3002
0000
,
0000
0000
0000
0000
,
0003
0000
0000
0000
;

//--------------- dance-single - Pruz ----------------
#NOTES:
     dance-single:
     Pruz:
     Easy:
     3:
     0,0,0,0,0:
0000
0000
0000
0000
,
0000
0000
0000
0000
,
0000
0000
0000
0000
,
1001
0000
0000
1000
0000
0000
1000
0000
,
0000
2000
0000
0000
3001
0000
0000
0001
,
0000
0000
0001
0000
0000
0002
0000
0000
,
0013
0000
0000
0010
0000
0000
0010
0000
,
0000
0020
0000
0000
0130
0000
0000
0100
,
0000
0000
0100
0000
0000
0200
0000
0000
,
2300
0000
0000
0002
,
0000
3003
0000
0000
1000
0000
0000
1000
,
0000
0000
1000
0000
0000
1000
0000
0000
,
1000
0000
0000
1000
0000
0000
2000
0000
,
0000
3000
0000
0000
0001
0000
0000
0020
,
0000
0000
0031
0000
0000
2000
0000
0000
,
3001
0000
0000
0100
0000
0000
0001
0000
,
0000
1000
0000
0000
0100
0000
0000
0100
,
0000
0000
0100
0000
0000
0100
0000
0000
,
0100
0000
0000
0100
0000
0000
0020
0000
,
0030
0200
0000
0300
1000
0000
0000
0020
,
0000
0000
1030
0000
0000
0002
0000
0000
,
1003
0000
0000
0100
0000
0000
1000
0000
,
0000
0001
0000
0000
2000
0000
0000
3020
,
0000
0000
0230
0000
0000
0300
0000
0000
,
0001
0000
0000
0100
0000
0000
0001
0000
,
0000
0010
0000
0000
0200
0000
0000
2300
,
0000
0000
3020
0000
0000
0030
0000
0000
,
0100
0000
0000
0010
0000
0000
1000
0000
,
0000
0001
0000
0000
0010
0000
0000
0100
,
0000
0000
1000
0000
0000
0001
0000
0000
,
2002
0000
0000
3003
0000
0000
0220
0000
,
0000
0330
0000
0000
2002
0000
0000
3003
,
0000
0000
2000
0000
0000
3001
0000
0000
,
2002
0000
0000
3003
0000
0000
0220
0000
,
0000
0330
0000
0000
2002
0000
0000
3003
,
0000
0000
0002
0000
0000
1003
0000
0000
,
2020
0000
0000
3030
0000
0000
0220
0000
,
0000
0330
0000
0000
0202
0000
0000
0303
,
0000
0000
0200
0000
0000
0310
0000
0000
,
0120
0000
0000
0030
0000
0000
1002
0000
,
0000
0003
0000
0000
1000
0000
0100
0000
,
0010
0001
1000
0001
,
0020
0000
0000
0230
,
0000
0000
2300
0000
,
0000
3002
0000
0000
,
0023
0000
0000
0230
,
0000
0000
2300
0000
,
0000
3002
0000
0000
,
0203
0000
0000
0301
0000
0000
2000
0000
,
0000
3100
0000
0000
0020
0000
0000
0130
,
0000
0000
2000
0000
0000
3001
0000
0000
,
0100
0000
0000
0010
0000
0000
0100
0000
,
0000
0001
0000
0000
1000
0000
1000
0000
,
0100
0100
0010
0010
,
0002
0000
0000
1000
0000
0000
0000
0000
,
0000
0100
0000
0000
1003
0000
0000
0100
,
0000
0000
0010
0000
0000
0001
0000
0000
,
1000
0000
0000
0020
0000
0000
1030
0000
,
0000
0002
0000
0000
0013
0000
0000
0100
,
0000
0000
1000
0000
0000
0001
0000
0000
,
1000
0000
0000
0000
;

//--------------- dance-single - Pruz ----------------
#NOTES:
     dance-single:
     Pruz:
     Medium:
     8:
     0,0,0,0,0:
0000
0000
0000
0000
,
0000
0000
0000
0000
,
0000
0000
0000
0000
,
1001
1000
0100
0010
0100
1000
0001
0100
,
0001
2000
0000
3000
0100
1000
0001
0010
,
0001
0100
0010
1000
0001
2000
0000
3000
,
0100
1000
0010
0100
0001
0010
1000
0010
,
0001
2000
0000
3000
0010
0100
0001
0100
,
0010
1000
0001
0100
1000
0200
0000
0300
,
0002
0000
0000
2000
,
0000
3003
0000
0000
1000
0000
0000
0010
,
0000
0000
0100
0000
0000
0001
0000
0000
,
1000
0000
0000
0100
0000
0000
0020
0000
,
0000
0030
0000
0000
0001
1000
0001
0200
,
0000
0300
0001
1000
0001
0020
0000
0031
,
0001
0000
0000
0100
0000
0000
0010
0000
,
0000
1000
0000
0000
0200
0000
0300
0200
,
0000
0300
0200
0000
0300
0200
0000
0300
,
0020
0000
0030
0020
0000
0030
0001
0000
,
0000
2000
0000
3000
0010
0100
0001
0200
,
0300
0000
0010
1000
0100
0020
0030
0000
,
0100
1000
0001
0100
0001
1000
0010
1000
,
0001
1000
0000
0000
0100
1000
0001
0100
,
0001
0010
2000
0000
0000
3010
0000
0100
,
0010
0000
0100
1000
0000
0001
0100
0010
,
1000
0002
0000
0000
0013
0100
1000
0100
,
0010
0001
2000
0000
0000
3010
0000
0100
,
0001
0000
1000
0100
0000
0001
0100
0000
,
0010
0001
0000
0100
0001
1000
0100
1000
,
0001
0000
0000
0100
0000
0000
0020
0000
0000
0000
0000
0000
0000
0000
0000
1030
0000
0001
0000
0000
0000
0010
0000
0000
,
0100
0010
0001
2000
0000
3000
0010
0100
,
0001
2000
0000
3000
0100
0010
0001
2000
,
0000
3100
1000
0001
0100
0001
0010
0100
,
1000
0100
0010
0002
0000
0103
0001
1000
,
0100
0020
0000
0130
1000
0001
0010
0100
,
0000
0010
0002
0000
1003
0020
0000
0030
,
0100
0001
0100
0020
0000
0030
1000
0100
,
0010
0200
0000
0300
1000
0001
0010
0002
,
0000
0103
0010
1000
0001
0010
0100
1000
,
0002
0000
0000
0010
0000
0000
0100
0000
,
0000
1000
0000
0000
0103
0010
1000
0010
,
0100
0001
1000
0001
0010
0100
1000
0001
,
0020
0000
0000
0100
0000
0000
0001
0000
,
0000
1000
0000
0000
0100
0000
0000
0001
,
0000
0000
1000
0000
0000
0100
0000
0030
,
0010
0001
0100
0010
0000
0000
1000
0001
,
0010
0100
0000
0000
0010
0001
1000
0010
,
0000
0000
0100
0001
1000
0100
0000
0000
,
2000
0000
0000
3010
0000
0000
0200
0000
,
0000
0301
0000
0000
0020
0000
0000
0130
,
0000
0000
2000
0000
0000
3001
0000
0000
,
2000
0000
0000
3200
0000
0000
0320
0000
,
0000
0032
0000
0000
1003
1000
0010
0010
,
1000
1000
0001
0001
0010
0010
0001
0001
,
2000
0000
0000
0100
0000
0000
0010
0000
,
0000
0100
0000
0000
3001
0000
0000
0100
,
0000
0000
0010
0000
0000
1000
0000
0000
,
0001
0000
0000
0020
0000
0000
0130
0000
,
0000
2000
0000
0000
3001
0000
0000
0100
,
0000
0000
0010
0000
0000
1000
0000
0000
,
0001
0000
0000
0000
;

//--------------- dance-single - Pruz ----------------
#NOTES:
     dance-single:
     Pruz:
     Hard:
     10:
     0,0,0,0,0:
0000
0000
0000
0000
,
0000
0000
0000
0000
,
0000
0000
0000
0000
,
1000
0001
0100
0001
1000
0100
1000
0010
,
0200
0000
0010
0310
1000
0001
0010
0001
,
1000
0100
1000
0010
0100
0001
0010
0100
,
1000
0001
0100
0001
1000
0100
1000
0010
,
0200
0000
0010
0310
0001
0010
0100
1000
,
0100
0010
0001
1000
0010
0200
0000
0301
,
2000
0000
0000
0002
,
0000
3003
0000
0000
0001
0100
0010
0001
,
0010
0100
0001
0010
0100
0001
0100
0010
,
0001
0100
1000
0001
0010
1000
0002
0100
,
0000
0000
1003
0010
0000
0000
0100
0000
0000
0001
0000
1000
0100
0000
0000
1000
0000
0000
0001
0000
0000
0020
0000
0000
,
0000
0000
0000
0030
0000
0100
0001
0000
0000
0100
0000
0000
0010
0000
0001
2000
0000
0000
3020
0000
0000
0230
0000
0000
,
0301
0010
0100
1000
0100
0010
0001
1000
,
0001
0020
0032
2003
3010
0100
1000
0100
,
0010
1000
0100
0010
1000
0010
0100
1000
,
0001
0100
1000
0001
0010
1000
0002
0000
,
0003
0000
0000
2000
0000
0000
0000
0000
0000
3000
0000
0100
0010
0000
0000
0001
0000
0000
0100
0000
0000
0020
0000
0000
,
0030
0000
0000
1000
0000
0001
0010
0000
0000
0100
0000
0000
1000
0000
0001
2000
0000
0000
3200
0000
0000
0320
0000
0000
,
0031
1000
0100
1000
0001
0100
0001
1000
,
0010
0100
0000
0001
1001
1000
0010
0100
,
0010
1000
0020
1000
1030
0200
0010
0310
,
0100
1000
0001
0100
0001
1000
0010
0010
,
1000
0001
0001
0010
0100
0001
0100
0010
,
0010
0001
0200
0010
0310
2000
0100
3100
,
0110
0000
0000
0000
0000
0000
0100
0000
0100
1000
0000
0000
0001
0000
0000
1000
0000
0000
0100
0000
0000
0100
0000
0000
,
0010
0000
0001
1000
0000
0000
1000
0000
0000
0010
0000
1000
0100
0000
0000
0001
0000
0000
0100
0000
0000
0010
0000
0000
,
0010
0000
0001
0100
0000
0000
0020
0000
0000
0000
0000
0000
1000
0000
0000
0100
0000
0031
0000
0000
0000
1000
0000
0100
,
0010
0000
0000
1000
0000
0000
0100
0000
0000
0020
0000
0000
0030
0000
0000
0000
0000
0001
1000
0000
0000
0010
0000
0000
,
0100
0000
0000
0002
0000
0000
0003
0000
0000
0000
0000
1000
0001
0000
0000
0010
0000
0000
0100
0000
0000
2000
0000
0000
,
3000
0000
0000
0001
0000
0000
0000
0000
0000
0000
0000
0000
0010
0000
0000
0000
0000
0000
0100
0000
0000
0000
0000
0000
1000
0000
0000
0000
0000
0000
0100
0000
0000
0000
0000
0000
0010
0000
0000
0000
0000
0000
0001
0000
0000
0000
0100
0000
,
1000
0000
0000
0100
0000
0000
0010
0000
0000
2000
0000
0000
3000
0000
0000
0000
0000
0100
0010
0000
0000
0001
0000
0000
,
0100
0000
0000
0020
0000
0000
0030
0000
0000
0000
0000
1000
0001
0000
0000
0010
0000
0000
0100
0000
0000
1000
0000
0000
,
0000
0000
0001
0100
0000
0000
0010
0000
0000
1000
0000
0000
0001
0000
0000
1000
0000
0000
0100
0000
0000
1000
0000
0000
,
0001
0100
1000
0200
0000
0310
1000
0100
,
0001
0200
0000
0310
0001
0100
1000
0200
,
0000
0310
1000
0100
0001
0100
0010
0001
,
2000
0001
0001
0010
0010
0010
0001
0001
,
0001
0100
0010
0100
3001
0010
0100
1000
,
0100
0010
0001
1000
0010
0100
0001
0100
,
2000
0000
0000
0000
0000
0000
0000
0000
0000
3100
0000
0000
0000
0000
0010
1000
0000
0000
0002
0000
0000
0000
0000
0000
,
0000
0000
0000
0013
0000
0000
0000
0000
1000
0010
0000
0000
0002
0000
0000
0000
0000
0000
0000
0000
0000
0103
0000
0000
,
0100
0000
0000
1000
0000
0000
0200
0000
0000
0000
0000
0000
0000
0000
0000
0310
0000
0000
0000
0000
1000
0001
0000
0000
,
0020
0000
0000
0000
0000
0000
0000
0000
0000
0031
0000
0000
0000
0000
1000
0100
0000
0000
0002
0000
0000
0000
0000
0000
,
0000
0000
0000
0103
0000
0000
0000
0000
0010
0001
0000
0000
2000
0000
0000
0000
0000
0000
0000
0000
0000
3010
0000
0000
,
0010
0000
0000
0100
0000
0000
0002
0000
0000
0000
0000
0000
0000
0000
0000
1003
0000
0000
0000
0000
0100
0010
0000
0000
,
0002
0000
0000
0013
0100
0001
0200
0000
,
0000
0310
0100
1000
0020
0000
0000
0130
,
0001
0100
2000
0000
0000
3100
0010
1000
,
0002
0000
0000
0013
0100
0001
0100
1000
,
0010
0001
0010
1000
0200
0000
0302
0000
,
2003
3020
0032
0023
,
0230
0000
0000
0000
0000
0000
0300
0000
1000
0001
0000
0000
1000
0000
0000
0010
0000
0000
0100
0000
0000
0000
0000
0000
,
0001
0000
0000
0100
0000
0000
0000
0000
0000
0001
0000
0000
1000
0000
0000
0000
0000
0000
0000
0000
0100
0010
0000
0000
,
0001
0010
1000
0000
0010
0100
1000
0001
,
0200
0000
0000
0000
0000
0000
0000
0000
0000
1300
0000
0000
0000
0000
0100
0000
0000
0000
0010
0000
0000
0000
0000
0000
,
1000
0000
0000
0001
0000
0000
0000
0000
0010
0000
0000
0000
0100
0000
0000
0000
0000
0000
0000
0000
1000
0001
0000
0000
,
0000
0000
0000
0000
0100
0001
0000
0000
0000
0000
0000
0000
1000
0000
1000
0001
0000
0000
0000
0000
0000
0000
0010
0000
,
0100
0000
0000
0000
;
