#VERSION:0.83;
#TITLE:Addams Groove;
#SUBTITLE:;
#ARTIST:MC Hammer;
#TITLETRANSLIT:;
#SUBTITLETRANSLIT:;
#ARTISTTRANSLIT:;
#GENRE:;
#ORIGIN:;
#CREDIT:Ben Speirs;
#BANNER:Addams Groove [Ben Fears].png;
#BACKGROUND:Addams Groove [Ben Fears]-bg.png;
#PREVIEWVID:;
#JACKET:Addams Groove [Ben Fears]-jacket.png;
#CDIMAGE:;
#DISCIMAGE:;
#LYRICSPATH:;
#CDTITLE:;
#MUSIC:Addams Groove [Ben Fears].ogg;
#OFFSET:0.003000;
#SAMPLESTART:35.776077;
#SAMPLELENGTH:10.894000;
#SELECTABLE:YES;
#DISPLAYBPM:120.000000;
#BPMS:0.000=119.990;
#STOPS:;
#DELAYS:;
#WARPS:;
#TIMESIGNATURES:0.000=4=4;
#TICKCOUNTS:0.000=4;
#COMBOS:0.000=1;
#SPEEDS:0.000=1.000=0.000=0;
#SCROLLS:0.000=1.000;
#FAKES:;
#LABELS:0.000=Song Start;
#BGCHANGES:0.250=Addams Groove [Ben Fears].avi=1.000=0=0=1=====,
99999=-nosongbg-=1.000=0=0=0 // don't automatically add -songbackground-
;
#KEYSOUNDS:;
#ATTACKS:
;

//---------------dance-single - ----------------
#NOTEDATA:;
#CHARTNAME:;
#STEPSTYPE:dance-single;
#DESCRIPTION:;
#CHARTSTYLE:;
#DIFFICULTY:Hard;
#METER:11;
#RADARVALUES:0.448439,0.424786,0.179804,0.134853,0.561886,419.000000,395.000000,24.000000,18.000000,0.000000,0.000000,0.000000,0.000000,0.000000,0.448439,0.424786,0.179804,0.134853,0.561886,419.000000,395.000000,24.000000,18.000000,0.000000,0.000000,0.000000,0.000000,0.000000;
#CREDIT:Ben Fears;
#DISPLAYBPM:120.000000;
#NOTES:
// measure 0
0000
0000
0000
0000
,  // measure 1
0000
0000
0000
0000
,  // measure 2
0001
0000
0001
0100
0000
0100
0010
0000
0010
1000
0000
1000
,  // measure 3
0100
0000
0100
0010
0000
0010
0001
0000
0001
1000
0000
1000
,  // measure 4
0010
0000
0010
0100
0000
0100
0001
0000
0001
1000
0000
0001
,  // measure 5
0100
0000
0001
0100
0000
0001
0100
0000
0000
1001
0000
0000
,  // measure 6
1000
0000
1000
0010
0000
0010
0100
0000
0100
0001
0000
0001
,  // measure 7
0010
0000
0010
0100
0000
0100
1000
0000
1000
0001
0000
0001
,  // measure 8
0100
0000
0100
0010
0000
0010
1000
0000
1000
0001
0000
1000
,  // measure 9
0010
0000
1000
0010
0000
1000
0010
0000
0000
0100
0000
0000
,  // measure 10
1001
0000
0000
0001
0000
1000
0100
0000
0000
0010
0000
0000
,  // measure 11
0001
0000
0100
0010
0000
0100
0010
0000
0000
1000
0000
0000
,  // measure 12
0001
0000
0100
0001
0000
0000
1000
0000
0100
1000
0000
0000
,  // measure 13
0001
0000
0010
0100
0000
1000
0001
0000
0000
1000
0000
0000
,  // measure 14
0001
0000
0000
0100
0000
0000
0010
1000
0010
1000
0000
0000
,  // measure 15
0001
0000
0000
1000
0001
1000
0001
0000
0000
1000
0000
0000
,  // measure 16
0001
0100
0001
0100
0010
1000
0010
1000
,  // measure 17
0100
0000
0000
0010
0000
0001
2000
0000
0000
3001
0000
0000
,  // measure 18
1000
0000
1000
0100
0000
0100
0010
0000
0010
0001
0000
0001
,  // measure 19
1000
0000
1000
0010
0000
0010
0100
0000
0100
0001
0000
0001
,  // measure 20
1000
0000
1000
0100
0000
0100
0010
0000
0010
0001
0000
1000
,  // measure 21
0010
0000
1000
0010
0000
1000
0010
0000
0000
1001
0000
0000
,  // measure 22
0001
0000
0001
0010
0000
0010
0100
0000
0100
1000
0000
1000
,  // measure 23
0001
0000
0001
0100
0000
0100
0010
0000
0010
1000
0000
1000
,  // measure 24
0001
0000
0001
0010
0000
0010
0100
0000
0100
1000
0000
0001
,  // measure 25
0100
0000
0001
0100
0000
0001
0100
0000
0000
0010
0000
0000
,  // measure 26
1000
0100
1000
0100
0000
0000
1000
0001
1000
0001
0000
0000
,  // measure 27
0002
2003
3020
0130
,  // measure 28
0001
0100
0001
0100
0000
0000
0010
1000
0010
1000
0000
0000
,  // measure 29
0001
0000
1000
0001
0000
1000
0200
0000
0000
0310
0000
0000
,  // measure 30
0011
1100
0101
1000
,  // measure 31
1010
0101
1001
1000
,  // measure 32
0001
0100
0001
0100
0000
0000
0010
1000
0010
1000
0000
0000
,  // measure 33
0002
2003
3200
0310
,  // measure 34
0110
0000
0010
0001
0000
0001
1000
0000
0100
1000
0000
0100
,  // measure 35
1000
0000
1000
0010
0000
0010
0100
0000
0001
0100
0000
0001
,  // measure 36
0100
0000
0100
0010
0000
0010
1000
0000
0001
1000
0000
0001
,  // measure 37
0010
0000
0010
0100
0000
0100
1000
0000
0000
0101
0000
0000
,  // measure 38
1100
0000
0100
1000
0000
1000
0001
0000
0010
0001
0000
0010
,  // measure 39
0001
0000
0001
0100
0000
0100
0010
0000
1000
0010
0000
1000
,  // measure 40
0010
0000
0010
0100
0000
0100
0001
0000
1000
0001
0000
1000
,  // measure 41
0100
0000
0100
0010
0000
0010
0001
0000
0000
1000
0000
0000
,  // measure 42
1020
0000
0000
0130
0000
0000
0010
0000
0000
1000
0010
0100
,  // measure 43
0002
0000
0000
0103
0000
0000
0001
0000
0000
1000
0100
0010
,  // measure 44
0200
0000
0000
0310
0000
0000
0001
0000
0000
0010
0001
1000
,  // measure 45
0010
0000
0010
0100
0000
0100
0002
0000
0000
1003
0000
0000
,  // measure 46
1100
0000
1000
0002
0000
0000
0103
0000
0000
0000
0000
0000
,  // measure 47
0101
0000
0100
0020
0000
0000
1030
0000
0000
0000
0000
0000
,  // measure 48
1010
0000
1000
0200
0000
0000
0310
0000
0000
0000
0000
0010
,  // measure 49
0001
0000
1000
0001
0000
0100
0001
0000
0000
0000
0000
0000
,  // measure 50
1001
0110
1001
0110
,  // measure 51
2100
0001
0010
3001
,  // measure 52
0100
0001
0100
0002
0000
0000
0100
0000
0000
0103
0000
0000
,  // measure 53
1000
0100
1000
0200
0000
0000
1000
0000
0000
1300
0000
0000
,  // measure 54
1000
0001
1001
1001
,  // measure 55
1000
0000
1000
0001
0000
0000
0100
0000
0000
0100
0000
0000
,  // measure 56
0001
0000
0001
1000
0000
0000
0100
0000
0000
0100
0000
0000
,  // measure 57
1000
0000
1000
0010
0000
0000
1000
0000
0000
1000
0000
0010
,  // measure 58
0100
0000
0010
0100
0000
0001
1000
0000
0000
0001
0100
0001
,  // measure 59
1000
0000
1000
0010
0000
0010
0100
0000
0000
0010
1000
0010
,  // measure 60
0100
0000
0100
0001
0000
0001
1000
0000
0000
0001
0100
0001
,  // measure 61
1000
0000
1000
0100
0000
0100
0010
0000
0000
0001
0010
0001
,  // measure 62
0100
0000
0010
0100
0000
0001
1000
0000
0000
0010
0000
0000
,  // measure 63
1001
0000
0000
0000
;

//---------------dance-single - ----------------
#NOTEDATA:;
#CHARTNAME:;
#STEPSTYPE:dance-single;
#DESCRIPTION:;
#CHARTSTYLE:;
#DIFFICULTY:Challenge;
#METER:13;
#RADARVALUES:0.642156,0.613580,0.269705,0.172312,1.191199,600.000000,564.000000,36.000000,23.000000,0.000000,0.000000,0.000000,0.000000,0.000000,0.642156,0.613580,0.269705,0.172312,1.191199,600.000000,564.000000,36.000000,23.000000,0.000000,0.000000,0.000000,0.000000,0.000000;
#CREDIT:Ben Fears;
#DISPLAYBPM:120.000000;
#NOTES:
// measure 0
0000
0000
0000
0000
,  // measure 1
0000
0000
0000
0000
,  // measure 2
1000
0100
1000
0010
0100
0001
0001
0100
0010
0100
0001
1000
,  // measure 3
1000
0001
0010
0100
1000
0010
0010
0100
0010
1000
0001
0100
,  // measure 4
0100
0001
0010
0100
1000
0010
1000
1000
0001
0010
0010
0001
,  // measure 5
0101
0000
1000
1100
0000
0001
2002
0000
3003
1000
0010
0100
,  // measure 6
0001
0010
0001
0100
0010
1000
1000
0010
0100
0010
1000
0001
,  // measure 7
0001
1000
0100
0010
0001
0100
0100
0010
0100
0001
1000
0010
,  // measure 8
0010
1000
0100
0010
0001
0100
0001
0001
1000
0100
0100
1000
,  // measure 9
1010
0000
0001
0011
0000
1000
1001
0001
0200
0000
0310
0000
,  // measure 10
1001
0000
0001
0100
0000
0000
0001
1000
0001
0100
0000
0001
,  // measure 11
0010
0100
1000
0010
0000
0100
0001
0000
0000
1000
0001
1000
,  // measure 12
0010
0000
0010
0100
0000
0100
0001
0010
0100
1000
0000
0001
,  // measure 13
0100
0000
0001
1000
0001
1000
0010
0010
0100
0010
1000
0001
,  // measure 14
0200
0000
0000
0320
0000
0000
1030
0001
1000
0001
0000
1000
,  // measure 15
0100
0000
1000
0100
0010
0001
0100
0000
0000
0001
0000
1000
,  // measure 16
0001
0100
0010
1000
0100
0010
0001
1000
,  // measure 17
0010
0000
0010
0100
0000
0100
0002
0000
0000
1003
1000
0001
,  // measure 18
0100
0100
0010
1000
0001
1000
0010
0010
0100
0001
0010
0100
,  // measure 19
1000
1000
0100
1000
0010
0100
0001
0001
0100
0010
0100
0001
,  // measure 20
1000
1000
0010
0100
0001
1000
0100
0100
0010
0001
0001
1000
,  // measure 21
1010
0000
0001
0101
0000
1000
0010
0100
0001
1000
1000
0000
,  // measure 22
0001
0001
0100
0010
1000
0010
0100
0100
0010
1000
0100
0010
,  // measure 23
0001
0001
0010
0001
0100
0010
1000
1000
0010
0100
0010
1000
,  // measure 24
0001
0001
0100
0010
1000
0001
0010
0010
0100
1000
1000
0001
,  // measure 25
0101
0000
1000
1010
0000
0001
2002
0000
3003
1000
0001
0000
,  // measure 26
1000
0100
1000
0100
0000
1000
0001
0100
0001
0100
0000
0001
,  // measure 27
1000
0000
0010
0100
0000
0001
1000
0001
0000
0101
0000
1000
,  // measure 28
0100
1000
0001
0100
0000
0000
0001
1000
0001
0100
0010
1000
,  // measure 29
0100
0010
0001
0010
0100
1000
0010
0100
0000
0001
0100
0010
,  // measure 30
1000
0000
1000
0001
0100
0010
2000
0000
0000
3001
0000
1000
,  // measure 31
0100
0010
0001
0010
0100
1000
0002
0000
0000
0103
0000
0001
,  // measure 32
0100
0001
1000
0001
0000
1000
0200
0000
0310
0002
0000
0000
,  // measure 33
1003
0010
0100
0001
0000
0001
1000
0000
0000
1001
0000
0001
,  // measure 34
1000
1000
0010
1000
0010
1000
0001
0001
0100
0001
0100
0001
,  // measure 35
1000
1000
0100
1000
0100
1000
0001
0001
0010
0001
0010
0001
,  // measure 36
1000
1000
0010
0100
0001
1000
0100
0100
0010
0001
0001
1000
,  // measure 37
1010
0000
0100
0110
0000
0100
0102
0000
0000
1003
0000
0000
,  // measure 38
0001
0001
0100
0001
0100
0001
1000
1000
0010
1000
0010
1000
,  // measure 39
0001
0001
0010
0001
0010
0001
1000
1000
0100
1000
0100
1000
,  // measure 40
0001
0001
0100
0010
1000
0001
0010
0010
0100
1000
1000
0001
,  // measure 41
0101
0000
0010
0110
0000
0010
1010
0000
1001
0000
0101
0000
,  // measure 42
1000
0000
1000
0100
0000
1000
0002
0000
0000
1003
0100
0010
,  // measure 43
0001
0000
0001
1000
0000
0001
0200
0000
0000
0301
0010
0100
,  // measure 44
1000
0000
1000
0001
0000
0001
0200
0000
0000
0310
0100
0001
,  // measure 45
1000
0000
0001
1000
0000
0010
0100
0000
0000
1001
0000
0000
,  // measure 46
0001
0000
0001
0010
0000
0001
2000
0000
0000
3001
0010
0100
,  // measure 47
1000
0000
1000
0001
0000
1000
0020
0000
0000
1030
0100
0010
,  // measure 48
0001
0000
0001
1000
0000
1000
0020
0000
0000
0130
0010
1000
,  // measure 49
0001
0000
1000
0001
0000
0100
0010
0000
0000
1001
0000
0000
,  // measure 50
0101
1010
1100
0011
,  // measure 51
2001
0000
0000
0100
0000
0000
0010
0000
0000
3001
0100
0010
,  // measure 52
1000
0100
0010
0002
0000
0000
0100
0000
0000
1003
0010
0100
,  // measure 53
0010
1000
0001
2000
0000
0000
0100
0000
0000
0001
0000
0000
,  // measure 54
0010
3010
1010
0101
,  // measure 55
1001
0000
0001
0100
0000
0010
1000
0000
0001
0100
0000
0000
,  // measure 56
1001
0000
1000
0100
0000
0010
0001
0000
1000
0100
0000
0000
,  // measure 57
1001
0000
0001
0100
0000
0010
1000
0000
0001
0100
0000
0010
,  // measure 58
0100
0000
0010
0100
0000
0001
2000
0000
0000
3001
0010
0100
,  // measure 59
1000
1000
0010
0100
0001
1000
0010
0010
0100
0001
1000
0100
,  // measure 60
0010
0010
0001
1000
0010
0100
0001
0001
0100
0010
1000
0001
,  // measure 61
0010
0010
0100
1000
1000
0010
0100
0100
0001
0001
1000
1000
,  // measure 62
0010
0000
0100
0010
0000
0100
0001
0001
1000
0000
1010
0000
,  // measure 63
0101
0000
0000
0000
;

//---------------dance-single - ----------------
#NOTEDATA:;
#CHARTNAME:;
#STEPSTYPE:dance-single;
#DESCRIPTION:;
#CHARTSTYLE:;
#DIFFICULTY:Medium;
#METER:7;
#RADARVALUES:0.290040,0.377587,0.359607,0.299673,0.101140,271.000000,223.000000,48.000000,40.000000,0.000000,0.000000,0.000000,0.000000,0.000000,0.290040,0.377587,0.359607,0.299673,0.101140,271.000000,223.000000,48.000000,40.000000,0.000000,0.000000,0.000000,0.000000,0.000000;
#CREDIT:Ben Fears;
#DISPLAYBPM:120.000000;
#NOTES:
// measure 0
0000
0000
0000
0000
,  // measure 1
0000
0000
0000
0000
,  // measure 2
1000
0000
0001
0200
0000
0000
0310
0000
0000
1000
0000
0000
,  // measure 3
0001
0000
1000
0200
0000
0000
0310
0000
0000
0001
0000
0000
,  // measure 4
1000
0000
0010
1000
0000
0000
0001
0000
0010
0001
0000
0000
,  // measure 5
0011
0110
2002
3003
,  // measure 6
0001
0000
1000
0010
0000
0000
0100
0000
0000
0001
0000
0000
,  // measure 7
1000
0000
0100
0010
0000
0000
0001
0000
0000
1000
0000
0000
,  // measure 8
0010
0000
0100
0010
0000
0000
1000
0000
0001
1000
0000
0000
,  // measure 9
0101
1100
2002
3003
,  // measure 10
0001
1000
0010
0100
,  // measure 11
0001
0000
0000
1000
0000
0100
1000
0000
0000
0000
0000
0000
,  // measure 12
0001
0001
1000
1000
,  // measure 13
0001
0000
0000
1000
0000
0001
0100
0000
0000
0000
0000
0000
,  // measure 14
0100
0100
0010
0000
,  // measure 15
0010
1000
0001
0000
,  // measure 16
1000
0100
0010
0001
,  // measure 17
0100
0010
1000
0000
,  // measure 18
0001
0000
0000
0100
0000
0001
1000
0000
0000
0000
0000
0000
,  // measure 19
0010
0000
0000
1000
0000
0001
0100
0000
0000
0000
0000
0000
,  // measure 20
0001
0000
0000
1000
0000
0100
1000
0000
0000
0000
0000
0000
,  // measure 21
1100
0110
2002
3003
,  // measure 22
1000
0000
0100
1000
0000
0000
0001
0000
0000
0000
0000
0000
,  // measure 23
0001
0000
0100
0001
0000
0000
1000
0000
0000
0000
0000
0000
,  // measure 24
1000
0000
0010
1000
0000
0000
0001
0000
0000
0000
0000
0000
,  // measure 25
1001
0110
2002
3003
,  // measure 26
1000
0100
0010
0001
,  // measure 27
0100
0100
0020
0030
,  // measure 28
0100
0001
0010
0100
,  // measure 29
1000
1000
0002
0003
,  // measure 30
1000
0100
1100
0000
,  // measure 31
0001
0100
0101
0000
,  // measure 32
1000
1000
0001
0001
,  // measure 33
1000
0010
0100
0000
,  // measure 34
0110
0000
0000
0100
0000
0001
0100
0000
0000
0000
0000
0000
,  // measure 35
0001
0000
0000
1000
0000
0100
1000
0000
0000
0000
0000
0000
,  // measure 36
0001
0000
0000
1000
0000
0010
1000
0000
0000
0000
0000
0000
,  // measure 37
1010
0110
2002
3003
,  // measure 38
1000
0000
0001
0100
0000
0000
0010
0000
0000
0000
0000
0000
,  // measure 39
0100
0000
0001
1000
0000
0000
0001
0000
0000
0000
0000
0000
,  // measure 40
1000
0000
0100
1000
0000
0000
0001
0000
0010
0001
0000
0000
,  // measure 41
0011
0110
2002
3003
,  // measure 42
1100
0002
0103
0000
,  // measure 43
0101
2000
3100
0000
,  // measure 44
1100
0002
0103
0000
,  // measure 45
1001
0110
2002
3003
,  // measure 46
2010
3001
0010
0000
,  // measure 47
0012
1003
0010
0000
,  // measure 48
2010
3001
0010
0000
,  // measure 49
0011
0110
2002
3003
,  // measure 50
1001
0110
1001
0110
,  // measure 51
2002
0000
3003
0000
,  // measure 52
0001
0200
0000
0300
,  // measure 53
0010
2000
0000
3000
,  // measure 54
0001
1000
0100
0100
,  // measure 55
2002
3003
0001
1000
,  // measure 56
2020
3030
1000
0001
,  // measure 57
0202
0303
0001
1000
,  // measure 58
1001
0110
2002
3003
,  // measure 59
0001
0000
0000
0100
0000
0010
1000
0000
0000
0000
0000
0000
,  // measure 60
0010
0000
0000
1000
0000
0001
0100
0000
0000
0000
0000
0000
,  // measure 61
0001
0000
0100
0001
0000
0000
1000
0000
0100
1000
0000
0000
,  // measure 62
1100
0110
2002
3003
,  // measure 63
1001
0000
0000
0000
;

//---------------dance-single - ----------------
#NOTEDATA:;
#CHARTNAME:;
#STEPSTYPE:dance-single;
#DESCRIPTION:;
#CHARTSTYLE:;
#DIFFICULTY:Easy;
#METER:4;
#RADARVALUES:0.202279,0.283191,0.127361,0.074918,0.000000,189.000000,172.000000,17.000000,10.000000,0.000000,0.000000,0.000000,0.000000,0.000000,0.202279,0.283191,0.127361,0.074918,0.000000,189.000000,172.000000,17.000000,10.000000,0.000000,0.000000,0.000000,0.000000,0.000000;
#CREDIT:Ben Fears;
#DISPLAYBPM:120.000000;
#NOTES:
// measure 0
0000
0000
0000
0000
,  // measure 1
0000
0000
0000
0000
,  // measure 2
1000
0010
0100
0000
,  // measure 3
0010
1000
0001
0000
,  // measure 4
1000
0100
0010
0000
,  // measure 5
0001
1000
1001
0000
,  // measure 6
0001
0100
0010
0000
,  // measure 7
1000
0010
0100
0000
,  // measure 8
0001
1000
0100
0000
,  // measure 9
1000
0001
1001
0000
,  // measure 10
1000
0010
1000
0000
,  // measure 11
0010
0010
0100
0000
,  // measure 12
0001
0100
0001
0000
,  // measure 13
0100
0100
0010
0000
,  // measure 14
1000
1000
0001
0000
,  // measure 15
0001
0001
1000
0000
,  // measure 16
0001
0010
0100
1000
,  // measure 17
0001
1000
0001
0000
,  // measure 18
1000
0010
1000
0000
,  // measure 19
0001
0010
0001
0000
,  // measure 20
1000
0100
1000
0000
,  // measure 21
0001
1000
1001
0000
,  // measure 22
0001
0100
0001
0000
,  // measure 23
1000
0100
1000
0000
,  // measure 24
0001
0010
0001
0000
,  // measure 25
1000
0001
1001
0000
,  // measure 26
1000
0000
0010
0000
,  // measure 27
0100
0010
0100
0000
,  // measure 28
0001
0000
1000
0000
,  // measure 29
0001
1000
0001
0000
,  // measure 30
1000
0100
0010
0000
,  // measure 31
0100
0010
0001
0000
,  // measure 32
1000
0000
0001
0000
,  // measure 33
0100
0100
0100
0000
,  // measure 34
0001
0100
0010
0000
,  // measure 35
1000
0010
0100
0000
,  // measure 36
0001
1000
0100
0000
,  // measure 37
1000
0001
1001
0000
,  // measure 38
1000
0010
0100
0000
,  // measure 39
0010
1000
0001
0000
,  // measure 40
1000
0100
0010
0000
,  // measure 41
0001
1000
1001
0000
,  // measure 42
0002
0103
0100
0000
,  // measure 43
0002
0103
0100
0000
,  // measure 44
0002
0103
0100
0000
,  // measure 45
1001
1001
1001
0000
,  // measure 46
2000
3100
0100
0000
,  // measure 47
2000
3100
0100
0000
,  // measure 48
2000
3100
0100
0000
,  // measure 49
1001
1001
1001
0000
,  // measure 50
0001
1000
0010
0100
,  // measure 51
2002
0000
3003
0000
,  // measure 52
0020
0000
0000
0030
,  // measure 53
0200
0000
0000
0300
,  // measure 54
0001
0000
1001
1001
,  // measure 55
1000
0000
0000
0000
,  // measure 56
0001
0000
0000
0000
,  // measure 57
0100
0000
0100
0000
,  // measure 58
0010
1000
0001
0000
,  // measure 59
1000
0100
0010
0000
,  // measure 60
0100
0010
0001
0000
,  // measure 61
0010
0001
1000
0000
,  // measure 62
0001
1000
1001
0000
,  // measure 63
1001
0000
0000
0000
;

//---------------dance-single - ----------------
#NOTEDATA:;
#CHARTNAME:;
#STEPSTYPE:dance-single;
#DESCRIPTION:;
#CHARTSTYLE:;
#DIFFICULTY:Beginner;
#METER:2;
#RADARVALUES:0.114518,0.165195,0.052443,0.000000,0.000000,107.000000,100.000000,7.000000,0.000000,0.000000,0.000000,0.000000,0.000000,0.000000,0.114518,0.165195,0.052443,0.000000,0.000000,107.000000,100.000000,7.000000,0.000000,0.000000,0.000000,0.000000,0.000000,0.000000;
#CREDIT:Ben Fears;
#DISPLAYBPM:120.000000;
#NOTES:
// measure 0
0000
0000
0000
0000
,  // measure 1
0000
0000
0000
0000
,  // measure 2
0001
0000
0000
0000
,  // measure 3
1000
0000
0000
0000
,  // measure 4
0010
0000
0000
0000
,  // measure 5
0100
0100
0100
0000
,  // measure 6
0100
0000
0000
0000
,  // measure 7
0001
0000
0000
0000
,  // measure 8
1000
0000
0000
0000
,  // measure 9
0001
0001
0001
0000
,  // measure 10
0001
0000
0000
0000
,  // measure 11
1000
0000
0000
0000
,  // measure 12
0010
0000
0010
0000
,  // measure 13
0010
0000
0000
0000
,  // measure 14
1000
0000
1000
0000
,  // measure 15
1000
0000
0000
0000
,  // measure 16
0001
0000
0001
0000
,  // measure 17
0001
0000
0000
0000
,  // measure 18
0100
0100
0000
0000
,  // measure 19
0100
0000
0000
0000
,  // measure 20
0001
0001
0000
0000
,  // measure 21
1000
1000
1000
0000
,  // measure 22
1000
1000
0000
0000
,  // measure 23
0010
0010
0000
0000
,  // measure 24
1000
1000
0000
0000
,  // measure 25
0001
0001
0001
0000
,  // measure 26
0001
0000
0000
0000
,  // measure 27
0100
0000
0100
0000
,  // measure 28
0100
0000
0000
0000
,  // measure 29
0010
0000
0010
0000
,  // measure 30
0010
0000
0000
0000
,  // measure 31
1000
0000
0000
0000
,  // measure 32
0001
0000
0001
0000
,  // measure 33
0001
0000
0000
0000
,  // measure 34
1000
1000
0000
0000
,  // measure 35
0001
0001
0000
0000
,  // measure 36
0100
0100
0000
0000
,  // measure 37
0001
0001
0001
0000
,  // measure 38
0001
0000
0000
0000
,  // measure 39
1000
0000
0000
0000
,  // measure 40
0010
0000
0010
0000
,  // measure 41
0010
0010
0010
0000
,  // measure 42
1001
0000
0000
0000
,  // measure 43
1001
0000
0000
0000
,  // measure 44
1001
0000
0000
0000
,  // measure 45
0001
0001
0000
0000
,  // measure 46
1001
0000
0000
0000
,  // measure 47
1001
0000
0000
0000
,  // measure 48
1001
0000
0000
0000
,  // measure 49
1000
1000
0000
0000
,  // measure 50
0010
0010
0010
0010
,  // measure 51
0010
0000
0000
0000
,  // measure 52
1000
0000
0000
0000
,  // measure 53
0001
0000
0000
0000
,  // measure 54
0000
0000
0100
0100
,  // measure 55
0100
0000
0000
0000
,  // measure 56
0001
0000
0000
0000
,  // measure 57
1000
0000
0000
0000
,  // measure 58
0010
0010
0010
0000
,  // measure 59
1001
0000
0000
0000
,  // measure 60
0001
0001
0000
0000
,  // measure 61
1000
0000
0000
0000
,  // measure 62
1000
1000
1000
0000
,  // measure 63
1000
0000
0000
0000
;
