#TITLE:Academy of Evil;
#SUBTITLE:;
#ARTIST:Spiralmouth;
#TITLETRANSLIT:;
#SUBTITLETRANSLIT:;
#ARTISTTRANSLIT:;
#GENRE:;
#CREDIT:;
#MUSIC:Academy of Evil [Pruz].ogg;
#BANNER:Academy of Evil [Pruz].png;
#BACKGROUND:Academy of Evil [Pruz]-bg.png;
#CDTITLE:;
#SAMPLESTART:40.323;
#SAMPLELENGTH:18.557;
#SELECTABLE:YES;
#OFFSET:-0.735;
#BPMS:0.000=97.000;
#STOPS:;
#BGCHANGES:;
#FGCHANGES:;

//--------------- dance-single - Pruz ----------------
#NOTES:
     dance-single:
     Pruz:
     Beginner:
     3:
     0,0,0,0,0:
0000
0000
0000
0000
,
0000
0000
0000
0000
,
0000
0000
0000
0000
,
2000
0000
0000
3000
2000
3000
2000
3000
,
0001
0000
0010
0000
,
0002
0000
0003
0000
,
1000
0000
0100
0000
,
0020
0000
0000
0030
0020
0030
0020
0030
,
0001
0000
0100
0000
,
0002
0000
0003
0000
,
1000
0000
0010
0000
,
0200
0000
0000
0300
0200
0300
0200
0300
,
0001
0000
1000
0000
,
0001
0000
0010
0010
,
0001
0000
1000
0000
,
0002
0000
0000
0003
0002
0003
0002
0003
,
2000
0000
3001
0000
,
2000
0000
3100
0000
,
2000
0000
3001
0000
,
2000
0000
0000
3000
1000
0000
0000
0000
,
0002
0000
1003
0000
,
0002
0000
0103
0000
,
0002
0000
2003
0000
,
3200
0000
1300
0000
,
0001
0001
0001
0001
,
0010
0010
0010
0010
,
0100
0100
0100
0100
,
1000
1000
1000
1000
,
0001
0001
0001
0001
,
0100
0100
0100
0100
,
0010
0010
0010
0010
,
1000
1000
1000
1000
,
0002
0000
0003
0001
,
0020
0000
0030
0010
,
0200
0000
0300
0100
,
2000
0000
0000
0000
,
3002
0000
0003
0001
,
0020
0000
0030
0010
,
0200
0000
0300
0100
,
2000
0000
0000
0000
,
3020
0000
0000
0000
,
0130
0100
0100
0100
,
0100
0100
0200
0300
,
0000
0000
0000
0000
,
0000
0000
0000
0000
,
0001
0001
0001
0001
,
1000
1000
1000
1000
,
0001
0001
0001
0001
,
0020
0030
0020
0000
,
0000
0000
0030
0000
;

//--------------- dance-single - Pruz ----------------
#NOTES:
     dance-single:
     Pruz:
     Easy:
     4:
     0,0,0,0,0:
0000
0000
0000
0000
,
0000
0000
0000
0000
,
0000
0000
0000
0000
,
2000
0000
0000
3000
2000
3000
2000
3000
,
0001
0010
0001
1000
,
0100
0000
1000
0001
,
0100
0000
0001
1000
,
0020
0000
0000
0030
0020
0030
0020
0030
,
0100
0001
1000
0100
,
1000
0000
0001
0100
,
0010
0000
1000
0001
,
0200
0000
0000
0300
0200
0300
0200
0300
,
0010
1000
0001
0010
,
0100
0000
0010
0001
,
1000
0000
0010
0100
,
0002
0000
0000
0003
0002
0003
0002
0003
,
2000
0000
0000
3100
0010
0000
0100
0000
,
2000
0000
3001
0001
,
0010
0100
1000
0100
,
0020
0000
0000
0030
0010
0000
0010
0000
,
0002
0000
0000
1003
0010
0000
1000
0000
,
0002
0000
1003
1000
,
0002
0013
0200
1300
,
0002
0000
0000
0103
0010
0100
0010
0000
0000
1000
0000
0000
,
0001
0001
0001
0001
,
0100
0100
0100
0100
,
1000
1000
1000
1000
,
0010
0010
0010
0010
,
1000
1000
1000
1000
,
0100
0100
0100
0100
,
0001
0001
0001
0001
,
0010
0010
0010
0010
,
0100
0000
0001
1000
0000
0000
0100
0000
0000
0100
0000
0000
,
1000
0000
0000
0010
0000
0100
0001
0000
0000
0001
0000
0000
,
0010
0000
0000
0010
0000
0100
1000
0000
0000
0001
0000
0000
,
0100
0100
0010
1000
,
0001
0000
0000
0001
0000
0010
0100
0000
0000
0010
0000
0000
,
0001
0000
0000
0001
0000
0100
0010
0000
0000
1000
0000
0000
,
0001
0000
0000
0001
0000
0010
0100
0000
0000
1000
0000
0000
,
0001
0000
0100
0001
0000
1000
0100
0000
0000
0010
0000
0000
,
0100
0100
0100
0100
,
1000
1000
1000
1000
,
0001
0001
0002
0003
,
0000
0000
0000
0000
,
0000
0000
0000
0000
,
1000
1000
1000
1000
,
0010
0010
0010
0010
,
1000
1000
1000
1000
,
0001
0000
0000
0000
0000
0000
1000
0000
0000
0000
0000
0001
0020
0000
0000
0000
0000
0000
0000
0000
0000
0000
0000
0000
,
0000
0000
0030
0000
;

//--------------- dance-single - Pruz ----------------
#NOTES:
     dance-single:
     Pruz:
     Medium:
     6:
     0,0,0,0,0:
0000
0000
0000
0000
,
0000
0000
0000
0000
,
0000
0000
0000
0000
,
0002
0000
0000
0003
0002
0003
0002
0003
,
1000
0000
0100
0010
0001
0000
0010
0000
,
0100
0000
1000
0010
0100
0001
1000
0000
,
0001
0000
0010
0100
1000
0000
0001
0000
,
0020
0000
0000
0030
0020
0030
0020
0030
,
0100
0000
1000
0001
0100
0000
0001
0000
,
0010
0000
0100
1000
0010
0100
0001
0000
,
1000
0000
0100
1000
0001
0000
0010
0000
,
0200
0000
0000
0300
0200
0300
0200
0300
,
1000
0000
0001
0100
0010
0000
0100
0000
,
0001
0000
0010
0100
1000
0010
0100
0000
,
0001
0000
1000
0010
0100
0000
0001
0000
,
2000
0000
0000
3000
2000
3000
2000
3000
,
0002
0000
0000
0023
0031
0000
1000
0000
,
0200
0000
2300
3002
0103
0000
0001
0000
,
0020
0230
2300
3002
,
2003
0000
0000
3100
1000
0010
0100
0001
,
2000
0000
0000
3100
1000
0000
0001
0000
,
0200
0000
0320
2030
3001
0000
0100
0000
,
0002
0203
0320
2030
,
3001
0000
0000
0100
0010
0100
0010
0000
0000
1000
0000
0000
,
0002
0023
0230
2300
,
3200
0320
0032
2003
,
3002
0203
0320
2030
,
3020
0230
0302
2003
,
3002
0023
0230
2300
,
3200
0320
0032
2003
,
3002
0203
0320
2030
,
3020
0230
0302
2003
,
3002
0000
0023
0031
0000
0000
0200
0000
0320
1030
0000
0000
,
0002
0000
0023
0130
0000
0000
0020
0000
0032
1003
0000
0000
,
0200
0000
2300
3010
0000
0000
0200
0000
0302
0013
0000
0000
,
0002
0000
0103
0010
0000
1000
0100
0000
0010
0001
0000
0100
,
0002
0000
0000
2003
0000
3200
1300
0000
0000
0010
0000
0000
,
0200
0000
0000
0302
0000
0023
0130
0000
0000
0010
0000
0000
,
0002
0000
0000
2003
0000
3020
0130
0000
0000
0001
0000
0000
,
2000
0000
3100
1000
0000
0010
0100
0000
0001
1000
0000
0100
,
0010
0000
0001
0100
0000
0010
1000
0000
0001
0010
0000
0100
,
2000
3200
0320
0032
,
1003
0000
0010
0100
0000
0001
2000
0000
0000
3000
0000
0000
,
0000
0000
0000
0000
,
0000
0000
0000
0000
,
0200
0000
1300
0002
0000
0103
0020
0000
0130
0002
0000
1003
,
0100
0000
0010
0100
0000
1000
0001
0000
0100
0010
0000
1000
,
0002
0000
0013
0200
0000
1300
0020
0000
0130
0002
0000
1003
,
0100
0000
0000
0000
0000
0000
0010
0000
0000
0000
0000
0100
0020
0000
0000
0000
0000
0000
0000
0000
0000
0000
0000
0000
,
0000
0000
0030
0000
;

//--------------- dance-single - Pruz ----------------
#NOTES:
     dance-single:
     Pruz:
     Hard:
     11:
     0,0,0,0,0:
0000
0000
0000
0000
,
0000
0000
0000
0000
,
0000
0000
0000
0000
,
2000
0000
0000
3000
2000
3000
2000
3000
,
0001
0000
0010
0100
1000
0000
0001
0000
,
0100
0000
0010
1000
0010
0100
0001
0000
,
1000
0000
0100
0010
0100
0000
1000
0000
,
0002
0000
0000
0003
0002
0003
0002
0003
,
0100
0000
0001
0010
0100
0000
1000
0000
,
0100
0000
1000
0010
0100
0001
1000
0000
,
0100
0000
0010
0100
1000
0000
0001
0000
,
2000
0000
0000
3000
2000
3000
2000
3000
,
0001
0000
0100
0010
1000
0000
0010
0000
,
0100
0000
0001
1000
0100
0010
0001
0000
,
1000
0000
0010
0100
0001
0000
1000
0000
,
0002
0000
0000
0003
0002
0003
0002
0003
,
2000
0000
0000
3200
0310
0000
0100
0000
,
1000
0000
0002
0203
0310
0000
0100
0000
,
0002
0023
0230
2300
3020
0230
0302
2003
,
3020
0000
1030
0200
0301
0200
1300
0002
,
2003
0000
0000
3200
0310
0000
0100
0000
,
1000
0000
0002
0203
0310
0000
0100
0000
,
0002
0203
0320
2030
3200
0320
0032
2003
,
3010
0000
0000
1000
0001
0100
0010
0000
0000
1000
0100
0010
,
0001
0100
0001
1000
0010
1000
0001
0010
0100
0010
0001
1000
,
0010
0100
0001
0100
0010
1000
0010
0100
0001
1000
0100
0010
,
0001
0100
0010
1000
0100
1000
0001
0010
0001
1000
0010
0100
,
0010
1000
0001
0010
0100
1000
0100
0010
0001
0010
0100
1000
,
0001
0100
0010
1000
0100
1000
0001
0010
0001
0100
0010
1000
,
0100
0010
0001
0010
0100
1000
0001
0100
0010
1000
0010
0100
,
0001
0010
0100
1000
0010
1000
0001
0100
0001
0010
0100
1000
,
0010
0100
0001
0100
0010
1000
0001
0010
0100
1000
0100
0010
,
0001
0001
0100
0010
1000
0001
1000
1000
0100
0010
0100
1000
,
0001
0001
0100
0010
1000
0010
0100
0100
0001
0010
0100
0010
,
0001
0001
0100
0001
1000
0100
0010
0010
0100
0010
0001
1000
,
0010
0010
0100
0001
0100
0010
1000
1000
0100
0010
0100
1000
,
0001
0001
0010
0100
1000
0001
1000
1000
0010
0100
0010
1000
,
0001
0001
0010
0100
1000
0100
0010
0010
0001
0100
0010
0100
,
0001
0001
0010
0001
1000
0010
0100
0100
0010
0100
0001
1000
,
0200
0000
0010
0320
0000
0001
0032
0000
0100
0203
0000
0010
,
0320
0000
1000
2030
0000
0001
3002
0000
1000
2003
0000
0100
,
3100
0010
0001
0100
1000
0100
0001
0010
0100
1000
0100
0001
,
0100
1000
0010
0100
0001
0010
0200
0000
0000
0300
0000
0000
,
1000
0010
0100
0001
0100
0010
1000
0100
0010
0001
0010
0100
,
1000
0001
1000
0010
1000
0001
0010
0001
1000
0100
1000
0001
,
2000
0000
0010
3020
0000
0100
0230
0000
0001
0302
0000
1000
,
2003
0000
0001
3002
0000
0010
0023
0000
0100
0230
0000
0010
,
2300
0000
0001
3020
0000
1000
0230
0000
0010
0302
0000
0010
,
1003
0000
0000
0000
0000
0000
1001
0000
0000
0000
0000
0001
0020
0000
0000
0000
0000
0000
0000
0000
0000
0000
0000
0000
,
0000
0000
0030
0000
;
