#TITLE:The Legend of Slap Fart Man;
#SUBTITLE:;
#ARTIST:Billy Murphy;
#TITLETRANSLIT:;
#SUBTITLETRANSLIT:;
#ARTISTTRANSLIT:;
#CREDIT:;
#BANNER:The Legend of Slap Fart Man.PNG;
#BACKGROUND:The Legend of Slap Fart Man-bg.PNG;
#LYRICSPATH:The Legend of Slap Fart Man.LRC;
#CDTITLE:cdtitle.PNG;
#MUSIC:The Legend of Slap Fart Man.mp3;
#OFFSET:-0.089;
#SAMPLESTART:41.000;
#SAMPLELENGTH:30.000;
#SELECTABLE:YES;
#BPMS:0.000=150.000;
#STOPS:;
#BGCHANGES:;

//---------------dance-single - ----------------
#NOTES:
     dance-single:
     :
     Medium:
     8:
     0.503,0.528,0.221,0.018,0.000:
0000
0000
0000
0000
0001
0010
0100
1000
,
0100
0010
0001
0010
0100
1000
0100
0000
,
0100
0000
0001
0010
0100
1000
0100
0010
,
0001
0010
0100
1000
0100
0010
0001
0000
,
0000
0000
0001
0010
0100
1000
0100
0010
,
0001
0010
0100
1000
0010
0100
0010
0000
,
0011
0000
1000
0100
0010
0100
0001
0010
,
1000
0100
1010
0000
0000
0000
0000
0000
,
0000
1001
0100
0010
,
0100
0001
1000
0100
,
0010
0001
0010
0100
,
0010
0011
0100
1000
,
0100
1100
0100
0010
,
0100
0110
0001
0011
,
0100
1100
0110
0011
,
1100
0000
1000
0100
0001
0000
0100
0000
,
0000
0000
0000
0001
0010
0100
1000
0000
,
0100
0010
0001
0010
0000
0100
0000
0000
,
0000
0000
0000
0001
0010
0100
1000
0000
,
0100
0010
0001
0100
0010
0100
0000
0000
,
0000
0000
0000
0001
0010
0100
1000
0100
,
0010
0001
0010
0100
0100
0100
0000
0000
,
0001
0010
0100
1000
0100
0100
0000
0000
,
0001
0100
0101
0000
1010
0000
0110
0000
,
0101
1001
0000
0000
,
0000
1001
0110
1000
,
0100
0101
0000
0000
,
0000
0000
0001
0010
0100
1000
0100
0000
,
0010
0001
0000
0011
0000
0000
0001
0000
,
0010
0100
1000
0000
0000
1000
0100
0010
,
0001
0001
0000
0001
,
0100
1000
0000
0000
0100
0100
0100
0010
,
0001
0010
0000
0000
0001
0010
0100
0000
,
1000
0000
1000
0100
0010
0001
0010
0000
,
0000
0000
1001
0000
0100
0010
0100
0000
,
0001
0010
0100
1000
0100
0010
0001
0000
,
0010
0000
0000
0000
0001
0010
0100
1000
,
0100
0010
0001
0010
0100
0100
0100
0000
,
0000
0000
0001
0010
0100
0010
0001
0010
,
0100
1000
0100
0010
0001
0010
0000
0000
,
0000
0001
0010
0100
1000
0100
0010
0000
,
0000
0001
0010
0100
0100
0100
0000
0000
,
0000
0000
1000
0100
0001
0010
0100
0000
,
0100
0001
0010
0100
1000
0010
0000
0000
,
0000
0000
0001
0010
0100
1000
0100
0000
,
0010
0000
0001
0100
0010
1000
0000
0000
,
0000
0000
0001
0010
0100
1000
0100
0000
,
0100
0010
0001
0010
0100
1000
0000
0000
,
0000
0100
0010
0001
0010
0100
0000
0000
,
0100
0000
1000
0100
0010
0001
0000
0000
,
0000
0001
0010
0100
1000
0100
0000
0010
,
0000
0100
0001
0010
0100
1000
0000
0000
,
1000
0100
0010
0001
0010
0100
1000
0000
,
0100
0010
0001
0010
0100
1000
0100
0000
,
0000
0001
0100
0000
1000
0000
0000
0000
,
0000
1000
0100
0010
0001
0000
0010
0000
,
0000
0000
0001
0010
0100
0000
0000
0000
,
0000
0001
0010
0100
1000
0000
0100
0000
,
0000
0100
0001
0010
0000
1000
0000
0100
,
0000
0010
0100
0001
0010
0000
0100
0000
,
0000
0001
0010
0100
0000
1000
0000
0000
,
0000
0100
0010
0001
0010
0100
1000
0000
,
0000
0001
0100
1000
0100
0010
0001
0000
,
0000
0001
0010
0100
1000
0100
0010
0000
,
0000
0001
0010
0100
1000
0010
0010
0000
,
0000
0001
0010
0100
1000
0100
0001
0000
,
0000
0001
0010
0100
1000
0100
0010
0000
,
0000
0001
0010
0100
1000
0100
0100
0000
,
0000
0001
0100
0010
1000
0010
0110
0000
,
0000
0011
0100
1100
,
0000
0000
0000
0000
0000
0000
0000
1001
,
0000
0110
0000
0000
0000
0000
0001
0010
,
0100
1100
0000
0101
,
0000
0000
1010
0000
0000
0010
0100
0000
,
0001
0100
0000
0000
0000
0000
0110
0000
,
0000
0000
1001
0000
0000
0001
0100
1000
,
0000
0100
0000
0000
0001
0100
1000
0100
,
0010
0001
0010
0100
0010
0001
0010
0000
,
0010
0000
0000
0001
0010
0100
1000
0100
,
0010
0001
0010
0100
0010
0001
0010
0000
,
0000
0001
0010
0100
1000
0100
0000
0000
,
0100
0010
0001
0010
0100
1000
0000
0000
,
0000
0100
0010
0001
0010
0100
0010
0001
,
0000
0001
0010
0100
1000
0100
0000
0000
,
0000
0001
0010
0100
1000
0010
0010
0000
,
0000
0001
0010
0100
1000
0100
0000
0000
,
0001
0010
0100
1000
0100
0010
0001
0000
,
0010
1001
0110
2002
,
0000
0000
0000
0000
0000
3003
0110
0000
,
1001
0110
0000
0000
,
0000
0000
0001
0010
0100
1000
0100
0010
,
0001
0010
0100
0000
0000
0000
0001
0000
,
0010
0100
1000
0000
0000
1000
0100
0010
,
0001
0000
0011
0000
0000
0000
0001
0010
,
0100
1000
0000
0100
0010
0001
0010
0100
,
0100
0100
0000
0000
0001
0010
0100
0000
,
1000
0000
0100
0100
0010
0001
0001
0000
,
0000
0000
0001
0100
1000
0100
0010
0001
,
0010
0100
0001
0010
0100
1000
0100
0001
,
0010
0100
0010
0001
0010
0100
0001
0010
,
1000
0100
0010
0001
0010
0100
0010
0001
,
0010
0100
1000
0100
0010
0001
0010
0100
,
1000
0100
0010
0001
0010
0100
0010
0001
,
0010
0100
1000
0100
0010
0001
0010
0100
,
1000
0100
0010
0001
0010
0100
0100
0000
,
0000
0001
0100
1000
0100
0010
0001
0000
,
0000
0001
0010
0100
0000
1000
0000
0000
,
0000
0001
0100
1100
,
0000
1000
0100
0010
0001
0010
0000
0000
,
0000
0000
0001
0010
0100
1000
0100
0000
,
0000
0100
0010
0001
0010
0100
0000
0000
,
0000
0000
0001
0010
0100
1000
0000
0000
,
0000
1000
0100
0010
0001
0010
0001
0000
,
0000
0000
0001
0010
0100
1000
1100
0000
,
0000
1000
0100
0010
0001
0010
0011
0000
,
0000
0001
0010
0100
0010
0100
0110
0000
,
0000
1000
0100
1000
0100
1000
1100
0000
,
0000
0000
1000
0100
0010
0001
0010
0000
,
0000
0001
0010
0100
0010
0001
0011
0000
,
0000
0000
0001
0100
0010
1000
0010
0100
,
0001
0010
1001
0000
0110
0000
1001
0000
,
0000
0000
0000
0000
0000
0000
0001
0010
,
0100
0010
0001
0010
0100
0010
0001
0000
,
0001
0000
0010
0100
1000
0100
0010
0001
,
0010
0100
0001
0010
0100
1000
0100
0000
,
0000
0000
0010
0001
0010
0100
1000
0100
,
0010
0001
0010
0100
0001
0010
0100
1000
,
0100
0010
0001
0010
0100
0001
0010
0100
,
1000
0100
0010
0001
0010
0100
0001
0010
,
0100
1000
0100
0010
0001
0010
0100
0010
,
0001
0010
0100
1000
0100
0010
0001
0010
,
0100
0010
0001
0010
0100
1000
0100
0010
,
0100
0001
0010
0100
1000
0100
0110
0000
,
0000
0000
0000
0001
0010
0100
0001
0010
,
0100
1000
0100
0010
0001
0010
0100
0000
,
1000
2002
0000
0000
,
0000
0000
0000
0000
,
0000
0000
0000
3003
;

//---------------dance-single - ----------------
#NOTES:
     dance-single:
     :
     Hard:
     12:
     0.846,0.930,1.000,0.009,0.138: // measure 1
0000
0000
0000
0000
0000
0000
0001
0010
1000
0000
0100
0000
0001
0000
0100
0000
,  // measure 2
0010
0100
1000
0100
0010
0001
0011
0000
,  // measure 3
0110
0000
0000
0000
1000
0000
1000
0100
0010
0000
0100
0000
0001
0000
0010
0000
,  // measure 4
0100
0000
1000
0000
0110
0000
0001
0010
0100
0000
0010
0000
0100
0000
0000
0000
,  // measure 5
0000
0000
0000
0000
0001
0000
0001
0010
0100
0000
1000
0000
1000
0000
0010
0000
,  // measure 6
0100
0001
0010
0100
1000
0100
1001
0000
,  // measure 7
0110
0000
0000
0000
1001
0000
0001
0010
0100
0000
0010
0000
1000
0000
0010
0000
,  // measure 8
0100
0001
0011
0000
0000
0000
0000
0000
,  // measure 9
0000
0000
0101
1000
0010
0100
0110
0001
,  // measure 10
0010
0100
1010
0100
0001
0100
0101
0010
,  // measure 11
0001
0100
0110
0010
1000
0010
0110
0010
,  // measure 12
0100
0001
0011
0001
0010
0100
1100
1000
,  // measure 13
0010
0100
0110
0001
0010
0001
0101
0010
,  // measure 14
0100
0010
1010
0010
0100
0001
0011
0001
,  // measure 15
0100
0010
1010
0100
0001
0010
1100
0010
,  // measure 16
0100
0010
0011
0110
1010
0000
1001
0000
,  // measure 17
0000
0000
1001
0100
0010
0100
0110
0001
,  // measure 18
0010
0100
1100
0010
0100
0010
0011
0010
,  // measure 19
0100
0001
0011
0001
0100
0010
1010
0010
,  // measure 20
0100
0010
0110
0001
0010
0001
0110
0010
,  // measure 21
1000
0010
0110
0001
0010
0100
0011
0010
,  // measure 22
0100
0010
1010
0100
0001
0010
0011
0100
,  // measure 23
0010
1000
0110
0001
0010
0100
1100
0010
,  // measure 24
0100
0011
0110
0010
1010
0100
0101
1000
,  // measure 25
1010
0010
0110
0000
0000
0000
0000
0000
,  // measure 26
0000
0000
0000
0000
0000
0001
0001
0100
0100
0010
0010
1000
1000
0010
0000
0000
,  // measure 27
0110
0000
1001
0100
0010
0100
0011
0100
,  // measure 28
0001
0010
0011
0100
0010
0100
0110
0010
,  // measure 29
1000
0010
0110
0001
0010
0100
1100
0010
,  // measure 30
0100
0001
0011
0001
0100
0010
1010
0100
,  // measure 31
0001
0010
0101
0010
1000
0010
0110
0001
,  // measure 32
0010
0001
0101
0010
1000
0010
0110
0001
,  // measure 33
0010
0001
0101
0010
1000
0010
0110
0001
,  // measure 34
0010
0100
1100
0011
0110
1001
0110
0000
,  // measure 35
0000
0000
1001
0000
0100
0001
0011
0100
,  // measure 36
0010
1000
0110
0010
0001
0010
0110
0000
,  // measure 37
1100
0000
0000
0000
0000
0000
1000
0100
0001
0000
0010
0000
0100
0000
0010
0000
,  // measure 38
0100
0010
1000
0101
0110
0100
1010
0000
,  // measure 39
0000
1001
0100
0010
0100
0010
0011
0010
,  // measure 40
0100
1000
0110
0010
0001
0010
0110
0001
,  // measure 41
0100
0010
1010
0100
0010
0100
0101
0010
,  // measure 42
0100
1000
1100
0010
0100
0001
0011
0100
,  // measure 43
1000
0100
0110
0010
0001
0010
1100
1000
,  // measure 44
0010
0100
0011
0100
0010
0100
0110
0001
,  // measure 45
0010
0001
0101
0010
1000
0010
0110
0010
,  // measure 46
1000
0010
0100
0001
0110
0010
0110
0000
,  // measure 47
0000
0000
1001
0100
0010
0100
0110
0001
,  // measure 48
0010
0001
0101
0010
1000
0010
1010
0100
,  // measure 49
0010
0100
0110
0001
0010
0001
0011
0100
,  // measure 50
0010
1000
0110
0001
0010
0001
0101
0000
,  // measure 51
0000
1001
0100
0010
0100
0010
1010
0100
,  // measure 52
0001
0010
0101
0001
0100
0010
1010
0100
,  // measure 53
0010
0100
0101
0010
0100
1000
0110
0100
,  // measure 54
0001
0010
1100
0010
0100
0101
0011
0000
,  // measure 55
0000
1001
0100
0010
0100
0010
0101
0000
,  // measure 56
0000
1000
0110
0001
0010
0100
0101
0010
,  // measure 57
1000
0010
0110
0001
0101
0000
0000
0000
,  // measure 58
0000
0001
0110
1000
0100
0010
0011
0000
,  // measure 59
0000
0011
0100
0010
1000
0010
0110
0001
,  // measure 60
0010
0100
0001
1000
0010
0100
0110
0000
,  // measure 61
0000
1001
0110
0010
0001
0100
1001
0000
,  // measure 62
0000
0100
0010
0100
0001
0010
0011
0000
,  // measure 63
0000
1001
0110
0100
0001
0010
0011
0100
,  // measure 64
0010
0100
1010
0010
0100
0001
0101
0001
,  // measure 65
0010
0100
0110
0001
0100
0010
1010
0010
,  // measure 66
0100
0001
0011
0001
0100
0010
0110
0001
,  // measure 67
0010
0101
0001
0010
1000
0010
0110
0001
,  // measure 68
0010
0001
0011
0100
1010
0100
0110
0010
,  // measure 69
0001
0010
0110
0001
0100
1000
1010
0100
,  // measure 70
0000
0011
0100
1000
0100
0010
0011
0000
,  // measure 71
0000
0000
1001
0010
0100
1001
0110
0001
,  // measure 72
0010
0101
0000
0000
1001
0010
0100
0001
,  // measure 73
0110
1001
0101
0000
0010
1000
0110
0010
,  // measure 74
0011
0100
0011
0100
1000
0100
1100
0010
,  // measure 75
0110
0001
0010
0100
0010
1000
0110
0010
,  // measure 76
0001
0011
0101
0010
1000
0110
0001
1000
,  // measure 77
0100
0000
1000
0000
1100
0000
0100
0010
0001
0000
0100
0000
1010
0000
0100
0000
,  // measure 78
0010
0100
0011
0100
0010
1000
0110
0000
,  // measure 79
1001
0000
0000
0000
0000
0000
0001
0100
1000
0000
0010
0000
0001
0000
0010
0000
,  // measure 80
0100
0000
1000
0000
0110
0000
1000
0001
0010
0000
0100
0000
1000
0000
0000
0000
,  // measure 81
0000
1001
0100
0010
0100
0010
0011
0000
,  // measure 82
0011
0100
1000
0100
0010
0001
0011
0000
,  // measure 83
0000
0001
0010
0100
1000
0100
0110
0010
,  // measure 84
0000
0010
0011
0100
1000
0110
0000
0000
,  // measure 85
0000
0001
1100
0010
0001
0010
0110
1000
,  // measure 86
0100
0010
0011
0100
0010
0001
0011
0000
,  // measure 87
0011
0100
1010
0100
0010
0100
0110
0000
,  // measure 88
0110
0000
1001
0110
0011
1010
0110
0000
,  // measure 89
0000
0000
0000
0010
0010
0100
0100
0001
0001
1000
1000
0000
0101
0000
0010
0000
,  // measure 90
1010
0110
0110
0000
0000
0000
1001
0000
,  // measure 91
0000
0000
0011
0010
0110
1000
0010
0100
,  // measure 92
0000
0011
0000
0110
0000
1001
0100
0010
,  // measure 93
0100
0011
0011
0000
0100
0010
0011
0100
,  // measure 94
1000
0000
0110
0000
0110
1000
0010
0001
,  // measure 95
0110
0010
0011
0100
1010
0100
0110
0100
,  // measure 96
0011
0100
0101
0010
1000
0100
0110
0100
,  // measure 97
0110
0010
0011
1100
0110
0011
1100
0000
,  // measure 98
0000
0000
1001
0000
0100
0010
0100
0001
,  // measure 99
0011
0100
1100
0010
0100
0010
0110
0001
,  // measure 100
0010
0000
0110
0000
0001
0000
0010
0100
1000
0100
0010
0001
0010
0100
0001
0010
,  // measure 101
0100
0010
0100
1000
0100
0010
0001
0010
0100
0010
0001
0010
0100
0010
0001
0010
,  // measure 102
0100
0010
1000
0100
0010
0000
0010
0000
0100
0000
0110
0000
0011
0000
0100
0000
,  // measure 103
1010
0100
0110
0000
0100
0000
0011
0000
,  // measure 104
0100
0000
0000
0000
0001
0010
0100
1000
0010
0100
0001
0010
0100
1000
0010
0100
,  // measure 105
0001
0010
0001
0100
0010
1000
0010
0100
0001
0010
0100
1000
0110
0000
0000
0000
,  // measure 106
0000
1001
0100
0010
0100
0010
0011
0100
,  // measure 107
0001
0010
0101
1000
0100
1000
1100
0010
,  // measure 108
0100
0010
0110
0001
0010
0001
0011
0001
,  // measure 109
0100
0001
0101
0010
0100
0010
1010
0010
,  // measure 110
0100
0010
0110
0001
0010
0001
0011
0001
,  // measure 111
0100
0001
0101
0010
0100
0010
1010
0010
,  // measure 112
0100
0010
0101
0001
0010
0100
0110
0100
,  // measure 113
1000
1000
0110
0100
0011
0100
0110
0000
,  // measure 114
0000
0000
0011
0100
0010
1000
0110
0010
,  // measure 115
0100
0001
0011
0001
0100
0001
0101
0010
,  // measure 116
0100
0010
1010
0010
0100
0010
0110
0001
,  // measure 117
0010
0001
0011
0001
0100
0010
0110
0010
,  // measure 118
1000
0010
1010
0010
0100
0100
0101
0001
,  // measure 119
0010
0100
0110
1000
0010
0100
0110
0001
,  // measure 120
0010
0001
0011
0110
1010
0110
0011
0110
,  // measure 121
1001
0110
1001
0000
0110
0000
0011
0000
,  // measure 122
0000
0000
1001
0010
0100
0010
0011
0100
,  // measure 123
0001
0010
0101
0001
1000
0010
1010
0100
,  // measure 124
0010
0100
0101
0010
0001
0100
0110
1000
,  // measure 125
0010
0100
0110
1001
0110
1010
0101
0000
,  // measure 126
0000
0000
0110
1000
0110
0010
0001
0010
,  // measure 127
1100
0010
0100
0010
0011
0100
0010
1000
,  // measure 128
0110
0010
0001
0010
0110
1000
0010
0100
,  // measure 129
0101
0010
1000
0010
0110
0001
0010
0010
,  // measure 130
1000
0000
0110
0000
0001
0000
0100
0010
1000
0100
0010
0001
0010
0100
0010
0001
,  // measure 131
0010
0100
1000
0100
0010
0001
0010
0100
0010
0001
0010
0100
1000
0100
0000
0010
,  // measure 132
0001
0010
0100
1000
0100
0010
0000
0000
0100
0000
0110
0000
1001
0000
0001
0000
,  // measure 133
0110
1000
0110
0010
0011
0110
1001
0000
,  // measure 134
0000
0000
0000
0001
0010
0100
0010
0001
,  // measure 135
0010
1000
1100
0010
0011
0010
0110
0000
,  // measure 136
1100
2002
0000
0000
,  // measure 137
0000
0000
0000
0000
,  // measure 138
0000
0000
0000
3003
0000
0000
0000
0000
;
