#TITLE:Snowman Shit Blizzard;
#SUBTITLE:;
#ARTIST:Amanda Kelly;
#TITLETRANSLIT:;
#SUBTITLETRANSLIT:;
#ARTISTTRANSLIT:;
#CREDIT:;
#BANNER:Snowman Shit Blizzard.PNG;
#BACKGROUND:Snowman Shit Blizzard-bg.PNG;
#LYRICSPATH:Snowman Shit Blizzard.LRC;
#CDTITLE:cdtitle.PNG;
#MUSIC:Snowman Shit Blizzard.mp3;
#OFFSET:-0.202;
#SAMPLESTART:18.000;
#SAMPLELENGTH:30.000;
#SELECTABLE:YES;
#BPMS:0.000=156.000;
#STOPS:;
#BGCHANGES:;

//---------------dance-single - ----------------
#NOTES:
     dance-single:
     :
     Medium:
     8:
     0.436,0.561,0.362,0.000,0.000:
0000
0000
0000
0000
,
0000
0000
0000
0000
0000
0000
0001
0010
,
0100
0000
1000
0000
1000
0000
1000
0100
,
0001
0001
0100
0000
,
0001
0100
0010
0000
0010
0000
0010
0100
,
0001
0010
0100
0000
,
1000
0000
1000
0000
0100
0000
0000
0001
,
0100
0010
0100
0000
,
0001
0000
0100
0000
1000
0000
1000
0100
,
0010
0001
0100
0000
,
0000
0000
0000
0000
,
0000
0000
0000
0000
,
0001
0100
1000
0100
0001
0000
0100
0001
,
0010
0100
0101
0000
,
0100
0010
0001
0100
1000
0000
1000
0000
,
0100
0100
0101
0000
,
0101
0000
1010
0000
0101
0000
0010
0100
,
0001
0000
0100
0000
0011
0000
0001
0010
,
0100
0000
1000
0000
1000
0100
0001
0100
,
0010
1000
0100
0100
0000
0000
0000
0000
,
1001
0100
0010
0000
0100
0010
0000
1000
,
0000
1000
0100
0001
0000
0000
0001
0100
,
1000
0100
0010
0000
0001
0000
0010
0100
,
0000
1000
0000
1001
0000
0000
0000
0000
,
1000
0100
0001
0100
0000
0010
0000
0100
,
0000
1000
0000
0100
0000
0000
0001
0010
,
0100
1000
0100
0010
0000
0010
0100
0001
,
0000
0010
0000
1000
0000
0000
0000
0000
,
0000
0000
0000
0000
,
0000
0000
0000
0000
,
1000
0100
0010
0001
0010
0000
0000
0100
,
1000
0010
0100
0001
0000
0000
0000
0001
,
0010
0100
1000
0100
0010
0001
0000
0100
,
0000
0001
0000
0000
1001
0000
0000
0000
,
1000
0100
0001
0010
0000
0000
0001
0010
,
0000
0100
0000
1000
0000
0000
0000
0000
,
0100
1000
0010
0100
0000
0000
0001
0010
,
0100
1000
0100
0100
0000
0000
0001
0100
,
0101
1000
1100
0100
,
0101
1001
0110
0000
,
1001
0110
1001
0110
,
0101
0000
1010
0000
0101
0000
0001
0010
,
0100
0000
1000
0000
1000
0100
0000
0100
,
0000
0000
0000
0000
0000
0001
0010
0100
,
0000
1000
0000
0100
0000
0010
0000
0001
,
0010
0100
1010
0000
,
0001
0010
0100
0000
1000
0100
0000
0010
,
0000
0001
0010
0100
0000
0000
0000
0000
,
0001
0010
0100
1000
0000
0100
0000
0010
,
0000
0001
0100
0100
0100
0000
0000
0000
,
0001
0000
0010
0100
0000
0000
0100
0001
,
0000
0010
0100
1000
0000
0000
0000
0000
,
1000
0100
0010
0001
0000
0010
0100
1000
,
0000
0100
0000
1001
0000
0000
0000
0000
,
1001
1010
0110
1001
,
0110
1001
0110
1001
,
0101
1010
0110
0011
,
0110
1010
0110
1001
,
0110
1001
0110
1001
,
0110
0101
1010
0000
,
0001
0000
1000
0100
0000
0100
0010
0001
,
0000
0100
0000
1010
0000
0000
0000
0000
,
0000
0000
0000
0000
,
0000
0001
0100
0010
,
1000
0000
1000
0010
,
0100
0000
0000
0000
0001
0000
0100
0100
,
0000
1000
0000
0100
0000
0001
0000
0000
,
0101
0000
0001
0010
,
0100
0000
0010
0001
0000
0100
0000
1000
,
0000
0100
0010
0000
0001
0100
0010
1000
,
0000
0100
0010
0100
0000
0001
0000
0010
,
0000
0000
0000
0000
0001
0010
0100
0000
,
0010
0001
0000
1000
0000
0100
0010
0001
,
0000
0000
0001
0000
0010
0100
0000
1000
,
0000
0100
0000
0010
0000
0001
0000
0011
,
0000
0000
0000
0000
0001
0010
0000
0100
,
0000
1000
0100
0010
0000
0100
0000
0001
,
0000
0000
0100
0010
0001
0010
0100
1000
,
0000
0100
0010
0001
0000
0100
0000
0011
,
0000
0000
0000
0000
0000
0001
0010
0100
,
0000
1000
0000
0100
0000
0100
0000
0110
,
0000
0001
0000
0000
0010
0000
0100
0000
,
1000
0000
0001
0100
0000
0001
0010
0010
,
0000
0000
0000
0000
0001
0010
0100
1000
,
0000
0000
0100
0000
0000
0001
0000
0100
,
0000
0000
0001
0010
0000
0001
0100
0010
,
0000
1000
0010
0100
0000
0001
0000
0101
,
0000
0000
0000
0000
,
0000
0000
0001
0100
,
1000
0000
0100
0000
0010
0001
0000
0100
,
0110
0000
0000
0000
0001
0000
1000
0100
,
0100
0000
0010
0100
0001
0110
0000
0011
,
0000
0000
0001
0000
,
0010
0000
1000
0000
0001
0010
0100
1000
,
0100
0010
0000
0001
0000
0010
0100
1000
,
0010
0100
0001
0010
0000
0100
0000
0001
,
0000
0010
0000
0000
1000
0100
0010
0001
,
0100
0010
1000
0100
0001
0010
0100
0100
,
0000
0001
0000
0000
0010
1000
0100
0010
,
0001
0100
0010
1000
0001
0100
0001
0100
,
0000
0000
0000
0000
0001
0010
0100
1000
,
0010
0100
0001
0010
0100
1000
0010
0100
,
0001
0010
0100
1000
0010
0100
0001
0010
,
0100
1000
0010
0100
0001
0010
0100
1000
,
0010
0100
0001
1000
0110
0000
0000
0110
,
0000
0000
1000
0100
0001
0010
0100
0100
,
0000
0000
0001
0010
0100
1000
0100
0010
,
0100
0010
0001
0010
0100
1000
0100
0100
,
0000
0000
0000
0000
0001
0100
0010
1000
,
0010
0100
0001
0010
0011
1100
0000
0110
,
0000
0101
1010
0000
,
0000
0000
0000
0000
1001
0000
0110
1001
;

//---------------dance-single - ----------------
#NOTES:
     dance-single:
     :
     Hard:
     12:
     0.827,1.000,0.953,0.000,0.329: // measure 1
0000
0001
0010
0100
1000
0010
0100
0001
0010
0100
1000
0010
0100
0001
0010
0100
,  // measure 2
1000
0000
0000
0110
0000
0000
0000
1001
0000
0110
0000
0000
0001
0000
0010
0000
,  // measure 3
0100
0000
1000
0000
0100
0000
0100
0010
,  // measure 4
0001
0100
0110
0000
,  // measure 5
1001
0100
0010
0000
0100
0000
0010
0100
,  // measure 6
0001
0010
0011
0000
,  // measure 7
0110
0000
1010
0000
0101
0000
0000
1000
,  // measure 8
0110
0010
0001
0000
,  // measure 9
0010
0000
0100
0000
1001
0000
0100
0010
,  // measure 10
1000
0010
0110
0000
,  // measure 11
0001
0010
0100
1000
0010
0100
0001
0010
0100
1000
0010
0100
0001
0010
0100
0010
,  // measure 12
0000
0100
0000
0110
1001
0000
0000
0000
,  // measure 13
0001
0100
0010
1000
0110
0010
0001
0100
,  // measure 14
0011
0100
1000
0100
0110
0010
0001
0100
,  // measure 15
0011
0100
1000
0100
0110
1000
0100
0010
,  // measure 16
1010
0100
0010
0100
0011
0100
0010
0001
,  // measure 17
0101
1000
0100
1000
0110
0100
0001
0010
,  // measure 18
0110
1000
0100
1000
0110
0100
0001
0010
,  // measure 19
0101
1000
0010
0100
1010
0100
0001
0010
,  // measure 20
0100
1000
0100
0100
0000
0000
0000
0000
,  // measure 21
0101
1000
0010
0100
0110
0100
0001
0010
,  // measure 22
0011
0100
1000
0100
1100
0010
0100
0001
,  // measure 23
0010
0100
0010
1000
0010
0100
0001
0010
,  // measure 24
0100
1000
0010
0100
0001
0010
0100
1000
,  // measure 25
0110
0010
0001
0100
0110
0100
0001
0100
,  // measure 26
1010
0100
0010
0100
0011
0100
1000
0100
,  // measure 27
1100
0010
0001
0100
0110
1000
0001
0100
,  // measure 28
0010
0100
0000
1100
0000
0000
0000
0000
,  // measure 29
0001
0010
0100
0010
0100
0001
0010
0000
0100
1000
0010
0100
0001
0010
0100
0000
,  // measure 30
0010
0000
0000
0110
0000
0000
1001
0000
0110
0000
0000
0000
0000
0000
0000
0000
,  // measure 31
1001
0100
0010
1000
0110
0010
0001
0100
,  // measure 32
0101
1000
0100
0010
1010
0100
0010
0100
,  // measure 33
0101
0010
0100
0010
0110
0001
0100
0010
,  // measure 34
1010
0100
0001
0010
0110
0010
0001
0100
,  // measure 35
1010
0100
0010
0100
0110
0001
0010
0100
,  // measure 36
0110
0001
0010
0001
0011
0100
0010
1000
,  // measure 37
0110
0100
0001
0010
0110
0001
0010
0100
,  // measure 38
1000
0100
0010
0001
0000
0000
0000
0000
,  // measure 39
0010
0100
0001
0010
0110
0001
0010
0100
,  // measure 40
1010
0100
0010
0100
0110
0001
0010
0100
,  // measure 41
0110
0001
0010
0100
0101
1000
0100
1000
,  // measure 42
1100
0010
0100
0010
0110
0001
0010
0100
,  // measure 43
0010
1000
0100
0001
0010
0100
1000
0100
,  // measure 44
0001
0000
0000
0000
0000
0001
0100
0010
,  // measure 45
0000
1000
0000
0100
0000
0010
0000
0100
,  // measure 46
1001
0100
0010
0000
1001
0000
0000
0000
,  // measure 47
1001
0100
0010
0100
0110
1000
0001
0100
,  // measure 48
0101
1000
0010
0100
0110
0100
0001
0010
,  // measure 49
0110
1000
0100
0010
0110
0010
0001
0100
,  // measure 50
1010
0100
0001
0010
0101
1000
0010
0100
,  // measure 51
0110
0010
0001
1000
1100
0100
0010
0100
,  // measure 52
0101
0010
1000
0100
0110
0001
0100
0010
,  // measure 53
1001
0100
0010
0100
0011
0100
1000
0100
,  // measure 54
1100
0010
0100
0010
0110
0000
0000
0000
,  // measure 55
0001
0010
0100
1000
0010
0100
0001
0010
0100
0010
1000
0100
0001
0010
0100
1000
,  // measure 56
0010
0100
0001
0010
0001
1000
0001
0100
0010
1000
0000
0000
0101
0000
0000
0000
,  // measure 57
1001
0100
0010
0100
0110
1000
0001
0010
,  // measure 58
0110
1000
0010
0100
0110
1000
0001
1000
,  // measure 59
0001
0100
0001
0100
0001
0100
0001
0100
0001
0100
0001
0100
0001
0000
0100
1000
,  // measure 60
0100
1000
0100
1000
0100
1000
0100
1000
0100
1000
0100
0000
0001
0000
0100
0000
,  // measure 61
1001
0000
0000
0110
0000
0000
0000
1001
,  // measure 62
0000
0000
0110
0000
0000
0000
0000
0000
0001
0010
0100
1000
0010
0100
0001
0010
,  // measure 63
1000
0000
0100
0000
0010
0100
1000
0010
0100
0000
0000
1001
0000
0000
0110
0000
,  // measure 64
1001
0000
0000
0000
1001
0100
0010
1000
,  // measure 65
0110
0100
0010
0100
0011
0100
1000
0100
,  // measure 66
1100
0010
0100
0010
0110
0001
0010
0100
,  // measure 67
0110
0001
0100
0010
0110
1000
0010
0100
,  // measure 68
0110
1000
0100
0010
0011
0100
0010
0100
,  // measure 69
1010
0100
0010
0100
0101
0010
0100
1000
,  // measure 70
0110
0100
0010
0100
1001
0100
0010
0100
,  // measure 71
0011
0100
1000
0110
0000
1001
0000
0110
,  // measure 72
0000
0000
0000
0000
0110
1000
0001
0010
,  // measure 73
0110
0100
0010
1000
0110
0100
0001
0100
,  // measure 74
0110
1000
0100
0010
0110
0010
0001
0010
,  // measure 75
0110
1000
0010
0100
1010
0100
0010
0100
,  // measure 76
0011
0100
0010
1000
0110
0010
0001
0100
,  // measure 77
0110
1000
0010
0100
0011
0100
1000
0010
,  // measure 78
0110
0001
0010
0100
0110
0001
1000
0010
,  // measure 79
0101
1000
0010
1001
0000
0110
0110
1001
,  // measure 80
0000
0000
0000
0000
0110
1000
0001
0010
,  // measure 81
0110
0100
0010
0100
0110
1000
0010
0100
,  // measure 82
0110
0001
0010
0100
0110
0010
1000
0010
,  // measure 83
1010
0100
0001
0010
0011
0100
0010
1000
,  // measure 84
0110
0010
0100
0001
0011
0100
1000
0010
,  // measure 85
0110
0010
0100
0001
0011
0100
0010
0100
,  // measure 86
0110
1000
0010
1000
1010
0100
0010
0100
,  // measure 87
0011
0100
1000
0010
0100
0001
1000
0100
,  // measure 88
0000
0000
0000
0000
,  // measure 89
0000
0000
0000
0000
0000
0000
0000
0000
0000
0001
0010
0100
1000
0010
0100
0001
,  // measure 90
0010
0100
0010
1000
0001
0100
0010
1000
0100
0000
0010
1000
0001
0100
0010
1000
,  // measure 91
0100
0000
0000
0000
0000
0000
0000
0000
0001
0010
0000
0100
1000
0010
0100
0001
,  // measure 92
0010
0100
1000
0010
0100
0001
0010
0100
0010
0000
0000
0110
0000
0000
1001
0000
,  // measure 93
0000
0000
0000
0000
0110
1000
0001
0010
,  // measure 94
0011
0100
1000
0010
0110
0010
0100
0001
,  // measure 95
0011
0100
0010
1000
0110
0010
0100
0010
,  // measure 96
1010
0010
0100
0010
0110
0001
0010
0001
,  // measure 97
0011
0100
0010
1000
0110
0010
0001
0100
,  // measure 98
0110
1000
0001
0010
0110
0001
0100
0010
,  // measure 99
1010
0010
0100
0001
0110
1000
0010
0100
,  // measure 100
0101
0010
0100
1000
0110
0001
0010
0100
,  // measure 101
0010
0000
0000
0000
0000
0000
0000
0000
0001
0100
0001
0100
0001
0100
0001
0100
,  // measure 102
0010
0100
0010
0100
0010
0100
0010
0100
0010
1000
0010
1000
0010
1000
0010
1000
,  // measure 103
0010
0100
0010
0100
0010
0100
0010
0100
0001
0100
0001
0100
0001
0100
0001
0100
,  // measure 104
0010
0100
0010
0100
0010
0100
0010
1000
0010
1000
0010
1000
0010
1000
0010
0100
,  // measure 105
0010
0100
0010
0100
0010
0100
0010
0000
1001
0000
0000
0000
0000
0000
0110
0000
,  // measure 106
0000
0000
1000
0100
0010
0001
0100
0101
,  // measure 107
0000
0000
1000
0010
0110
1000
0001
0010
,  // measure 108
0110
0001
0100
0010
1000
0010
0100
0101
,  // measure 109
0000
0000
0000
0000
0000
0000
0000
0000
0001
0010
0100
1000
0010
0100
0001
0010
,  // measure 110
0000
0100
1010
0000
0100
0010
0100
0000
0000
0000
1001
0000
0100
0000
1010
0000
,  // measure 111
0000
0000
0100
0000
0000
0000
0110
0000
0000
0000
0001
0010
0100
0000
0000
1000
,  // measure 112
0100
0000
0000
0000
0010
0000
0100
0000
1001
0000
0000
0110
0000
0000
1010
0000
;
