#TITLE:Shroom Voyage;
#SUBTITLE:;
#ARTIST:Amanda Kelly;
#TITLETRANSLIT:;
#SUBTITLETRANSLIT:;
#ARTISTTRANSLIT:;
#CREDIT:;
#BANNER:Shroom Voyage.PNG;
#BACKGROUND:Shroom Voyage-bg.PNG;
#LYRICSPATH:Shroom Voyage.LRC;
#CDTITLE:cdtitle.PNG;
#MUSIC:Shroom Voyage.mp3;
#OFFSET:-0.202;
#SAMPLESTART:1.000;
#SAMPLELENGTH:30.000;
#SELECTABLE:YES;
#BPMS:0.000=162.000;
#STOPS:;
#BGCHANGES:;

//---------------dance-single - ----------------
#NOTES:
     dance-single:
     :
     Medium:
     9:
     0.559,0.569,0.136,0.037,0.000:
0000
0000
0000
0000
,
0000
0000
0000
0000
0100
0100
0010
0000
,
0000
1000
0100
0010
0001
0010
0000
0100
,
0000
0000
0000
0000
1000
0100
0000
0001
,
0000
0100
1000
0100
0100
0000
0100
0000
,
1001
0000
0000
0000
0101
0010
0000
1000
,
0000
0010
0100
0001
0000
0010
0100
1000
,
0000
0000
0000
1000
0100
0010
0001
0010
,
0100
1000
0100
0010
0001
0000
0001
0001
,
0000
0000
0001
0100
0010
1000
0000
0010
,
0000
0100
0010
0100
0000
0001
0000
0010
,
0000
0000
0000
0001
0010
0100
1000
0100
,
0010
0100
0001
0010
0000
0100
0000
0001
,
0100
0000
1000
0100
0010
0001
0010
0100
,
0000
0000
0001
0010
0100
1000
0100
0010
,
0000
0000
0001
0010
0100
1000
0000
0010
,
0100
0000
0001
0010
0100
1000
0000
1000
,
0000
0000
2001
0001
,
0001
0001
0001
0001
,
0001
0001
0001
0001
,
0001
0001
0001
0001
,
0001
0000
3001
0010
0100
1000
0100
0010
,
0100
0010
0001
0010
0000
0000
0000
0001
,
0010
0100
1000
0100
0010
0001
0010
0100
,
0010
0001
0010
0100
1000
0000
0100
0001
,
0000
0000
0001
0010
0100
1000
0100
0010
,
0000
0000
0000
0001
0010
0000
1000
0100
,
0000
0000
0000
0001
0100
0010
1000
0100
,
0000
0100
0000
0010
0001
0010
0100
1000
,
0000
0000
0100
0010
0001
0010
0100
1000
,
0100
0010
0001
0010
0000
0000
0000
0001
,
0010
0100
0100
0000
0001
0000
0001
0000
,
0100
0000
1000
0000
1010
0000
0100
0001
,
0000
0000
0000
0000
,
0000
0000
0000
0000
0001
0100
1000
0100
,
0010
0100
0010
0001
0010
0100
1000
0100
,
0010
0001
0010
0100
1000
0100
0010
0001
,
0010
0100
1000
0100
0010
0100
0010
0100
,
0001
0010
0100
1000
0010
0001
0010
0100
,
1000
0010
0100
0100
0000
0000
0000
0001
,
0010
0100
1000
0100
0010
0100
0001
0010
,
0100
1000
0000
0100
0000
0000
0000
0000
,
0000
0000
1001
0100
,
0100
0100
0100
0100
,
0100
0100
1001
0100
,
0100
0100
0100
0100
,
0010
0010
1010
1000
,
1000
1000
1000
1000
,
1000
1000
1001
0100
,
0011
0100
0101
0000
,
0000
0000
0001
0010
0100
1000
0100
0010
,
0001
0000
0010
0100
0000
0000
0000
0000
,
0000
1000
0100
0010
0001
0010
0100
0000
,
0100
0000
0001
0010
0100
0000
0000
0000
,
0000
1000
0100
0010
0001
0010
0100
1000
,
0100
0010
0100
0001
0000
0000
0000
0001
,
0010
0100
1000
0100
0010
0010
0001
0100
,
0100
0100
1000
1000
0000
0000
0000
0000
,
0000
0000
0000
0000
0001
0010
0100
1000
,
0000
1000
0100
0010
0001
0010
0100
0010
,
0000
0000
0000
0001
0010
0100
1000
0010
,
0100
0001
0010
0100
0100
0100
0010
0010
,
0000
0000
0001
0010
0100
1000
0100
0010
,
0010
0010
0001
0010
0100
1000
0100
0010
,
0000
0000
0000
0000
1001
0100
0010
1000
,
0001
0100
0010
0001
0100
0100
0000
0100
,
0000
0000
1002
1000
,
1000
1000
1000
1000
,
1000
1000
1000
1000
,
1000
0000
1000
0000
1000
0003
0000
0000
,
1001
0000
0000
0000
0001
0010
0100
1000
,
0100
0010
0001
0010
0100
1000
0100
0010
,
0100
0010
0001
0010
0100
1000
0010
0100
,
0001
0010
0100
1000
0010
0100
0001
0010
,
0100
0010
0001
0010
0100
1000
0100
0010
,
0001
0010
0100
0010
0001
0010
0100
1000
,
0100
0010
0001
0100
0010
1000
0100
0010
,
1000
0001
0100
0001
0010
0100
0010
1000
,
0001
0100
0010
1000
1001
0000
0000
0001
,
1000
0010
0100
0001
0010
0001
0100
0010
,
0100
0001
0010
0100
0001
1000
0010
0100
,
0001
0010
0100
1000
0010
0100
0001
0010
,
0100
1000
0100
0001
0010
0000
0000
0000
,
1001
0000
0110
0000
,
1001
0000
0110
0000
,
1001
0000
0110
0000
,
1001
0000
0110
0001
,
0100
0000
1000
0000
1001
0000
1000
0100
,
0001
0010
0100
0000
0001
0010
0100
1000
,
0100
0010
0001
0010
0100
0010
0001
0010
,
0100
1000
0100
0010
0001
0010
0100
0010
,
1000
0100
0010
0001
0010
0100
0010
0001
,
0010
0100
1000
0100
0010
0100
0001
0010
,
0100
1000
0100
0010
0100
0001
0010
0100
,
0001
0010
0001
1000
0100
0010
0001
0100
,
0010
1000
0001
0100
0010
1000
0000
1010
,
0000
0000
0000
0000
0000
0001
0010
0100
,
1000
0000
0100
0010
0001
0010
0000
0100
,
0000
0000
0000
0000
0000
0001
0010
0100
,
1000
0100
0010
0001
0010
0100
0000
1000
,
0000
0000
0000
0000
0000
1000
0100
0010
,
0001
0010
0100
1000
0100
0010
0000
0001
,
0000
0000
0000
0000
0000
0001
0010
0100
,
1000
0100
0010
0000
0100
0001
0000
1001
,
0000
0000
0000
0000
,
0001
0010
0100
1000
0100
0000
0010
0001
,
0000
0100
1000
0000
1100
0000
0000
0000
,
0001
0010
0100
1000
0100
0010
0001
0010
,
0100
0001
0000
0010
0001
0000
0000
0000
,
0001
0100
1000
0100
0010
0001
0010
0100
,
1000
0100
0000
0100
0000
0000
0000
0001
,
0010
0100
1000
0100
0010
0000
0001
0000
,
0001
0100
1000
0100
0000
0100
0001
0100
,
0000
0000
0001
0100
0010
0000
0100
0010
,
1000
0100
0010
0000
0001
0000
0000
0001
,
0100
0010
1000
0010
0100
0001
0010
0100
,
0001
0010
0100
0100
0000
0000
0001
0010
,
0100
1000
0100
0010
0001
0000
0001
0010
,
0100
1000
0100
0010
0000
0000
0000
0000
,
0001
0010
0100
1000
0100
0010
0001
0010
,
0100
0010
1000
0010
0100
0001
0010
0100
,
0202
0000
0000
0000
0000
0000
0000
0303
,
0000
0000
0001
0100
0010
1000
0000
0000
,
0001
0010
0100
1000
0100
0010
0001
0010
,
0100
1000
0100
0010
0001
0010
0100
1000
,
0100
0010
0100
0001
0010
0100
0010
0001
,
0010
0100
1000
0100
0010
0010
0100
0001
,
0100
0010
1000
0001
0100
0010
0100
0001
,
0010
0100
1000
0100
0010
0001
0010
0100
,
1000
0010
0010
0001
0100
0010
1000
0001
,
0100
0010
0100
0001
0010
0100
1000
0100
,
0010
0000
0000
0000
,
2002
0000
3003
0001
0100
0000
0010
0000
,
0100
0001
0010
0100
1000
0100
0010
0001
,
0010
0100
1000
0010
0100
0001
0010
0000
,
0001
0000
1000
0000
0010
0000
0100
0001
,
0010
0100
0000
1000
0100
0010
0001
0010
,
0100
1000
0010
0100
0001
0010
0100
0100
,
0010
0001
1000
0010
0100
0001
0010
0100
,
1000
0010
0100
0001
0010
0100
1000
0010
,
0100
0001
0100
0010
1000
0010
0100
0001
,
0010
0000
0001
0000
0100
0010
0000
0000
,
2002
0000
0000
0000
,
3003
0000
0000
0000
;

//---------------dance-single - ----------------
#NOTES:
     dance-single:
     :
     Hard:
     12:
     0.852,0.837,1.000,0.009,0.000: // measure 1
0000
0000
0000
0000
,  // measure 2
0000
0000
0000
0000
1001
0100
0110
0010
,  // measure 3
0100
0001
0010
0100
0110
0001
0110
0010
,  // measure 4
1010
0010
0100
0001
0011
0100
0010
1000
,  // measure 5
0010
0100
0011
0001
0110
0010
1010
0010
,  // measure 6
0110
0100
0001
0010
1100
0010
0100
0001
,  // measure 7
0010
0100
0010
1000
0110
0001
0011
0100
,  // measure 8
0110
0010
1000
0100
0011
0010
0100
0010
,  // measure 9
1010
0010
0100
0001
0011
0100
1000
0110
,  // measure 10
0000
0000
0110
1000
0011
0001
0100
0010
,  // measure 11
1000
0010
0011
0100
1010
0100
0011
0100
,  // measure 12
0110
0010
0001
0010
0110
1000
0110
0010
,  // measure 13
0100
0001
0010
1010
0100
0001
0010
0101
,  // measure 14
0010
0000
1000
0010
0110
0001
0010
0001
,  // measure 15
0101
0010
1000
0010
0110
0001
0010
0100
,  // measure 16
1100
0010
0100
0001
0101
0010
1000
0010
,  // measure 17
0110
0001
0010
0100
0011
0100
1010
0100
,  // measure 18
1001
0000
0000
0000
1001
0100
0010
0100
,  // measure 19
0001
0010
0001
0100
1010
0100
0010
0100
,  // measure 20
0101
0010
0001
0100
0110
1000
0110
0100
,  // measure 21
0011
0100
1000
0100
1100
0010
0100
0110
,  // measure 22
0001
0010
0100
1000
1010
0100
0001
0100
,  // measure 23
0011
0100
0010
0110
0001
0010
0100
1000
,  // measure 24
0100
0010
0011
0100
1010
0100
0011
1000
,  // measure 25
0110
1001
0110
1001
1010
0101
1010
0011
,  // measure 26
0000
0000
0001
0010
1100
0010
0100
0010
,  // measure 27
1010
0100
0001
0010
0101
0010
0100
0010
,  // measure 28
1010
0100
0010
0100
0110
0001
0010
0001
,  // measure 29
0011
0001
0100
0001
0101
0010
1000
0010
,  // measure 30
1010
0010
0100
0010
0110
0100
0001
0010
,  // measure 31
0011
0001
0100
0001
0110
0010
1000
0010
,  // measure 32
1010
0010
0100
0010
0101
0001
0010
0001
,  // measure 33
0110
0010
1000
0010
0110
1000
0001
0010
,  // measure 34
0110
0000
0000
0000
1001
0000
0100
0010
,  // measure 35
0100
0001
0000
0000
0101
0010
1000
0010
,  // measure 36
0110
0100
0001
0010
0110
0001
0100
0001
,  // measure 37
0011
0001
0100
0010
1010
0010
0100
0010
,  // measure 38
0110
0001
0010
0001
0010
0100
1000
0100
,  // measure 39
0010
0001
0010
0100
1100
0010
0001
0010
,  // measure 40
0011
0100
0010
0100
0110
0010
1000
0010
,  // measure 41
1010
0100
0010
0100
0011
0100
1000
0010
,  // measure 42
0110
1001
0010
0100
1010
0000
0000
0000
,  // measure 43
0000
0001
0100
1000
1010
0100
0001
0010
,  // measure 44
0011
0100
0010
0100
0110
0010
1000
0010
,  // measure 45
1100
0001
0010
0001
0101
0010
1000
0010
,  // measure 46
0110
0010
1000
0100
0011
0100
0010
0100
,  // measure 47
1100
0010
0100
0001
0010
0001
0100
0010
,  // measure 48
1000
0100
0010
0101
0000
0000
0000
0011
,  // measure 49
0100
1000
0010
1000
0110
0100
0001
0010
,  // measure 50
0110
0010
1000
0100
0110
0000
0000
0000
,  // measure 51
0000
0001
0010
0100
0110
1000
0100
0010
,  // measure 52
0110
0001
0010
0100
0011
0100
0010
1000
,  // measure 53
0110
0100
0010
0100
0011
0001
0100
0010
,  // measure 54
1100
0010
0100
0001
0011
0100
0010
0100
,  // measure 55
1100
0010
0100
0001
0010
0100
0001
1000
,  // measure 56
0010
0100
0001
0010
0101
0000
0000
0001
,  // measure 57
1000
0010
0100
0001
0011
0100
0010
1000
,  // measure 58
0110
0010
1000
0110
0000
0000
0000
0000
,  // measure 59
0000
0000
0000
0000
0001
0010
0100
1000
,  // measure 60
0100
0010
0001
0100
0010
0001
0010
0110
,  // measure 61
0001
0010
0100
1000
1100
0001
0100
0101
,  // measure 62
0010
1000
0010
0100
0001
0010
0100
0110
,  // measure 63
0001
0010
0100
1000
1100
0010
0100
0001
,  // measure 64
0010
0110
0001
0100
0010
1000
0001
0100
,  // measure 65
1100
0000
0000
0000
0010
1000
0001
0010
,  // measure 66
0110
0001
1000
0010
0100
0001
0010
1100
,  // measure 67
0000
0000
0000
0000
1001
0100
0010
0100
,  // measure 68
0101
0010
0001
0010
0011
0100
0010
0100
,  // measure 69
0110
1000
0100
1000
1100
0010
0100
0010
,  // measure 70
0110
1000
0001
0010
0110
0000
0000
0000
,  // measure 71
1001
0000
0000
0000
1001
0010
0100
0010
,  // measure 72
0110
0001
0010
0001
0011
0100
0010
1000
,  // measure 73
1100
0010
0100
0010
0110
0001
0010
0001
,  // measure 74
0011
0001
0100
0001
0101
0010
0100
0010
,  // measure 75
1010
0010
0100
0001
0011
0100
1000
0100
,  // measure 76
1100
0010
0100
0010
0110
0001
0010
0001
,  // measure 77
0011
0100
0010
0100
1100
0010
0100
0010
,  // measure 78
0110
0001
0010
0100
0110
1000
0100
0010
,  // measure 79
0110
0000
1001
0000
0001
0010
0100
1000
,  // measure 80
0100
0010
0011
0100
0010
1000
0100
0010
,  // measure 81
0110
0001
0010
0001
0110
0001
1000
0100
,  // measure 82
1100
0010
1000
0100
0110
0001
0010
0100
,  // measure 83
1100
0010
1001
0000
,  // measure 84
1010
0000
0000
0000
1001
0100
0000
0000
,  // measure 85
0010
0100
0000
0000
1001
0100
0000
0000
,  // measure 86
0011
0110
0000
0000
0101
0000
1010
0000
,  // measure 87
1001
0000
0110
0000
1001
0010
0100
1000
,  // measure 88
0100
0010
0001
0010
0110
0000
0000
0000
,  // measure 89
0000
0000
1001
0000
0110
1001
0000
0000
,  // measure 90
0010
0100
0001
0010
0110
0001
1000
0100
,  // measure 91
1100
0010
0100
0001
0101
0010
0100
0010
,  // measure 92
0110
0001
0010
0001
0011
0100
1000
0100
,  // measure 93
1100
0010
0100
0010
0110
0001
0010
0001
,  // measure 94
0011
0100
1000
0100
1100
0010
0100
0010
,  // measure 95
0110
0001
0010
0001
0011
0100
0001
0100
,  // measure 96
0101
0010
0100
0010
1010
0100
0010
1000
,  // measure 97
0100
0010
0010
0001
0100
0001
0010
0100
,  // measure 98
1100
0010
0100
0001
0011
0100
0010
0100
,  // measure 99
0110
0010
1000
0010
1010
0100
0001
0100
,  // measure 100
0101
0010
0100
0010
1010
0100
0010
0100
,  // measure 101
0011
0100
0010
0100
0011
0100
0010
0100
,  // measure 102
1100
0010
0100
0010
1100
0010
0100
0010
,  // measure 103
0101
0010
1000
0010
0110
0010
0100
0001
,  // measure 104
0011
0100
0010
0100
0110
1000
0010
1000
,  // measure 105
0110
1000
0001
0010
0100
1000
0100
0010
,  // measure 106
0110
0001
0100
0010
1000
0100
0010
0100
,  // measure 107
0010
0001
1000
0010
0110
0000
0000
0000
,  // measure 108
0011
0100
1000
0100
0010
0001
0010
0100
,  // measure 109
1000
0100
0010
0011
0100
0000
0100
0000
,  // measure 110
0110
1000
0001
0010
0110
0001
0010
0100
,  // measure 111
0101
0010
1000
0010
1100
0010
0100
0001
,  // measure 112
0011
0100
0010
1000
0110
0000
0011
0000
,  // measure 113
1001
0000
0110
1001
0000
0011
1100
0110
,  // measure 114
0000
0000
1001
0000
0110
0100
0001
0010
,  // measure 115
0001
0100
0010
1000
1010
0100
0001
0010
,  // measure 116
0101
0010
0100
0010
1000
0010
1000
0010
,  // measure 117
0110
0001
0010
0001
0011
0100
0010
0100
,  // measure 118
0010
1000
0100
0001
0011
0001
0100
0010
,  // measure 119
1100
0010
0100
0001
0011
0100
0010
1000
,  // measure 120
1100
0010
0100
0001
0011
0100
0010
0100
,  // measure 121
0110
1000
0001
1000
0010
0100
0001
0010
,  // measure 122
1001
0000
0000
0000
,  // measure 123
1001
0100
0010
0100
0001
0010
0000
0000
,  // measure 124
0011
0100
1000
0100
1100
0010
0100
0010
,  // measure 125
0110
0001
0010
0001
0011
0001
0100
0001
,  // measure 126
0101
0010
1000
0010
1010
0100
0010
0100
,  // measure 127
0101
0010
0100
0010
0101
0010
1000
0100
,  // measure 128
0110
0010
1000
0001
0101
0010
1000
0100
,  // measure 129
1100
0001
0010
0001
0101
0010
1000
0010
,  // measure 130
0110
0001
0010
0001
1000
0010
0100
1001
,  // measure 131
0000
0001
0100
0010
1000
0100
0010
0100
,  // measure 132
0110
0000
0000
1001
,  // measure 133
0110
0100
0001
0010
0110
0001
0010
0100
,  // measure 134
1100
0010
0100
0001
0101
0010
0100
0010
,  // measure 135
0110
0010
1000
0010
0100
0000
0000
0000
,  // measure 136
1001
0100
0010
0100
0110
0001
0010
0001
,  // measure 137
0011
0100
0010
0100
0110
0010
1000
0010
,  // measure 138
1010
0100
0010
0100
0011
1000
0100
1000
,  // measure 139
1100
0010
0100
0010
0110
0001
0010
0100
,  // measure 140
0110
1000
0010
0100
0011
0100
0010
1000
,  // measure 141
1100
0010
0100
0001
0011
0100
0010
1000
,  // measure 142
1001
0000
0000
0000
,  // measure 143
0000
0000
0000
2002
0000
0000
0000
0000
,  // measure 144
3003
0000
0000
0000
;
