#TITLE:Pudding Apocalypse;
#SUBTITLE:;
#ARTIST:Billy Murphy;
#TITLETRANSLIT:;
#SUBTITLETRANSLIT:;
#ARTISTTRANSLIT:;
#CREDIT:;
#BANNER:Pudding Apocalypse.PNG;
#BACKGROUND:Pudding Apocalypse-bg.PNG;
#LYRICSPATH:Pudding Apocalypse.LRC;
#CDTITLE:cdtitle.PNG;
#MUSIC:Pudding Apocalypse.mp3;
#OFFSET:-0.048;
#SAMPLESTART:44.500;
#SAMPLELENGTH:30.000;
#SELECTABLE:YES;
#BPMS:0.000=130.399;
#STOPS:;
#BGCHANGES:;

//---------------dance-single - ----------------
#NOTES:
     dance-single:
     :
     Hard:
     14:
     1.000,0.850,0.138,0.000,1.000: // measure 1
0000
0000
0000
0000
0001
0010
0100
0001
0011
0000
0000
0000
0000
0000
0000
0000
,  // measure 2
0000
0100
0010
0001
0010
0100
0001
0010
0110
0000
0001
0010
0100
0001
0010
0100
,  // measure 3
1000
0000
0000
0000
0000
0000
0000
0000
1000
0100
0010
0001
0010
0000
0000
0000
,  // measure 4
0001
0010
0100
0001
0010
0100
0001
0010
1000
0000
0000
0000
0000
0000
0000
0000
,  // measure 5
1000
0100
0010
0001
0010
0100
0001
0010
0001
0000
0000
0000
0000
0000
0000
0000
,  // measure 6
0001
0000
0010
0000
0110
0000
1000
0000
1100
0000
1000
0100
0010
0000
0001
0000
,  // measure 7
0010
0100
0001
0010
0100
0001
0010
1000
1100
0000
0000
0000
0000
0000
0100
0000
,  // measure 8
0001
0000
0010
0000
1000
0100
0010
0001
0010
0100
0001
0010
0100
0001
0010
0100
,  // measure 9
1000
0000
0000
0000
0000
0000
0000
0000
0001
0100
0010
0100
0001
0010
0100
0001
,  // measure 10
0010
1000
1000
0100
0010
0001
0010
0100
0001
0010
0100
0001
0010
0100
0001
0010
,  // measure 11
0100
0001
0010
1000
0100
0010
0100
0001
0010
0100
0001
0010
0100
0001
0010
0100
,  // measure 12
0001
0010
0100
0001
0010
0100
1000
0100
0010
0100
0001
0010
0100
0001
0010
0100
,  // measure 13
0001
0010
0001
0010
0100
1000
0100
0010
0001
0010
0100
0001
0010
0100
0001
0010
,  // measure 14
0001
0010
0001
0010
0100
1000
0100
1000
0100
0010
0001
0010
0100
0001
0010
0100
,  // measure 15
0001
0010
0100
1000
0100
0010
0001
0010
0100
0001
0010
0100
1000
0100
0001
0010
,  // measure 16
0100
0001
0010
0100
0001
0010
0100
0100
0010
0001
0010
0100
1000
0100
0010
0001
,  // measure 17
0001
0000
0000
0000
0000
0000
0000
0000
1000
0100
0010
0001
0010
0100
0001
0010
,  // measure 18
0100
0001
0010
0100
0001
0010
0100
0001
0010
0001
0010
0100
1000
0100
0010
0100
,  // measure 19
0001
0010
0100
0001
0010
0100
0001
0010
0100
0001
0010
0100
1000
0100
0100
0010
,  // measure 20
0001
0010
0100
0001
0010
0100
0001
0010
0100
0001
0010
0100
0001
0010
1000
0100
,  // measure 21
0010
0001
0010
0001
0010
0100
0001
0010
0100
0001
0010
0100
1000
0100
0010
0001
,  // measure 22
0010
0100
0001
0010
0100
0001
0010
0100
1000
0100
0010
0001
0100
0010
0001
0010
,  // measure 23
0100
0001
0010
0100
1000
0100
0010
0001
0010
0001
0010
0100
1000
0100
0010
0001
,  // measure 24
0010
0100
0001
0010
0100
0001
0010
1000
0100
0010
0001
0010
0100
1000
0010
0001
,  // measure 25
0001
0000
0000
0000
0000
0000
0000
0000
0100
0010
0001
0010
0100
0001
0100
1000
,  // measure 26
0100
0010
0001
0010
0100
0001
0010
0100
0001
0010
0100
0001
0010
0100
0001
0010
,  // measure 27
0100
0010
0001
0010
1000
0100
0010
0100
0001
0010
0100
0001
0010
0100
0001
0010
,  // measure 28
1000
0100
0010
0001
0010
0100
0010
0100
0001
0010
0100
0001
0010
1000
0100
0010
,  // measure 29
0001
0010
0100
0001
0010
0100
0001
0010
0100
1000
0100
0001
0010
0100
0000
0010
,  // measure 30
0100
1000
0100
0010
0001
0010
0100
0001
0010
0100
1000
0100
0010
0001
0010
0100
,  // measure 31
0001
0010
0100
0001
0010
0100
1000
0100
0010
0001
0010
0100
0001
0010
0100
1000
,  // measure 32
0100
0010
0001
0010
0100
0001
0010
0100
0001
0010
0100
1000
0100
0010
0001
0010
,  // measure 33
0100
0000
0000
0000
0000
0000
0000
0000
1000
0100
0010
0001
0010
0100
0001
0100
,  // measure 34
0001
0010
0100
1000
0010
0001
0010
0100
0001
0010
0100
0001
0010
0100
0001
0010
,  // measure 35
0100
0001
0100
1000
0100
0010
0100
0001
0010
0100
1000
0100
0010
0100
0010
0001
,  // measure 36
0010
0100
0001
0010
0001
0010
0100
0001
0010
0100
0001
0010
0100
0100
0010
0001
,  // measure 37
0010
0100
0001
0010
0100
0001
0010
0100
1000
0100
0010
0001
0010
0100
0001
0010
,  // measure 38
0100
0001
0010
0100
0001
0010
1000
0100
0010
0001
0010
0100
0001
0010
0100
1000
,  // measure 39
0100
0010
0100
0001
0010
0100
0001
0010
0100
1000
0100
0010
0001
0010
0100
0001
,  // measure 40
0010
0100
0010
0100
1000
0100
0010
0001
0010
0100
1000
0010
0001
0010
0100
0001
,  // measure 41
0010
0000
0000
0000
0100
0010
0001
0010
0100
0001
0010
0100
1000
0100
0010
0001
,  // measure 42
0010
0000
0010
0100
0001
0000
0001
0010
1000
0000
0100
0010
0001
0010
0100
0001
,  // measure 43
0010
0100
0001
0010
0100
1000
0100
0010
0001
0000
0000
0000
0010
0100
0001
0010
,  // measure 44
0100
0001
0010
0100
1000
0100
0010
0001
0001
0000
0000
0000
0001
0000
0010
0000
,  // measure 45
0001
0010
0100
1000
0100
0010
0001
0010
0100
0001
0010
0100
0001
0010
0100
0000
,  // measure 46
0001
0010
0100
1000
0100
0010
0100
0001
0010
0000
0000
0000
0001
0000
0001
0010
,  // measure 47
0100
0001
0010
0100
1000
0100
0010
0100
0001
0010
0100
0001
0010
0100
0001
0010
,  // measure 48
1000
0100
0010
0100
0001
0010
0100
0001
0010
0100
1000
0100
0010
0001
0010
0100
,  // measure 49
0001
0010
0100
0001
0010
1000
0100
0010
0100
0010
0100
1000
0100
0001
0010
0100
,  // measure 50
1000
0010
0001
0010
0100
0001
0010
0100
0010
0001
0000
0000
0000
0000
0000
0000
,  // measure 51
0100
0001
0010
0100
0001
0010
1000
0100
0010
0001
0010
0001
0010
0100
0001
0010
,  // measure 52
0100
1000
0100
0010
0100
0001
0010
0100
0010
0100
0001
0010
0100
0010
0001
0010
,  // measure 53
0100
1000
0100
0010
0100
0001
0100
0001
0010
0100
0001
0010
0100
0001
0010
0100
,  // measure 54
1000
0100
0010
0001
0010
0100
0001
0010
0100
0001
0010
0100
0010
0100
1000
0100
,  // measure 55
0010
0001
0010
0100
0001
0010
0100
0001
0010
0100
1000
0100
0010
0100
0010
0001
,  // measure 56
0010
0100
1000
0100
0010
0100
0001
0010
0100
0001
0010
0100
0001
0010
0100
0100
,  // measure 57
0010
0001
0010
0100
0001
0010
0100
0001
0010
0100
0010
0001
0010
0100
1000
0100
,  // measure 58
0010
0001
0010
0100
0001
0010
1000
0100
0001
0000
0000
0000
0000
0000
0000
0000
,  // measure 59
0100
0001
0010
0100
0001
0010
1000
0100
0010
0100
0001
0010
0100
0001
0010
0100
,  // measure 60
0001
0010
0100
0001
0010
1000
0100
0010
1000
0100
0010
0100
0001
0010
0100
0001
,  // measure 61
0010
0100
0001
0010
0100
0001
0010
0100
0001
0010
0100
1000
0100
0010
0100
0001
,  // measure 62
0010
0100
0001
0010
0100
0001
0010
0001
0010
0100
1000
0100
0010
0100
0010
0001
,  // measure 63
0010
0100
0001
0010
1000
0100
0010
0100
0001
0010
0100
1000
0010
0100
0100
0001
,  // measure 64
0010
0100
0001
0010
0100
0001
0010
0100
1000
0100
0001
0010
0100
0001
0010
0100
,  // measure 65
1000
0100
0010
0001
0100
0010
0001
0010
1000
0100
0001
0010
0100
0001
0010
1000
,  // measure 66
0100
0001
0010
0100
0001
0010
0100
0001
0010
0000
0000
0000
0000
0000
0000
0000
,  // measure 67
0001
0010
0100
0001
0100
0001
1000
0100
0001
0010
0100
0001
0010
0001
0010
0100
,  // measure 68
0001
0010
0100
0001
0010
1000
0100
0010
0100
0001
0010
0100
0010
0100
0100
0010
,  // measure 69
0100
0001
0010
0100
1000
0010
0100
0010
0100
0001
0010
0100
0001
0010
0100
0001
,  // measure 70
0010
0001
1000
0100
0100
0010
0001
0010
0100
0001
0010
1000
0100
0010
0100
0001
,  // measure 71
0010
0001
0010
0100
0001
0010
0100
1000
0100
0010
0100
0001
0010
0100
0010
0001
,  // measure 72
0010
1000
0100
0010
0100
0001
0010
0100
0001
0010
0100
0001
0010
1000
0100
1000
,  // measure 73
0100
0001
0010
0001
0010
0100
0010
0001
0100
0100
0010
0001
1000
0100
0010
1001
,  // measure 74
0100
0010
0001
0010
0100
0001
0010
0100
0100
0000
0000
0000
0000
0000
0000
0000
,  // measure 75
0100
0010
0001
0010
0100
0001
0010
0100
0010
0001
0010
0100
0001
0010
0100
0010
,  // measure 76
0100
0001
0010
1000
0100
0010
0001
0010
0001
0010
0100
1000
0100
0010
0001
0010
,  // measure 77
0100
0001
0010
0100
0001
0010
1000
0100
0010
0001
0010
0001
0010
0100
0001
0010
,  // measure 78
0100
0001
0010
1000
0100
0001
0100
0010
0001
0010
0100
0001
0100
0010
0001
0010
,  // measure 79
1000
0100
0010
0001
0010
0100
0001
0010
0100
0001
0010
0100
0001
0010
0100
0001
,  // measure 80
0010
0100
1000
0100
0010
0001
0010
0100
0001
0010
0100
1000
0010
0001
0010
0100
,  // measure 81
0001
0010
0100
1000
0100
0010
0001
0010
0100
0001
0010
1000
0100
0001
0100
0010
,  // measure 82
0010
1000
0100
0001
0010
0100
1000
0100
0001
0000
0000
0000
0000
0000
0000
0000
,  // measure 83
0001
0010
0100
0001
0010
1000
0100
0010
0001
0100
0010
0001
0010
0100
0001
0010
,  // measure 84
1000
0100
0001
0010
0100
0001
0010
0100
1000
0100
0010
0001
0010
0001
0010
0100
,  // measure 85
0001
0010
1000
0100
0010
0100
0001
0010
0100
0001
0010
0100
0001
0010
1000
0100
,  // measure 86
0010
0001
0010
0100
0010
0100
0001
0010
1000
0100
0001
0010
0100
0010
0001
0010
,  // measure 87
0100
0001
0010
0100
0001
0010
1000
0100
0010
0001
0010
0100
0001
0010
0100
0001
,  // measure 88
0010
1000
0100
0010
0001
0010
0100
0010
0100
0000
1000
0100
0001
0010
0100
0001
,  // measure 89
0010
0100
1000
0010
0001
0010
0100
0001
0010
0100
1000
0010
0001
0010
0100
0001
,  // measure 90
0010
0100
0001
0010
1000
0100
0001
0010
1000
0000
0000
0000
0000
0000
0000
0000
,  // measure 91
0001
0010
0100
0001
0010
0000
0000
0000
0001
0010
0100
0001
0010
1000
0100
0001
,  // measure 92
0010
0100
0001
0010
1000
0010
0001
0010
0100
0001
0010
0100
0001
0010
0100
0001
,  // measure 93
0010
1000
0100
0010
0001
0010
0100
0001
0010
0000
0010
0100
1000
0100
0010
0001
,  // measure 94
0010
0100
0001
0010
0100
0001
0010
1000
0100
0000
0000
0000
0100
0000
1000
0000
,  // measure 95
1000
0100
0001
0010
0100
0001
0010
0100
0001
0010
0100
0010
0001
0010
1000
0100
,  // measure 96
0010
0001
0010
0100
0010
0001
1000
0100
0010
0000
0000
0000
0001
0000
0001
0000
,  // measure 97
0011
0000
0100
0001
0010
1000
0100
0001
0010
0100
0001
0010
0100
1000
0100
0001
,  // measure 98
0010
1000
0010
0001
0010
0100
1000
0100
0001
0010
1000
0100
0010
0001
0010
0100
,  // measure 99
0001
0000
0000
0000
0100
1000
0000
1000
,  // measure 100
1100
0110
0011
0000
0000
0000
0000
0010
,  // measure 101
0101
1010
0000
0000
0000
0000
1001
0000
,  // measure 102
0110
0000
0000
0000
0000
0000
0000
0000
0001
0010
0100
0010
0001
0010
1000
0100
,  // measure 103
0010
0000
0000
0000
1001
0100
0000
0010
,  // measure 104
0110
0011
0000
0000
0000
0000
0000
1000
,  // measure 105
1100
0100
0000
0000
0101
0000
1010
0000
,  // measure 106
0110
0000
0000
0000
0011
0000
0000
0000
0110
0000
1000
0100
0010
0001
0010
0100
,  // measure 107
1100
0000
0000
1000
1100
0110
0000
0001
,  // measure 108
0010
0000
0000
0000
,  // measure 109
0000
0000
0000
1001
0010
0100
0000
1000
,  // measure 110
0110
0000
0000
0000
0000
0000
0000
0000
0000
0000
0001
0000
0010
0100
0010
0001
,  // measure 111
0110
0000
0001
0010
0100
0000
0000
0000
,  // measure 112
0110
0011
0110
1001
,  // measure 113
0100
0001
0010
0100
0001
0010
0100
0001
0010
1000
0100
0010
0001
0010
0100
0001
,  // measure 114
0010
0100
0001
0010
0100
1000
0100
0010
0001
0010
0100
0001
0010
0100
0001
0010
,  // measure 115
0100
1000
0100
0010
0001
0010
0100
0001
0010
0100
1000
0100
0010
0001
0010
0100
,  // measure 116
0001
0010
0100
0001
0010
0100
0001
0010
0100
1000
0100
0010
0001
0010
0100
0001
,  // measure 117
0010
0100
0001
0010
1000
0100
0010
0001
0010
0100
0001
0010
0100
0001
0010
0100
,  // measure 118
0010
0001
0010
0100
1000
0100
0010
0001
0010
0100
0001
0010
0100
0001
0010
1000
,  // measure 119
0100
0010
0001
0010
0100
0001
0010
0100
0001
0010
0100
0010
0001
0010
1000
0100
,  // measure 120
0010
0001
0010
0100
0001
0010
0100
0001
0010
1000
0100
0100
0001
0010
0100
0001
,  // measure 121
0010
0100
0001
0010
1000
0100
0001
0010
0100
1000
0001
0010
1000
0100
0001
0010
,  // measure 122
0100
0001
0010
1000
0100
0010
0001
0010
0001
0010
0100
0001
0010
1000
0100
0010
,  // measure 123
0001
0010
0100
0010
0001
0100
0001
0010
0100
0001
0010
0100
1000
0100
0010
0001
,  // measure 124
0010
0100
0001
0010
0100
0001
0010
0100
0100
0001
0000
0000
0000
0000
0000
0000
;

//---------------dance-single - ----------------
#NOTES:
     dance-single:
     :
     Medium:
     10:
     0.527,0.491,0.171,0.000,0.000:
0000
0000
1001
0000
,
0001
0100
0001
0010
0011
0010
0110
1000
,
1100
0000
0000
0000
1000
0100
0001
0000
,
0001
0010
0100
0001
0010
0100
0010
0001
,
0011
0000
0000
0000
0001
0010
0110
0000
,
0001
0010
1000
0100
0010
0001
0010
0100
,
0110
0000
0001
0010
0100
0010
0001
0010
,
1000
0100
0010
0001
0011
0100
0010
0100
,
1100
0000
0000
0000
1001
0100
0010
0100
,
0101
0000
0010
0100
0001
0010
0100
1000
,
1100
0000
0000
0000
0110
1000
0100
0001
,
0010
0100
0001
0010
0100
1000
0010
0001
,
0011
0000
0000
0000
0001
0010
0100
0001
,
0010
0100
0001
0010
1000
0100
0010
0001
,
0110
0000
0001
0010
0100
0010
0001
0010
,
0000
0001
0010
0100
1100
0100
0010
0001
,
0011
0000
0000
0000
0001
0010
0100
1000
,
0100
0010
0100
0001
0010
0100
0001
0010
,
0110
0000
0100
0010
0001
0010
0100
0001
,
0010
0100
0001
0010
0100
1000
0100
0001
,
0010
0000
0000
0000
0001
0010
0100
0001
,
0010
0000
0000
1000
0100
0001
0010
0100
,
0001
0000
0001
0010
0100
0001
0010
0100
,
1000
0010
0100
0001
0010
0100
0001
0010
,
0100
0000
0000
0000
1000
0100
0010
0000
,
0001
0010
0100
0001
0010
0100
1000
0000
,
1000
0100
0010
0001
0010
0100
0001
0000
,
0001
0010
0100
0001
0010
0100
1000
0100
,
0010
0001
0010
0000
0001
0010
0100
0010
,
0001
0010
0100
1000
0100
0010
0001
0010
,
0100
0000
0001
0010
0100
0001
0010
0100
,
1000
0100
0001
0010
0100
0001
0010
0100
,
1000
0000
0000
0000
0100
0001
0100
0001
,
0010
0100
1000
0100
0001
0010
0100
0001
,
0010
0100
0001
0010
0001
0010
0100
1000
,
0010
0100
0001
0010
0100
0001
0010
0100
,
0001
0010
0100
1000
0100
0010
0001
0010
,
0001
0010
0100
0010
1000
0100
0100
0001
,
0010
0100
0001
0010
0100
0001
0010
0100
,
0001
0010
1000
0100
0010
0001
0010
0100
,
1000
0000
0000
0000
0100
0001
0010
0100
,
0001
0010
0100
0000
0100
0010
0001
0000
,
0001
0010
0100
1000
0100
0010
0001
0010
,
0100
0001
0010
0100
0001
0010
0100
1000
,
0100
0000
0100
0001
0010
0100
0001
0010
,
0100
0001
0010
0100
1000
0000
1000
0100
,
0010
0001
0100
0001
0010
0100
0001
0010
,
0100
1000
0010
0001
0010
0100
0001
0010
,
0100
1000
0010
0001
0010
0100
1000
0100
,
0010
0001
0010
0100
0001
0000
0000
0000
,
0001
0010
0100
1000
0100
0000
0100
0001
,
0010
0100
0001
0010
0100
0000
0010
0100
,
0001
0010
0100
0010
1000
0100
0000
0010
,
0001
0010
0001
0100
0010
0000
1000
0100
,
0010
0001
0010
0100
0001
0010
0001
0010
,
0100
0001
0010
0100
1000
0000
1000
0100
,
0001
0010
0100
0001
0010
0100
0001
0010
,
0100
1000
0100
0001
0010
0000
0000
0000
,
1001
0100
0010
0001
0100
0001
0010
0100
,
0010
0100
0001
0010
1000
0100
0010
0001
,
0100
0001
0010
0100
0001
0010
0100
1000
,
0100
0010
0001
0010
0100
1000
1000
0100
,
0001
0010
0100
0001
0010
0100
0001
0010
,
0100
0010
0001
0010
1000
0100
0010
0001
,
0010
0001
0010
0100
1000
0100
0010
0001
,
0010
0100
1000
0010
0001
0000
0000
0000
,
1001
0100
0001
0010
0100
0001
0010
0100
,
1000
0000
0000
0000
0000
0100
0010
0001
,
0010
0100
0000
0100
0010
0001
0010
1000
,
0100
0000
0000
0000
,
1010
0110
0101
0011
,
0110
0000
1001
0000
0110
0000
0000
0001
,
0100
1000
0100
0001
0100
0010
0001
0100
,
0001
0010
0100
1000
0100
0000
0000
0000
,
0100
0001
0010
0100
0001
0010
0100
1000
,
0100
0010
0001
0010
0100
0001
0010
0100
,
0001
0010
0100
0010
1000
0100
1000
0100
,
0010
0001
0010
0100
0001
0010
0100
1000
,
0100
0010
0001
0010
0100
0010
0001
0010
,
0100
1000
0100
0001
0010
0100
0001
0010
,
0100
1000
0100
0010
0001
0010
0100
0010
,
0001
0100
0010
0001
1000
0000
0000
0000
,
0100
0001
0010
0100
0001
0010
0001
0000
,
0001
0010
0100
1000
0100
0010
0001
0000
,
0001
0010
0100
0001
0010
0100
0001
0010
,
0100
1000
0100
0001
0100
0000
0100
0001
,
0010
0100
0001
0010
0010
0001
0010
0100
,
1000
0100
0001
0010
0100
0000
0001
0010
,
0100
0001
0010
0100
1000
0100
0010
0100
,
0001
0010
0100
1000
0100
0000
0000
0000
,
0100
0001
0010
0100
0010
0001
0010
0001
,
0010
1000
0100
1000
0100
0010
0001
0010
,
0100
0001
0010
0100
0001
0010
0100
0001
,
0010
0100
0010
0001
0010
0100
1000
0100
,
0010
0001
0010
0100
0001
0010
0100
1000
,
0100
0010
0001
0010
0100
0001
0010
0100
,
1000
0100
0001
0100
1000
0010
0001
0010
,
0100
0001
0010
1000
1100
0000
0101
0000
,
1010
0000
0000
0000
0100
0001
0010
0000
,
0100
0010
0100
0000
0001
0010
1000
0000
,
1000
0100
0010
0000
0001
0010
0100
0001
,
0010
0000
0000
0000
0010
0100
0001
0010
,
1000
0000
1000
0100
0010
0000
0001
0010
,
0100
0000
0100
0001
0010
0000
0010
1000
,
0100
0000
0100
0001
0010
0000
0100
0010
,
0011
1000
1100
0110
,
0011
0000
0001
0010
0100
0001
0010
0000
,
0001
0000
0010
0100
0001
0010
1000
0100
,
0010
0000
0001
0000
0110
0001
0010
0100
,
0001
0001
1100
0100
,
0110
0000
0000
0000
0001
0100
1000
0100
,
0001
0100
0010
0001
,
0001
0010
0100
0000
0010
0100
1000
0000
,
1000
0100
0010
0001
0010
0100
0001
0000
,
0001
0010
0100
0010
0001
0010
0100
1000
,
0100
0010
0001
0010
0110
0000
0000
0000
,
1001
0100
0010
0100
0010
0100
0001
0010
,
1000
0100
0010
0100
0010
0001
0010
0100
,
0001
0010
0100
1000
0100
0001
0100
0010
,
0001
0010
0100
0001
0010
0100
1000
0010
,
0100
0001
0010
0100
0001
0010
0100
1000
,
0100
0010
0001
0010
0100
0001
0010
0100
,
0001
0010
0100
0001
0010
0100
0001
0010
,
1000
0100
0010
0001
0011
0000
0000
0000
,
1001
0000
0000
0000
;
