#TITLE:Priscilla the Satanic Goth Princess;
#SUBTITLE:;
#ARTIST:Ryan Dreadstar;
#TITLETRANSLIT:;
#SUBTITLETRANSLIT:;
#ARTISTTRANSLIT:;
#CREDIT:;
#BANNER:Priscilla the Satanic Goth Princess.PNG;
#BACKGROUND:Priscilla the Satanic Goth Princess-bg.PNG;
#LYRICSPATH:Priscilla the Satanic Goth Princess.LRC;
#CDTITLE:cdtitle.PNG;
#MUSIC:Priscilla the Satanic Goth Princess.mp3;
#OFFSET:-0.392;
#SAMPLESTART:44.500;
#SAMPLELENGTH:30.000;
#SELECTABLE:YES;
#BPMS:0.000=148.000;
#STOPS:;
#BGCHANGES:;

//---------------dance-single - ----------------
#NOTES:
     dance-single:
     :
     Medium:
     9:
     0.487,0.549,0.307,0.009,0.000:
0000
0000
0000
0000
,
0000
0000
0000
0000
,
0000
0000
0000
0000
,
0000
0000
0000
0000
,
0000
0000
0001
0100
0001
0000
0001
0010
,
0100
0000
1000
0100
0010
0000
0001
0010
,
0100
0001
0010
1000
,
1001
0110
0011
1100
,
1001
0000
0100
0001
0001
0000
0001
0010
,
0100
0000
1000
0100
0001
0010
0100
0000
,
0001
0010
0100
0001
0010
0100
0001
0010
,
0100
1000
0100
0000
0100
0010
0001
0000
,
0011
0110
1010
0110
,
1001
0110
1001
0110
,
0010
1000
0100
0001
0100
1000
0100
0010
,
0001
0010
0100
0001
0010
0100
1000
0100
,
0011
0110
1100
0110
,
0011
0110
0011
0110
,
1100
0000
1000
0100
0010
0001
0010
0100
,
0001
0010
0100
1000
0100
0000
0101
0000
,
0001
0010
0100
0001
0010
0000
0001
0000
,
0001
0010
0100
1000
0100
0010
0001
0000
,
0001
0010
0100
0001
0010
0000
0001
0000
,
0001
0010
0100
1000
0100
0010
0001
0000
,
0001
0010
0100
0000
0001
0010
0100
0000
,
1000
0100
0010
0000
0001
0010
0100
0000
,
0001
0010
0100
0000
1000
0100
0001
0000
,
1001
0000
0000
0000
0001
0100
0010
0000
,
0011
0000
0000
0001
0010
0100
1000
0100
,
0010
0000
0010
0100
0001
0010
0100
0001
,
0010
0000
0001
0010
0100
1000
0100
0010
,
0001
0000
0000
0001
0010
0100
0001
0010
,
0100
0000
0001
0010
0100
1000
0100
0010
,
0000
0000
0000
0001
0010
0100
0001
0010
,
0000
0001
0010
0100
1000
0100
0010
0001
,
0000
0001
0010
0100
1000
0000
0000
0000
,
0100
0001
0010
0100
0001
0000
0001
0010
,
0100
0000
1000
0100
0010
0000
0001
0010
,
0100
0001
0010
0100
1000
0100
0010
0001
,
0010
0000
0000
0000
,
0100
0001
0010
0000
0001
0010
0100
0010
,
0001
0010
0100
0000
1000
0100
0010
0001
,
0010
0100
0001
0000
0001
0010
0100
1000
,
0100
0001
0010
0000
0001
0010
0100
1000
,
0100
1001
0100
0110
,
0001
0011
1000
1100
,
0100
0001
0010
0100
0001
0000
0000
0000
,
0001
0010
0100
1000
0100
0000
0000
0000
,
1100
0110
0011
0110
,
1001
0110
1001
0011
,
1001
0000
0001
0010
0100
1000
0100
0000
,
0100
0010
0001
0010
0100
1000
1100
0000
,
0001
0000
0010
0100
0001
0000
0001
0010
,
0100
1000
0100
0010
0001
0000
0001
0010
,
0100
0001
0010
0100
1000
0000
1000
0100
,
0010
0000
0011
0000
,
1001
0100
0001
0010
,
1000
0100
0001
0000
0001
0100
1000
0000
,
1000
0100
0010
0001
0010
0100
0010
0001
,
0011
0000
0000
0000
0001
0100
0001
0000
,
0001
0010
0100
1000
0100
0010
0001
0000
,
0001
0010
0100
0001
0010
0100
1000
0000
,
1000
0100
0010
0001
0010
0100
0001
0000
,
0001
0010
0100
0001
0010
0100
1000
0000
,
1000
0100
0010
0001
0010
0100
0001
0000
,
0001
0010
0100
0001
0010
0100
1000
0000
,
1000
0100
0010
0001
0010
0100
0001
0010
,
0100
0010
0001
0010
0000
0000
0000
0000
,
0001
0010
0100
0001
0010
0100
1000
0100
,
0010
0001
0010
0100
0001
0010
0100
0001
,
0010
0100
1000
0100
0010
0001
0010
0100
,
1000
0100
0001
0000
0011
0000
0000
0000
,
0100
0001
0010
0100
0001
0010
0100
1000
,
0100
0010
0001
0010
0100
0000
0000
0000
,
0001
0010
0100
1000
0100
0010
0001
0010
,
0100
0001
0010
0100
1000
0000
0000
0000
,
1001
0000
0110
0000
1000
0100
0010
0000
,
0001
0010
0100
0001
0010
0100
0001
0000
,
0001
0010
0100
0001
0010
0100
1000
0000
,
1000
0100
0010
0001
0010
0100
0001
0010
,
0100
0001
0001
0000
0001
0010
0100
1000
,
0100
0001
0010
0100
0001
0010
0100
0000
,
0001
0010
0100
0010
0001
0010
0100
1000
,
0100
0010
0100
1000
0010
0100
0001
0010
,
0100
0001
0010
0100
0001
0000
0001
0000
,
0001
0010
0100
1000
0100
0010
0001
0000
,
0001
0010
0100
0001
0010
0100
1000
0100
,
0001
0010
0100
1000
1001
0000
0000
0000
,
1001
0100
0110
1001
,
0110
0100
1001
0010
,
0011
0100
0101
1000
,
1100
0100
0110
0010
,
0011
0100
0110
1000
,
1100
0100
0011
0100
,
1010
0000
1001
0000
,
0110
0000
0000
0000
,
1000
0100
0010
0000
0001
0010
0100
0001
,
0010
0000
0001
0010
0100
0001
0010
0100
,
1000
0000
1000
0100
0010
0001
0010
0100
,
0001
0000
0001
0010
0100
0001
0010
0100
,
1000
0000
1000
0100
0010
0001
0010
0100
,
0001
0000
0001
0010
0100
0001
0010
0100
,
1000
0000
1000
0100
0010
0100
0010
0001
,
0010
0100
1000
0100
0000
0000
0000
0000
,
0001
0100
1000
0100
0001
0100
1000
0100
,
0010
0001
0010
0100
0001
0010
0100
1000
,
0100
0010
0001
0010
0100
0001
0010
0100
,
1000
0100
0001
0010
1001
0000
0000
0000
,
0001
0100
0001
0000
0001
0010
0100
0000
,
1000
0010
0100
0001
0010
0100
0001
0000
,
0001
0010
0100
0000
0100
0010
0001
0010
,
0100
1000
0100
0010
0001
0010
0100
0000
,
0001
0010
0100
0000
0100
0010
0001
0000
,
0001
0010
0100
1000
0100
0010
0001
0010
,
0100
0001
0010
0100
1000
0100
0001
0010
,
0100
0000
0000
0000
,
1001
0000
0000
0000
,
0110
0000
1001
0000
,
0220
0000
0000
0000
,
0000
0000
0000
0000
,
0000
0000
0000
0000
,
0000
0000
0000
0000
,
0000
0000
0000
0000
,
0000
0000
0000
0000
,
0000
0000
0000
0000
,
0000
0000
0000
0000
,
0000
0000
0000
0000
,
0000
0000
0000
0000
,
0000
0000
0000
0000
,
0000
0000
0000
0000
,
0000
0000
0000
0000
,
0000
0000
0000
0000
,
0000
0000
0000
0000
,
0330
0000
0000
0000
;

//---------------dance-single - ----------------
#NOTES:
     dance-single:
     :
     Hard:
     11:
     0.737,0.699,1.000,0.005,0.000: // measure 1
0001
0010
0100
0001
0010
0100
0001
0010
,  // measure 2
1000
0100
0010
0001
0010
0100
0001
0010
,  // measure 3
0100
1000
0100
0001
0010
0100
0001
0010
,  // measure 4
0100
0001
0010
0100
0001
0010
0100
1000
,  // measure 5
0100
0010
0001
0010
0100
0001
0010
0100
,  // measure 6
1000
0100
0010
0001
0010
0100
0001
0010
,  // measure 7
1000
0100
0001
0010
1000
0100
0001
0010
,  // measure 8
0100
0001
0010
1000
1001
0110
1001
0110
,  // measure 9
0011
0100
1000
0100
0011
0001
0010
0100
,  // measure 10
0011
0100
0010
1000
0110
0100
0001
0010
,  // measure 11
0011
0100
1000
0100
1100
0010
0001
0010
,  // measure 12
0011
0100
1000
0100
0110
1000
0001
0110
,  // measure 13
1001
0100
0001
0010
0110
0001
0010
0100
,  // measure 14
1100
0100
0010
0001
0011
0100
0001
0010
,  // measure 15
0110
0001
0010
0100
1100
0100
0010
0001
,  // measure 16
0011
0100
0010
0001
0110
0010
0001
0010
,  // measure 17
1100
0100
0010
0100
0110
0001
0010
0100
,  // measure 18
0011
0100
1000
0010
0110
0010
0001
0010
,  // measure 19
0011
0100
0010
0100
0101
0010
0100
1000
,  // measure 20
1100
0010
0001
0010
0110
1000
0100
0011
,  // measure 21
0011
0001
0010
1000
0100
0010
0001
0010
,  // measure 22
0110
0001
0010
0100
1100
0100
0010
0001
,  // measure 23
0011
0010
0100
0001
0011
0100
1000
0100
,  // measure 24
1100
0001
0010
0100
0001
0010
1001
0100
,  // measure 25
0010
0100
0011
0100
0010
1000
0110
0010
,  // measure 26
0001
0010
1100
0010
0100
0001
0011
1000
,  // measure 27
0110
0001
0010
0100
1000
0100
1001
0110
,  // measure 28
1001
0000
0100
1000
0100
0001
0010
0100
,  // measure 29
1001
0100
0010
0100
0011
0100
1000
0100
,  // measure 30
1100
0001
0100
0010
0101
0010
0100
0010
,  // measure 31
0110
0001
0010
0100
1100
0100
0010
0100
,  // measure 32
0101
0010
0100
0001
0010
0100
0011
0010
,  // measure 33
0110
1000
0100
0010
0011
0010
0100
0001
,  // measure 34
0110
1000
0100
1000
1100
0010
0100
0001
,  // measure 35
0011
0100
0010
0100
0011
0010
0100
1000
,  // measure 36
1100
0010
0011
0010
0110
1000
0100
0010
,  // measure 37
0011
0010
0100
1000
1100
0010
0100
0001
,  // measure 38
0011
0100
0001
0010
0110
1000
0100
0010
,  // measure 39
0011
0100
0001
0010
0011
0100
0010
1000
,  // measure 40
0100
0010
0001
0010
1100
0000
0000
0000
,  // measure 41
1001
0100
0010
0001
0011
0100
0010
0100
,  // measure 42
0110
1000
0100
1000
1100
0010
0001
0010
,  // measure 43
0110
0001
0010
0100
0101
0010
0100
0010
,  // measure 44
1100
0010
0001
0010
0011
0100
1000
0100
,  // measure 45
1001
0100
0001
0010
0011
0010
0100
1000
,  // measure 46
1100
0010
0100
0001
0011
0100
0001
0010
,  // measure 47
0110
1000
0100
0010
0011
0100
0010
0100
,  // measure 48
0011
0100
0010
1000
1100
0100
0010
0001
,  // measure 49
0011
0100
0010
0001
0011
0010
0100
1000
,  // measure 50
1100
0010
0100
0001
0011
0100
0010
0100
,  // measure 51
1001
0100
0010
0100
0101
0010
0100
0001
,  // measure 52
0011
0100
0010
1000
1100
0100
0010
0001
,  // measure 53
0011
0010
0100
1000
1100
0010
0001
0010
,  // measure 54
0101
0010
0001
1000
0110
0001
0010
0100
,  // measure 55
1100
0010
0100
0001
0011
0100
0010
1000
,  // measure 56
1001
0100
0001
0000
1000
0100
0001
0010
,  // measure 57
0110
1000
0100
0010
0011
0010
0100
1000
,  // measure 58
1100
0010
0100
0001
0011
0100
0010
0100
,  // measure 59
0110
0001
0010
0100
1100
0100
0001
0010
,  // measure 60
0011
0000
1001
0100
0010
0001
0010
0100
,  // measure 61
1100
0001
0010
0100
1010
0100
0001
0010
,  // measure 62
0110
0100
0001
0010
0101
0010
1000
0100
,  // measure 63
0110
1000
0001
0010
1100
0010
0100
0001
,  // measure 64
0101
0001
0010
0100
1100
0010
0100
0001
,  // measure 65
0011
0100
0010
1000
0110
0001
0100
0010
,  // measure 66
1010
0100
0001
0010
0101
0010
1000
0100
,  // measure 67
0011
0100
0010
1000
0110
0001
0010
0100
,  // measure 68
1100
0010
0001
0010
0110
0001
0010
1000
,  // measure 69
1100
0001
0010
0100
0011
0010
0100
1000
,  // measure 70
1100
0010
0100
0010
0101
0010
1000
0100
,  // measure 71
0011
0010
0100
0001
0101
0010
0100
1000
,  // measure 72
0101
0010
0100
0000
1010
0000
0000
0000
,  // measure 73
1001
0100
0001
0010
0011
0010
0100
0010
,  // measure 74
0110
1000
0100
0010
0011
0100
0010
0100
,  // measure 75
1100
0010
0100
0001
0101
0010
0100
0001
,  // measure 76
0011
0100
0010
1000
1100
0000
0001
0010
,  // measure 77
1100
0010
0001
0100
0010
0001
0001
0010
,  // measure 78
1100
0010
0001
0010
0110
0001
0010
0100
,  // measure 79
0101
0010
1000
0010
0110
0001
0010
0001
,  // measure 80
0011
0100
0010
1000
1100
0010
0001
0010
,  // measure 81
0110
0001
0010
0100
0011
0100
0001
0100
,  // measure 82
1010
0100
0001
0010
0110
0001
1000
0010
,  // measure 83
0110
0001
0010
0100
1100
0010
0001
0010
,  // measure 84
0110
1000
0100
0010
0011
0001
0010
0100
,  // measure 85
1001
0010
0100
0001
0011
0100
0010
1000
,  // measure 86
0110
0010
0001
0010
0110
0001
0010
0100
,  // measure 87
1100
0001
0010
0100
0110
0001
0010
1000
,  // measure 88
0101
0010
0100
0001
1010
0000
0000
0000
,  // measure 89
0001
0100
0010
1000
0110
0010
0001
0010
,  // measure 90
0110
0001
0010
0100
1100
0010
0100
0001
,  // measure 91
0011
0100
0010
0100
0101
0010
0001
0010
,  // measure 92
0110
1000
0100
0010
0011
0100
0010
0001
,  // measure 93
0110
1000
0100
0010
0110
0010
1000
0100
,  // measure 94
1100
0010
0100
0001
0011
0100
0010
1000
,  // measure 95
0110
0100
0001
0010
0100
0001
0010
0100
,  // measure 96
1010
0000
0001
0000
0001
0010
0100
1000
,  // measure 97
0110
0001
0010
0100
0011
0010
0001
1000
,  // measure 98
1010
0100
0010
0100
0011
0100
0001
0010
,  // measure 99
0110
1000
0100
0010
0011
0010
0100
0001
,  // measure 100
0011
0010
0100
1000
0110
0100
0001
0010
,  // measure 101
1100
0010
0100
0001
0011
0100
0001
0010
,  // measure 102
0110
1000
0100
0010
0011
0001
0010
0100
,  // measure 103
1100
0010
0100
0001
0011
0100
0010
0100
,  // measure 104
1010
0100
0011
0100
1010
0100
0001
0010
,  // measure 105
0110
0001
0010
0100
0011
0100
0010
1000
,  // measure 106
0110
0100
0001
0010
0110
0010
1000
0010
,  // measure 107
0101
0010
0010
0001
0110
1000
0100
0010
,  // measure 108
0001
0010
0100
0000
1010
0000
0000
0000
,  // measure 109
1001
0100
0010
0001
0011
0001
0100
0010
,  // measure 110
1010
0100
0010
0100
0011
0100
0001
0100
,  // measure 111
0110
1000
0100
0010
0011
0100
0010
0001
,  // measure 112
0011
0100
0010
1000
1010
0100
0010
0100
,  // measure 113
0101
0010
0001
0010
0110
1000
0100
0010
,  // measure 114
0011
0001
0010
0100
1010
0100
0001
0010
,  // measure 115
0110
0001
0010
0000
1100
0000
0000
0000
,  // measure 116
1001
0000
0101
0000
,  // measure 117
0110
0000
0110
0000
,  // measure 118
0101
0000
0110
0000
,  // measure 119
0002
0000
0000
0000
,  // measure 120
0000
0000
0000
0000
,  // measure 121
0000
0000
0000
0000
,  // measure 122
0000
0000
0000
0000
,  // measure 123
0000
0000
0000
0000
,  // measure 124
0000
0000
0000
0000
,  // measure 125
0000
0000
0000
0000
,  // measure 126
0000
0000
0000
0000
,  // measure 127
0000
0000
0000
0000
,  // measure 128
0000
0000
0000
0000
,  // measure 129
0000
0000
0000
0000
,  // measure 130
0000
0000
0000
0000
,  // measure 131
0000
0000
0000
0000
,  // measure 132
0000
0000
0000
0000
,  // measure 133
0000
0000
0003
0000
;

//---------------dance-single - ----------------
#NOTES:
     dance-single:
     :
     Challenge:
     14:
     1.000,1.000,0.014,0.005,1.000:
0001
0010
0100
0001
0010
0100
0001
0010
0100
1000
0100
0010
0001
0010
0100
0001
,
0000
0000
0001
0010
0100
0001
0010
0100
0001
0010
0100
1000
0100
0000
0001
0010
,
0000
0000
0001
0010
0100
0001
0010
0100
1000
0100
0010
0001
0010
0100
0001
0010
,
0000
0000
0001
0010
0100
0001
0010
0100
1000
0100
0001
0010
0100
0001
0010
0100
,
0000
0000
0001
0010
0100
0001
0010
0100
0001
0010
0100
1000
0100
0010
0001
0010
,
0000
0000
0001
0010
0100
0001
0010
0100
0001
0010
0100
1000
0100
0010
0001
0010
,
0000
0000
0001
0010
0100
0001
0010
0100
0001
0010
0100
1000
0000
1000
0100
0000
,
0010
0100
0001
0010
0100
0001
0010
0100
0001
0010
0100
1000
0100
0001
0010
0100
,
0000
0000
0001
0010
0100
0001
0010
0100
0001
0010
0100
1000
0100
0010
0001
0010
,
0100
0001
0010
0100
0010
0001
0010
0100
0010
0001
0010
0100
0001
0010
0100
1000
,
0100
0010
0001
0010
0100
0001
0010
0100
0001
0010
0100
1000
0100
0010
0100
0010
,
0001
0010
0100
0001
0010
0100
0001
0010
0100
0001
0010
0100
0001
0010
0100
1000
,
0100
0001
0010
0100
0001
0010
0100
0001
0010
0100
0001
0010
0100
0001
0010
0100
,
1000
0100
0001
0100
1000
0100
0001
0010
0100
0010
0100
1000
0100
0010
0001
0010
,
0100
0010
0001
0010
0100
0001
0010
0100
1000
0100
0010
0001
0010
0100
0001
0010
,
0100
1000
0100
0010
0001
0010
0100
0001
0010
0100
0001
0010
0100
0001
0010
0100
,
1000
0100
0010
0100
0001
0010
0100
0001
0010
0100
1000
0010
0100
0001
0010
0100
,
0001
0010
0100
0001
0010
0100
0001
0010
0100
1000
0100
0010
0001
0010
0100
0001
,
0010
0100
0001
0010
0100
1000
0100
0001
0010
0100
0001
0010
0100
0001
0010
0100
,
0001
0010
0100
1000
0100
0010
0001
0010
0100
0001
0010
0100
0010
0001
0010
1000
,
0100
0010
0100
0001
0010
0100
0010
0001
0010
1000
0100
1000
0010
0001
0010
0100
,
0001
0010
0100
0010
0001
1000
0100
0001
0010
0100
0010
0001
0010
0100
0010
0001
,
0010
1000
0100
0010
0001
0010
0100
0001
0010
1000
0100
0010
0001
0010
0100
1000
,
0010
0001
0010
0100
0001
0010
1000
0100
0001
0010
0100
0001
0010
1000
0100
0010
,
0001
0010
0100
0001
0010
0100
0001
0010
0100
0010
0100
1000
0100
1000
0100
0010
,
0001
0010
0100
0010
0001
0010
0100
0001
0010
0100
1000
0100
0010
0001
0010
0100
,
0001
0010
0100
0010
0001
0010
0100
0001
0010
0100
1000
0100
0001
0010
0100
1000
,
0100
0000
0000
0000
,
0001
0010
0100
1000
0100
0010
0001
0100
0001
0010
0100
0001
0010
0100
0001
0010
,
0100
1000
0100
0010
0001
0010
0100
0001
0010
0100
0001
0010
0100
0001
0010
0100
,
0001
0010
0100
1000
0100
0010
0001
0010
0100
0001
0010
0100
0001
0010
0100
1000
,
0100
0010
0001
0010
0100
0001
0010
0100
0001
0010
0100
1000
0100
0010
0001
0010
,
0100
0001
0010
0100
0001
0010
0100
0001
0010
0100
0001
0010
1000
0100
0010
0001
,
0010
0100
0001
0010
0100
0001
0010
0100
0010
0001
0010
1000
0100
0010
0001
0010
,
0100
0001
0010
0100
1000
0100
0010
0001
0010
0100
0001
0010
0100
1000
0100
0010
,
0001
0010
0100
0001
0010
0100
0001
0010
1000
0100
0010
0001
0010
0100
0001
0010
,
1000
1000
0100
0010
0001
0010
0100
0001
0010
0100
0001
0010
0100
0001
0010
1000
,
0100
0010
0001
0010
0100
0001
0010
0100
1000
0010
0001
0010
0100
1000
0100
0010
,
0001
0010
0100
0001
0010
0100
0001
0100
0001
0010
0100
0001
0010
1000
0100
0001
,
0010
1000
0100
0010
0001
0010
0100
1000
0010
0000
0000
0000
0000
0000
0000
0000
,
0001
0010
0100
0001
0010
0100
0001
0010
0100
0001
0010
1000
0100
0010
0100
0010
,
0001
0010
0100
0001
0010
1000
0100
0010
0001
0010
0100
0001
0010
0100
0001
0010
,
0100
0001
0010
1000
0100
0010
0001
0010
0100
0010
0100
0001
0010
1000
0100
0010
,
0001
0010
0100
0010
0001
0010
0100
1000
0100
0001
0010
0100
1000
0100
0001
0010
,
0100
0000
0001
0010
0100
0001
0010
0100
0001
0010
0100
1000
0100
0010
0100
0010
,
0100
0001
0010
0100
0001
0010
1000
0100
0010
0010
0100
0001
0010
0100
0001
0010
,
0100
0001
0010
0100
1000
0100
0010
0001
0010
0100
0001
0010
0100
0001
0010
0100
,
0001
0010
0100
1000
0100
0010
0100
0001
0010
0100
0001
0010
0100
1000
0100
0001
,
0010
0100
0001
0010
0100
0001
0010
0100
1000
0100
0010
0001
0010
0100
0001
0010
,
0100
1000
0100
0010
0001
0010
0100
0010
0100
0001
0010
0100
1000
0100
0010
0001
,
0010
0001
0010
0100
0001
0010
0100
0010
0001
0010
1000
0100
0001
0010
0100
0001
,
0010
0100
0001
0010
0100
0001
0010
1000
0100
0010
0001
0001
0010
0100
0010
0001
,
0010
0100
0001
0010
0100
1000
0100
0010
0001
0010
0100
0001
0010
1000
0100
0001
,
0010
0100
0001
0010
1000
0100
0010
0001
0010
0100
0001
0010
0100
0001
0010
0100
,
0001
0010
0100
1000
0100
0010
0001
0010
0100
0010
0001
0010
0100
1000
0100
0010
,
0001
0000
0000
0000
,
0100
0010
0001
0010
0100
0001
0010
0100
0001
0010
0100
1000
0100
0010
0001
0010
,
0100
1000
0010
0100
0001
0010
0100
0100
0010
0001
0010
0100
0001
0010
0100
0001
,
0010
0100
1000
0100
0001
0010
0100
0001
0010
1000
0100
0001
0010
0100
0001
0010
,
0100
0000
0000
0000
,
0001
0010
0100
0001
0010
0100
1000
0100
0010
0100
0001
0010
0100
0001
0010
0001
,
0010
0100
1000
0100
0010
0001
0010
0100
0001
0010
0100
1000
0100
0010
0001
0010
,
0001
0010
0100
0001
0010
0100
1000
0100
0010
0001
0010
0100
0001
0010
0100
1000
,
0100
0010
0001
0010
0100
0001
0010
0100
0001
0010
1000
0100
0010
0001
0010
0100
,
0001
0010
0100
1000
0100
0010
0001
0010
0100
0001
0010
0100
0001
0010
1000
0100
,
0010
0100
0010
0010
0100
0010
0001
0010
1000
0100
0010
0001
0010
0100
1000
0100
,
0010
0001
0010
0100
0001
0010
0100
1000
0100
0010
0001
0010
0100
0001
0010
0100
,
1000
0100
0001
0010
0100
0010
0100
0001
0010
1000
0100
0001
0010
1000
0100
0010
,
0001
0010
0100
0001
0010
0100
1000
0010
0001
0010
0001
0010
0100
0001
0010
0100
,
1000
0100
0010
0001
0010
0100
0010
0001
0010
1000
0100
0010
0001
0010
0100
0100
,
1000
0100
0010
0001
0010
1000
0100
0010
0001
0100
0001
0010
0100
1000
0100
0001
,
0010
1000
0100
0001
0010
0100
0001
0010
0000
0000
0000
0000
0000
0000
0000
0000
,
0001
0010
0100
0001
0010
0100
0001
0010
0100
0001
0010
1000
0010
0010
0001
0010
,
0001
0010
0100
0001
0010
0100
0001
0010
0100
0001
0010
1000
0100
0010
0100
0001
,
0100
0001
0010
0100
0001
0010
0100
0001
0010
0100
0001
0010
0100
1000
0100
0010
,
0001
0010
0100
1000
0100
0010
0001
0010
0100
1000
0001
0000
0000
0000
0000
0000
,
0000
0001
0100
0001
0010
0100
0001
0010
1000
0100
0010
0100
0001
0010
0100
0001
,
0010
0100
0001
0010
0100
0001
0010
1000
0100
0010
0100
0001
0010
0100
0001
0010
,
0100
0001
0010
1000
0100
0010
0001
0010
0100
0001
0010
0100
0001
0010
0100
0001
,
0010
1000
0100
0010
0001
0010
0100
0001
0010
0100
0001
0010
1000
0100
0010
0100
,
0001
0010
0100
0001
0010
1000
0100
0010
0100
0001
0010
0100
0001
0010
0001
0010
,
0100
0010
1000
0100
0010
0001
0010
0100
0001
0010
0100
1000
0100
0010
0001
0010
,
0100
0001
0010
0100
0001
0010
1000
0100
0010
0001
0010
0100
0001
0010
1000
0100
,
0001
0010
1000
0100
0010
0001
0010
0100
0010
0001
0010
1000
0100
0001
0010
0010
,
0100
0000
0000
0000
0100
0001
0010
0000
0001
0010
0100
1000
0100
0010
0001
0010
,
0100
0001
0010
0000
0001
0010
0100
0000
1000
0100
0010
0001
0010
0100
0001
0010
,
0100
1000
0100
0000
1000
0100
0010
0000
0010
0001
0010
0100
0001
0010
0100
0001
,
0010
0100
1000
0000
1000
0100
0010
0001
0010
0000
0000
0000
0000
0000
0000
0000
,
0001
0010
0100
0001
0010
0100
1000
0100
0010
0001
0010
0100
0001
0010
0100
0001
,
0010
0100
0001
0010
1000
0100
0010
0100
1000
0100
0010
0001
0010
0001
0010
0100
,
0001
0010
0100
1000
0100
0010
0001
0010
0100
0001
0010
0100
1000
0100
0010
0001
,
0010
0100
0001
0010
0100
1000
0010
0001
0010
0100
0001
0010
0100
1000
0100
0001
,
0010
0100
0001
0010
0100
0001
0010
0100
1000
0100
0010
0001
0010
0100
0001
0010
,
0100
1000
0100
0010
0001
0010
0100
0001
0010
0100
0001
0010
0100
0100
0001
0010
,
0100
0010
0001
0010
1000
0100
0010
0001
0010
0100
1000
0001
0010
0100
0010
0001
,
0010
0000
0000
0000
,
0001
0010
0100
0001
0010
0100
1000
0100
0010
0010
0100
0001
0010
0100
0001
0010
,
1000
0100
0010
0001
0010
0100
0001
0010
0100
0010
0100
0001
0010
0100
1000
0100
,
0010
0001
0010
0100
0001
0010
0001
0010
0100
0001
0010
0100
1000
0100
0010
0001
,
0010
0100
0010
0100
0001
0010
0100
1000
0100
0010
0001
0010
0100
0001
0010
1000
,
0100
0010
0001
0010
0100
0001
0010
0100
0001
0010
0100
0010
0001
0010
0100
1000
,
0100
0001
0010
0100
0001
0010
0100
0001
0010
1000
0100
0001
0010
0100
0001
0010
,
0100
0001
0010
0100
0001
0010
1000
0100
0001
0010
0100
0001
0010
0100
0001
0010
,
0100
0001
0010
1000
0100
0001
0010
1000
0100
0000
0000
0000
0000
0000
0000
0000
,
0001
0010
0100
0001
0010
1000
0100
0010
0001
0010
0100
0001
0010
0100
0001
0010
,
0100
0001
0010
1000
0100
0010
0100
0010
0001
0010
0100
0001
0010
0100
0001
0010
,
1000
0100
0001
0010
0100
0010
0100
0001
0010
0100
0001
0010
1000
0100
0001
0010
,
1000
0100
0010
0100
0010
0001
0010
1000
0100
0000
0000
0000
0000
0000
0000
0000
,
0100
0001
0010
0100
0001
0010
0100
0001
0010
1000
0100
0001
0010
0100
0001
0010
,
0100
0001
0010
0100
0010
1000
0100
0001
0010
0100
0001
0010
0100
0001
0010
0100
,
0001
0010
1000
0100
0001
0010
0100
0001
0010
1000
0100
0010
0100
0001
0010
0100
,
0001
0010
0100
1000
0100
0010
0001
0010
0100
0001
0010
0100
1000
0100
0010
0001
,
0010
0100
0001
0010
0100
0001
0010
1000
0100
0010
0001
0010
0100
0001
0010
0100
,
0001
0010
1000
0100
0001
0010
0100
0001
0010
0100
1000
0100
0010
0100
0001
0010
,
0100
1000
0100
0001
0010
1000
0001
0010
0100
1000
0100
0001
0010
1000
0100
0001
,
0010
0000
0000
0000
,
1001
0000
0000
0000
,
0011
0000
0000
0000
1001
0000
0000
1000
,
0002
0000
0000
0000
,
0000
0000
0000
0000
,
0000
0000
0000
0000
,
0000
0000
0000
0000
,
0000
0000
0000
0000
,
0000
0000
0000
0000
,
0000
0000
0000
0000
,
0000
0000
0000
0000
,
0000
0000
0000
0000
,
0000
0000
0000
0000
,
0000
0000
0000
0000
,
0000
0000
0000
0000
,
0000
0000
0000
0000
,
0000
0000
0000
0000
,
0000
0000
0003
0000
;
