#TITLE:Gary the Juggalo Cannonball;
#SUBTITLE:;
#ARTIST:Juggalo Damien;
#TITLETRANSLIT:;
#SUBTITLETRANSLIT:;
#ARTISTTRANSLIT:;
#CREDIT:;
#BANNER:Gary the Juggalo Cannonball.PNG;
#BACKGROUND:Gary the Juggalo Cannonball-bg.PNG;
#LYRICSPATH:Gary the Juggalo Cannonball.LRC;
#CDTITLE:cdtitle.PNG;
#MUSIC:Gary the Juggalo Cannonball.mp3;
#OFFSET:-0.169;
#SAMPLESTART:49.500;
#SAMPLELENGTH:30.000;
#SELECTABLE:YES;
#BPMS:0.000=200.000;
#STOPS:;
#BGCHANGES:;

//---------------dance-single - ----------------
#NOTES:
     dance-single:
     :
     Hard:
     11:
     0.782,0.699,0.185,0.000,0.000: // measure 1
0000
0000
0000
0000
,  // measure 2
0001
0000
1000
0100
0000
0001
0100
0000
,  // measure 3
1000
0100
0000
0100
0010
0001
0010
0100
,  // measure 4
1000
0000
1000
0100
0000
0001
0100
0000
,  // measure 5
0001
0100
0000
1000
0100
0010
0001
0010
,  // measure 6
0100
0000
0010
0001
0000
0001
0010
0000
,  // measure 7
0010
0100
0000
0100
1000
0100
0010
0001
,  // measure 8
0001
0000
0001
0010
0000
0100
0010
0000
,  // measure 9
1100
0000
1001
0000
,  // measure 10
0110
0000
0001
0010
0100
1000
0100
0010
,  // measure 11
0001
0000
0001
0010
0100
0001
0010
0000
,  // measure 12
0000
0000
0001
0010
0100
0001
0010
0100
,  // measure 13
1000
0000
1000
0100
0010
0001
0001
0000
,  // measure 14
0000
0000
0001
0010
0100
1000
0100
0100
,  // measure 15
0001
0000
0001
0000
0001
0010
0100
0000
,  // measure 16
0000
1001
0110
1010
,  // measure 17
0101
0000
0000
0000
0001
0010
0100
1000
,  // measure 18
0100
0000
0100
0000
0100
0010
0001
0010
,  // measure 19
0100
0000
0000
0000
0010
0100
0001
0010
,  // measure 20
0100
0000
0100
0001
0010
0100
1000
0100
,  // measure 21
0001
0000
0000
0000
0001
0010
0100
0000
,  // measure 22
0110
0000
1100
0000
0001
0010
0100
0000
,  // measure 23
1100
0000
0000
0000
0001
0100
0010
1000
,  // measure 24
0100
0001
0010
0100
0010
0001
0010
0100
,  // measure 25
0010
0000
0000
0000
0001
0010
0100
0001
,  // measure 26
0010
0000
0001
0000
0011
0010
0100
1000
,  // measure 27
0100
0000
0000
0000
0001
0100
1100
0000
,  // measure 28
1100
0000
0001
0100
0010
0001
0010
0000
,  // measure 29
0011
0000
0000
0000
0001
0010
0100
1000
,  // measure 30
0100
0000
0100
0010
0001
0010
0100
0001
,  // measure 31
0000
0000
0000
0000
0001
0010
0100
1000
,  // measure 32
0100
0000
0001
0000
0001
0010
0100
1000
,  // measure 33
0100
0000
0000
0000
0001
0010
0100
0001
,  // measure 34
0011
0000
0001
0000
0001
0010
0100
1000
,  // measure 35
1100
0000
0000
0000
1000
0100
0010
0001
,  // measure 36
0010
0000
0001
0010
0100
0010
0001
0001
,  // measure 37
0011
0000
0000
0000
0001
0010
0100
0000
,  // measure 38
1100
0000
0000
0000
1000
0100
0010
0001
,  // measure 39
0011
0000
0000
0000
0001
0010
0100
0001
,  // measure 40
0010
0100
0001
0010
0100
1000
0100
0001
,  // measure 41
0001
0000
0000
0000
,  // measure 42
0001
0010
0100
0001
0010
0100
0001
0010
,  // measure 43
0100
1000
0100
0010
0001
0010
0100
0001
,  // measure 44
0010
0100
0001
0010
0100
1000
0100
0010
,  // measure 45
0001
0010
0100
0001
0010
0100
0010
0001
,  // measure 46
0010
0100
1000
0100
0010
0001
0010
0100
,  // measure 47
0001
0010
0100
0001
0010
0100
1000
0100
,  // measure 48
0010
0001
0010
0100
0001
0010
0100
0001
,  // measure 49
0010
0100
1000
0100
0000
0000
0000
0000
,  // measure 50
1000
0100
0001
0010
0100
0001
0010
0100
,  // measure 51
0001
0010
0100
0010
0001
0010
0100
1000
,  // measure 52
0100
0010
0001
0010
0100
0010
0001
0010
,  // measure 53
0100
1000
0100
0010
0001
0010
0100
0010
,  // measure 54
0001
0010
0100
1000
0100
0010
0001
0010
,  // measure 55
0100
0010
0100
0001
0010
0100
1000
0100
,  // measure 56
0001
0010
0100
1000
0010
0001
0010
0100
,  // measure 57
0001
0010
0100
1000
0000
0000
0000
0000
,  // measure 58
0000
0000
0000
0000
0000
0001
0010
0100
,  // measure 59
0001
0010
0100
0010
0001
0010
0100
1000
,  // measure 60
0100
0000
0000
0000
0100
0001
0010
0100
,  // measure 61
0001
0010
0100
0001
0010
0100
0010
0001
,  // measure 62
0010
0000
0000
0000
0001
0010
0100
1000
,  // measure 63
0100
0000
0000
0000
0100
0010
0001
0000
,  // measure 64
0011
0000
0000
0000
0001
0010
0100
0001
,  // measure 65
0010
0100
1000
0100
0001
0010
0010
0100
,  // measure 66
0100
0000
0000
0000
1001
0100
0010
0100
,  // measure 67
0001
0010
0100
0001
0010
0100
0001
0010
,  // measure 68
0000
0000
0001
0010
0100
1000
0100
0010
,  // measure 69
0001
0010
0100
0001
0010
0100
0001
0010
,  // measure 70
0100
0000
1000
0100
0001
0100
0010
0100
,  // measure 71
0001
0010
0100
1000
0100
0001
0010
0100
,  // measure 72
0001
0010
0100
1000
0100
0010
0001
0010
,  // measure 73
0100
1000
0100
0010
0001
0010
0001
0000
,  // measure 74
0000
0000
0001
0100
0001
0010
0100
0010
,  // measure 75
0001
0010
0100
1000
0100
0010
0001
0010
,  // measure 76
0000
0000
0001
0010
0100
0001
0010
0100
,  // measure 77
0001
0010
0100
1000
1000
0001
0001
0000
,  // measure 78
0000
0001
0010
0100
1000
0100
0010
0001
,  // measure 79
0010
0100
0001
0010
0100
0001
0010
0100
,  // measure 80
0001
0010
0100
1000
0100
0010
0001
0010
,  // measure 81
0100
0001
0010
0100
1000
0100
0001
0000
,  // measure 82
0001
0100
1000
0100
0010
0001
0010
0100
,  // measure 83
0001
0010
0100
1000
0100
0000
0100
0001
,  // measure 84
0010
0100
0001
0010
0100
0010
0001
0010
,  // measure 85
0100
1000
0100
0010
0000
0000
0101
0000
,  // measure 86
0010
0010
0100
1000
0100
0010
0001
0010
,  // measure 87
0100
0001
0010
0100
0000
0000
0001
0010
,  // measure 88
0100
0010
0001
0010
0100
1000
0100
0001
,  // measure 89
0100
0010
0001
0010
0000
0000
0000
0000
,  // measure 90
0001
0100
0001
0010
0100
1000
0100
0010
,  // measure 91
0001
0010
0100
1000
0000
0000
1000
0100
,  // measure 92
0010
0001
0010
0100
0001
0010
0100
0001
,  // measure 93
0010
0100
1000
0100
0000
0000
0100
0010
,  // measure 94
0001
0000
0001
0010
0100
0001
0010
0100
,  // measure 95
1000
0100
0010
0001
0000
0000
0001
0010
,  // measure 96
0100
0001
0010
0100
0001
0010
1000
0100
,  // measure 97
0010
0001
0010
0100
0000
0000
0000
0000
,  // measure 98
0000
0000
0001
0100
0001
0000
0001
0010
,  // measure 99
0100
0001
0010
0100
1000
0100
0001
0010
,  // measure 100
0100
0001
0010
0100
0000
0000
0001
0010
,  // measure 101
0100
0000
0001
0010
0100
1000
0100
0010
,  // measure 102
0001
0000
0001
0010
0100
0001
0010
0100
,  // measure 103
0001
0010
0100
0001
0010
0100
1000
1000
,  // measure 104
0100
0010
0001
0010
0100
0001
0010
0000
,  // measure 105
1001
1001
0000
0000
0001
0100
0010
0001
,  // measure 106
0010
0100
0001
0010
0100
1000
0100
0010
,  // measure 107
0001
0000
0000
0000
0001
0010
0100
1000
,  // measure 108
0100
0010
0001
0010
0100
0001
0010
0100
,  // measure 109
0100
0000
0000
0000
0001
0010
0100
1000
,  // measure 110
0100
0001
0010
0100
0001
0010
0100
1000
,  // measure 111
1100
0000
0000
0000
0001
0010
0100
0001
,  // measure 112
0010
0100
1000
0100
0010
0001
0010
0100
,  // measure 113
1000
0000
0000
0000
0001
0100
0010
0001
,  // measure 114
0010
0100
0001
0010
0100
1000
0100
0010
,  // measure 115
0011
0000
0000
0000
0101
0010
0100
0001
,  // measure 116
0010
0100
1000
0100
0010
0001
0010
0100
,  // measure 117
0110
0000
0001
0010
,  // measure 118
0100
0001
0010
0100
1000
0100
0010
0001
,  // measure 119
0010
0000
0000
0000
0001
0010
0100
0001
,  // measure 120
0010
0100
1000
0100
0010
0001
0010
0100
,  // measure 121
1000
0100
0010
0001
0010
0000
0000
0000
,  // measure 122
1001
0000
0100
0001
0010
0100
0001
0010
,  // measure 123
0100
1000
0100
0010
0001
0010
0100
0001
,  // measure 124
0011
0000
0001
0010
0100
1000
0100
0010
,  // measure 125
0001
0010
0100
0010
1000
0100
0001
0100
,  // measure 126
1010
0000
0010
0100
0001
0010
0100
0001
,  // measure 127
0010
0100
0001
0010
0100
1000
0100
0010
,  // measure 128
0110
0000
0001
0010
0100
0001
0010
0100
,  // measure 129
1000
0000
0000
0000
1000
0100
0010
0001
,  // measure 130
0010
0000
0100
0001
0010
0100
0001
0010
,  // measure 131
0100
1000
0100
0010
0001
0010
0100
0001
,  // measure 132
0010
0100
0001
0010
0100
0010
0001
0010
,  // measure 133
0100
1000
0100
0010
0001
0010
0100
0001
,  // measure 134
0010
0100
1000
0100
0010
0001
0010
0100
,  // measure 135
0001
0010
0100
1000
0100
0010
0001
0010
,  // measure 136
0100
1000
0010
0001
0010
0000
0010
0010
,  // measure 137
0000
0000
0000
0000
,  // measure 138
0001
0010
0100
0001
0010
0100
1000
0000
,  // measure 139
0100
0010
0001
0001
0000
0000
0001
0010
,  // measure 140
0100
0000
1000
0100
0010
0000
0001
0010
,  // measure 141
0100
0001
0010
0100
0001
0010
0100
0001
,  // measure 142
0010
0100
1000
0100
0010
0001
0010
0100
,  // measure 143
0001
0010
0100
1000
0100
0010
0001
0010
,  // measure 144
0100
0001
0010
0100
0001
0010
0100
1000
,  // measure 145
0100
0010
0001
0010
0100
0001
0010
0100
,  // measure 146
1000
0100
0010
0001
0010
0100
0001
0010
,  // measure 147
0100
1000
0100
0010
0001
0010
0100
0100
,  // measure 148
1100
0000
0000
0000
;
