#TITLE:Amanda vs Stephanie;
#SUBTITLE:;
#ARTIST:Billy Murphy;
#TITLETRANSLIT:;
#SUBTITLETRANSLIT:;
#ARTISTTRANSLIT:;
#CREDIT:;
#BANNER:Amanda vs Stephanie.PNG;
#BACKGROUND:Amanda vs Stephanie-bg.PNG;
#LYRICSPATH:Amanda vs Stephanie.LRC;
#CDTITLE:cdtitle.PNG;
#MUSIC:Amanda vs Stephanie.mp3;
#OFFSET:-0.179;
#SAMPLESTART:78.000;
#SAMPLELENGTH:30.000;
#SELECTABLE:YES;
#BPMS:0.000=128.000;
#STOPS:;
#BGCHANGES:;

//---------------dance-single - ----------------
#NOTES:
     dance-single:
     :
     Medium:
     10:
     0.608,0.605,0.154,0.000,1.000:
1001
0000
0110
0000
,
1001
0000
0101
1010
,
0110
0000
0011
0000
,
1001
0000
0000
0100
1000
0100
0010
0000
0000
0001
0000
0000
,
0011
0000
0000
0001
0010
0100
1000
0000
0000
1000
0100
0010
,
0001
0000
0000
0001
0010
0100
0010
0000
0000
0010
0000
0000
,
0010
0000
0001
0010
0100
1000
0100
0000
0000
1000
0100
0010
,
0001
0000
0001
0010
0100
1000
0100
0000
0000
0100
0000
0000
,
0001
0000
0000
0001
0100
0010
1010
0000
0000
0010
0000
0000
,
0100
0001
0010
0100
0000
0001
0010
0000
0000
0100
0000
0000
,
1000
0100
0010
0001
0000
0001
0010
0000
0000
0010
0000
0000
,
1000
0100
0010
0001
0000
0000
0001
0000
0000
0001
0010
0100
,
0100
0000
0000
0011
0000
0000
0001
0010
0100
1000
0000
0000
,
1000
0100
0010
0001
0000
0000
0001
0000
0000
0001
0010
0100
,
0010
0000
0000
0001
0010
0100
0010
0000
0001
0010
0100
0010
,
1000
0000
0000
1000
0100
0010
0001
0000
0000
0000
0000
0000
,
0001
0000
0000
1000
0100
0010
0001
0000
0000
0001
0010
0100
,
1000
0000
0000
1000
0100
0010
0001
0000
0000
0001
0010
0100
,
0010
0000
0000
0001
0010
0100
1000
0000
0000
1000
0100
0010
,
0001
0000
0000
0001
0010
0100
0001
0010
0100
1000
0100
0010
,
0001
0000
0000
0001
0010
0100
1000
0000
0000
1000
0100
0010
,
0001
0000
0000
0001
0010
0100
0100
0000
0000
1000
0100
0010
,
0001
0000
0000
0001
0010
0100
0001
0000
0000
0001
0010
0100
,
1000
0000
0000
1000
0100
0000
0011
0000
0000
0000
0000
0000
,
1001
0000
0000
0100
0010
0100
0011
0000
0000
1000
0000
0000
,
1100
0000
0000
1000
0100
0010
0001
0000
0000
0011
0000
0000
,
0110
0000
0000
1000
0100
0010
0001
0000
0000
0011
0000
0000
,
0110
0000
0000
1000
0100
0010
0001
0000
0000
0010
0000
0000
,
0010
0000
0000
1000
0100
0010
0001
0000
0000
0011
0000
0000
,
0110
0000
0000
0010
1000
0100
0010
0000
0000
0011
0000
0000
,
0001
0000
0000
0011
0000
0000
0110
0000
0000
1000
0010
0100
,
0001
0000
0000
0000
0100
0100
0100
0000
0000
0000
0000
0001
,
1000
0000
0100
0010
0001
0010
0100
0000
0000
0100
0010
0001
,
0010
0000
0000
1000
0100
0010
0001
0000
0000
0001
0010
0100
,
0010
0000
0000
0001
0010
0100
1000
0000
0000
1000
0100
0010
,
0001
0000
0000
0001
0010
0100
1000
0000
0000
1000
0100
0010
,
0001
0000
0000
0001
0010
0100
1000
0000
0000
1000
0100
0010
,
0001
0000
0000
0001
0010
0100
0100
0000
0000
0001
0010
0100
,
1000
0000
0000
1000
0100
0010
0001
0000
0000
0001
0010
0100
,
1000
0000
0000
1000
0100
0010
0001
0000
0000
0000
0000
0000
,
1000
0100
0010
0001
0000
0000
0001
0010
0100
0010
0000
0000
,
0001
0010
0100
1000
0100
0010
0001
0010
0100
1000
0000
0000
,
1000
0100
0001
0011
0000
0000
0000
0000
0000
1000
0000
0001
,
0100
0000
0000
0010
0000
0000
0110
0000
0000
0000
0000
0001
,
1000
0100
0010
0001
0000
0000
0001
0000
0000
0001
0010
0100
,
1000
1000
1100
0000
,
1000
0100
0010
0001
0000
0000
0001
0010
0100
0100
0000
0000
,
0001
0010
0100
1000
0000
0000
1000
0100
0010
0001
0000
0000
,
0001
0010
0100
0010
0001
0010
0100
0000
0000
1000
0000
0100
,
0010
0001
0010
0100
1000
0100
0010
0000
0000
0000
0000
0000
,
0001
0100
0010
0001
0000
0000
0001
0010
0100
1000
0000
0000
,
1000
0100
0010
0001
0000
0001
0010
0100
1000
0010
0001
0010
,
0100
0000
0000
0001
0010
0100
1000
0000
0000
0100
0010
0001
,
0010
0000
0000
0001
0010
0100
1000
0100
0010
0001
0000
0001
,
0010
0100
1000
0100
0000
0100
0010
0001
0010
0100
0000
0000
,
1000
0100
0010
0001
0010
0100
1000
0000
0000
1000
0100
0010
,
0001
0000
0000
0001
0010
0100
0001
0010
0100
1000
0100
0010
,
0001
0000
0000
0001
0110
0000
1001
0000
0000
0000
0000
0000
,
0001
0000
0100
0010
1000
0100
0010
0000
0000
0001
0010
0100
,
0010
0000
0000
0001
0010
0100
1000
0000
0000
1000
0100
0010
,
0001
0000
0000
0001
0010
0100
1000
0000
0000
1000
0100
0010
,
0001
0000
0000
0001
0010
0100
1000
0100
0010
0001
0010
0100
,
1000
0000
0000
1000
0100
0010
0001
0000
0000
0001
0010
0100
,
0001
0000
0000
0001
0010
0100
1000
0000
0000
1000
0100
0010
,
0001
0001
0010
1001
,
0110
1001
0011
0000
,
0001
1000
0100
0010
0000
0000
0001
0010
0100
1000
0000
0000
,
1000
0100
0010
0001
0000
0000
0001
0010
0100
1000
0000
0000
,
1000
0100
0010
0001
0010
0100
0010
0001
0010
0100
1000
0100
,
0010
0001
0010
0100
1000
0100
0010
0000
0000
0000
0000
0000
,
0001
0010
0100
1000
0100
0010
0001
0000
0000
0001
0010
0100
,
1000
0000
0000
0100
0010
0001
0010
0000
0000
0001
0010
0100
,
1000
0000
0000
0100
0010
0001
0001
0000
0000
0001
0010
0100
,
1000
0000
0000
1000
0100
0010
0001
0000
0000
0001
0010
0100
,
0100
0000
0000
1000
0100
0010
0001
0000
0000
0001
0010
0100
,
1000
0000
0000
0100
0010
0001
0001
0000
0000
0001
0010
0100
,
1000
0000
0000
1000
0100
0010
0001
0000
0000
0001
0010
0100
,
0010
0001
0010
0100
1000
0100
0100
0000
0000
0000
0000
0000
,
0001
0100
0010
0001
0010
0100
1000
0100
0010
0001
0010
0100
,
0001
0010
0000
0001
0010
0100
1000
0000
0000
1000
0100
0010
,
0001
0010
0100
1000
0100
0010
0001
0010
0100
0001
0010
0100
,
1000
0100
0010
0001
0010
0100
0001
0000
0000
0001
0010
0100
,
0001
0010
0100
1000
0100
0010
0001
0010
0100
1000
0100
0010
,
0001
0010
0100
0001
0010
0100
1000
0000
0000
1000
0100
0010
,
0001
0010
0100
0001
0010
0100
1000
0000
0000
1000
0100
0001
,
0010
0100
1000
0100
0010
0001
0010
0000
0000
0100
0000
0000
,
0001
1000
0100
0010
0100
0001
0010
0000
1000
0100
0010
0001
,
0010
0000
0000
0001
0010
0100
1000
0000
0000
1000
0100
0010
,
0001
0000
0000
0001
0010
0100
0100
0000
0000
1000
0100
0010
,
0001
0000
0000
0001
0010
0100
1000
0100
0010
0001
0010
0100
,
1000
0000
0000
1000
0100
0001
0010
0000
0000
0001
0010
0100
,
1000
0000
0000
1000
0100
0010
0001
0000
0000
0001
0010
0100
,
1000
0000
0000
0100
0010
0001
0010
0000
0000
0100
1000
0010
,
0001
0000
0000
0001
0010
0100
1000
0010
0001
0010
0000
0000
,
0001
0010
0100
0010
0000
0001
0010
0100
1000
0100
0000
0000
,
0100
0010
0001
0010
0000
0001
0010
0100
1000
0100
0000
0000
,
0100
0010
0001
0001
0000
0001
0010
0100
1000
1000
0000
1000
,
0100
0010
0001
0010
0100
1000
0100
0000
0000
0000
0000
0000
,
0001
0010
0100
1000
0000
1000
0100
0010
0001
0010
0000
0001
,
0010
0100
1000
0100
0000
0100
0010
0001
0010
0001
0000
0000
,
0001
0010
0100
1000
0000
0000
1000
0100
0010
0001
0000
0000
,
0001
0010
0100
1000
0000
0000
0100
0000
0000
0000
0000
0000
,
0001
0010
0100
1000
0000
0000
1000
0100
0010
0001
0000
0000
,
0001
0010
0100
1000
0000
0000
1000
0100
0010
0001
0000
0000
,
0001
0010
0100
0100
0000
0000
1000
0100
0100
0100
0000
0000
,
0001
0010
0100
1000
0000
0000
1000
0100
0010
0001
0000
0000
,
0001
0010
0100
0001
0000
0000
0001
0010
0100
1000
0000
0000
,
1000
0100
0010
0001
0000
0000
0001
0010
0100
1000
0000
0000
,
1000
0100
0010
0001
0000
0001
0010
0100
1000
0100
0010
0001
,
0010
0000
0000
0001
0010
0100
1000
0000
0000
0000
0000
0000
,
1000
0100
0001
0010
0000
0000
0001
0010
0100
1000
0000
0000
,
1000
0100
0010
0001
0000
0000
0001
0010
0100
1000
0000
0000
,
1000
0100
0010
0001
0000
0000
0001
0010
0100
1000
0000
0000
,
1000
0100
0010
0001
0010
0100
0010
0000
0000
0000
0000
0000
,
0001
0010
0100
1000
0100
0100
0010
0001
0010
0100
0000
0000
,
0001
0010
0100
1000
0000
1000
0100
0010
0001
0010
0000
0000
,
0001
0010
0100
1000
0100
0010
0001
0000
0000
0001
0010
0100
,
0010
0001
0010
0000
1000
0000
0100
0000
0000
0000
0000
0000
,
1001
0110
1001
0101
,
0001
0010
0100
1000
0000
0000
1000
0100
0010
0001
0000
0000
,
0001
0010
0100
0001
0010
0100
1000
0000
0000
1000
0100
0001
,
0010
0000
0000
0001
0010
0100
0001
0000
0000
0001
0010
0100
,
1000
0000
0000
1000
0100
0010
0001
0000
0000
1000
0100
0010
,
0001
0000
0000
0001
0010
0100
0100
0000
0000
1000
0100
0100
,
0010
0000
0000
0001
0010
0100
1000
0000
0000
1000
0100
0001
,
0010
0000
0000
0001
0010
0100
1000
0100
0001
0010
0100
1000
,
0100
0001
0010
0100
0010
0001
0010
0000
0000
0000
0000
0000
;

//---------------dance-single - ----------------
#NOTES:
     dance-single:
     :
     Hard:
     12:
     0.961,0.893,0.898,0.000,1.000: // measure 1
0001
0010
0100
1000
0010
0100
0001
0010
0100
1000
0010
0100
,  // measure 2
0001
0010
0100
0010
0001
0010
0100
1000
0100
0010
0000
0000
,  // measure 3
0001
0010
0100
0001
0010
0100
1000
0100
0010
0001
0010
0100
,  // measure 4
1000
0010
0100
0001
0010
0100
0001
0010
0100
1000
0000
0000
,  // measure 5
1000
0100
0010
0001
0010
0100
1000
0100
0010
0001
0010
0100
,  // measure 6
0010
0001
0010
0100
1000
0100
0010
0001
0010
0100
0000
0000
,  // measure 7
1000
0100
0010
0001
0010
0100
1000
0100
0010
0001
0100
0100
,  // measure 8
0100
0000
0000
0000
,  // measure 9
0110
1000
0100
0001
0010
0100
0101
0010
1000
0010
0100
0010
,  // measure 10
1010
0100
0010
0100
0001
0010
0011
0001
0100
0010
1000
0010
,  // measure 11
0110
0010
0100
0001
0010
0001
0101
0001
0100
0010
1000
0010
,  // measure 12
0110
0010
1000
0010
0100
0010
0001
0010
0100
0001
0010
0100
,  // measure 13
1100
0001
0010
0001
0100
0010
0110
0010
0010
0001
0010
0100
,  // measure 14
1100
0010
0100
0010
0100
0001
0011
0100
0010
1000
0010
0100
,  // measure 15
0110
0000
0001
0001
0100
0010
1010
0100
0010
0100
0001
0010
,  // measure 16
0101
0010
1000
0110
0010
0100
0011
0000
0000
0000
0000
0000
,  // measure 17
1001
0010
0100
0010
0100
0001
0011
0100
0010
1000
0010
0100
,  // measure 18
0110
0010
1000
0001
0010
0100
1100
0010
0100
0001
0010
0001
,  // measure 19
0101
0010
1000
0010
0100
0010
0110
0001
0010
0001
0010
0001
,  // measure 20
0011
0100
0010
1000
0010
0100
0110
0010
1000
0010
0010
0100
,  // measure 21
0011
0001
0100
0010
1000
0010
1010
0010
0100
0001
0010
0100
,  // measure 22
0110
0010
1000
0010
0100
0001
0011
0001
0100
0010
1000
0100
,  // measure 23
0110
0001
0100
0010
1000
0010
0110
0001
0010
0100
1000
0010
,  // measure 24
0100
0001
0010
0100
1000
0100
0110
0000
0000
0000
0000
0000
,  // measure 25
1010
0100
0001
0010
0100
1000
0110
0010
0100
0001
0010
0001
,  // measure 26
0011
0001
0100
0010
1000
0010
0110
0010
1000
0010
0010
0100
,  // measure 27
1100
0010
0100
0001
0010
0001
0101
0010
1000
0100
0010
0001
,  // measure 28
0101
0010
1000
0100
0010
0001
0100
0010
1000
0100
0010
0001
,  // measure 29
0011
0001
0100
0010
1000
0010
0110
0010
1000
0100
0010
0001
,  // measure 30
0011
0100
0010
1000
0010
1000
0110
0100
0001
0010
0100
1000
,  // measure 31
1010
0010
0100
0001
0010
0100
1000
0010
0100
0001
0010
0100
,  // measure 32
0010
0100
0010
1000
0100
0010
0110
0000
0000
0000
0000
0000
,  // measure 33
1010
0100
0001
0010
0001
0100
0110
0010
1000
0010
0100
0010
,  // measure 34
1010
0100
0001
0010
0100
1000
1010
0100
0010
0100
0001
0010
,  // measure 35
0101
0010
0100
0010
1000
0100
0110
0001
0100
0001
0010
0100
,  // measure 36
0110
0001
1000
0010
0100
0010
0110
0001
0010
0001
1000
0100
,  // measure 37
1100
0010
0100
0001
0010
0001
0011
0001
0100
0010
1000
0100
,  // measure 38
0011
0001
0010
0100
1000
0100
0110
1000
0100
0001
0010
0100
,  // measure 39
1100
0010
0100
0001
0010
0100
0110
0000
1100
0000
0110
0000
,  // measure 40
0011
0000
1100
0000
0110
0000
1001
0000
0000
0000
0000
0000
,  // measure 41
1001
0100
0010
0010
0001
0100
0101
0010
1000
0100
0010
0001
,  // measure 42
0101
0010
1000
0110
0010
0100
0011
0100
0010
1000
0100
0010
,  // measure 43
0011
0100
0010
1000
0010
0100
0011
0100
0010
1000
0100
0010
,  // measure 44
0011
0100
0010
1000
0100
0010
0011
0100
0010
1000
0100
1000
,  // measure 45
1100
0010
0100
0010
0010
0100
0110
1000
0100
0010
0001
0010
,  // measure 46
0110
1000
0100
0010
0001
0010
1100
0010
0100
0001
0010
0100
,  // measure 47
0110
1000
0010
0100
0001
0010
0110
0001
0010
0001
0100
0010
,  // measure 48
1010
0100
0001
0010
0001
0010
0101
0100
0010
1000
0100
0010
,  // measure 49
0011
0100
0010
1000
0100
0010
0101
0010
1000
0100
0010
0001
,  // measure 50
0101
0010
1000
0100
0010
0001
1001
0000
0000
0000
0000
0000
,  // measure 51
1001
0100
0010
0001
0100
0010
1010
0100
0001
0010
0001
0100
,  // measure 52
0101
0010
1000
0100
0010
0001
0011
0100
0010
1000
0010
0100
,  // measure 53
0110
0001
0010
0100
1000
0010
1010
0100
0001
0010
0100
1000
,  // measure 54
0110
0010
0001
0100
0010
0001
0011
0001
0100
0010
1000
0100
,  // measure 55
0110
0100
0001
0010
0100
1000
1100
0001
0010
0100
1000
0010
,  // measure 56
0110
0010
0001
0100
0001
0010
1010
0100
0001
0010
0001
0100
,  // measure 57
1010
0100
0001
0010
0100
1000
0110
0001
0010
0100
0010
1000
,  // measure 58
0110
0010
0001
0100
0010
1000
0110
0000
0000
0000
0000
0000
,  // measure 59
1001
0100
0010
0100
0001
0010
0100
1000
0100
0011
0000
0001
,  // measure 60
0010
0100
1000
0100
0010
0001
0010
0100
0001
0011
0000
0000
,  // measure 61
0001
0010
0100
0010
0001
0010
0100
1000
0100
0110
0000
0000
,  // measure 62
0001
0010
0100
0001
0010
0100
1000
0100
0010
0011
0000
0000
,  // measure 63
0011
0100
0010
1000
0100
0010
0100
0001
0010
0110
0001
0010
,  // measure 64
1000
0100
0010
0110
1000
0001
0010
0001
0100
0101
0010
1000
,  // measure 65
0100
0010
0001
0101
0010
1000
0100
0010
0100
1100
0010
0100
,  // measure 66
0001
0010
0100
1000
0010
0100
0110
0000
0000
0000
0000
0000
,  // measure 67
1001
0100
0100
0101
0100
0100
1010
0010
0010
0110
0010
0010
,  // measure 68
0011
0010
0010
1010
0010
0010
0110
0010
0010
0110
0100
0100
,  // measure 69
0101
0100
0100
0110
0010
0010
1010
1000
1000
1100
1000
1000
,  // measure 70
0110
0100
0100
0101
0100
0100
0110
0000
0000
0000
0000
0000
,  // measure 71
0101
0010
1000
0100
0010
0100
0101
0010
1000
0010
0100
0010
,  // measure 72
0110
0001
0010
0100
1000
0010
0110
0010
1000
0100
0010
0001
,  // measure 73
0101
0010
1000
0100
0010
0001
0110
1000
0100
0010
0001
0100
,  // measure 74
0101
0010
1000
0100
0010
0100
1100
0010
0100
0001
0010
0100
,  // measure 75
1100
0001
0010
0100
1000
0100
1100
0001
0010
0100
1000
0100
,  // measure 76
0110
0001
0010
0100
0001
0100
0110
0010
1000
0100
0010
0001
,  // measure 77
0011
0001
0100
0010
1000
0100
0110
0001
0100
0010
1000
0100
,  // measure 78
0010
0001
0100
0010
1000
0100
0100
0000
0000
0000
0000
0000
,  // measure 79
1001
0100
0001
0010
0100
1000
1100
0010
0100
0001
0010
0001
,  // measure 80
0101
0010
1000
0100
0010
0001
0101
0010
1000
0100
0010
0001
,  // measure 81
0101
0010
1000
0100
0010
0001
0110
0001
1000
0010
0100
0010
,  // measure 82
1100
0010
0100
0001
0010
0100
0110
0001
0010
0100
1000
0100
,  // measure 83
1100
0010
0100
0001
0010
0001
0101
0010
0100
0001
0010
0001
,  // measure 84
0011
0100
0010
1000
0100
0010
0011
0001
0100
0010
1000
0100
,  // measure 85
0110
0001
0100
0010
1000
0100
0001
0010
0100
1000
0100
0000
,  // measure 86
0011
1010
0011
0000
,  // measure 87
0001
0010
0100
0001
0010
0100
1000
0100
0010
0001
0010
0100
,  // measure 88
0001
0010
0100
1000
0100
0010
0001
0010
0100
0001
0010
0100
,  // measure 89
1000
0100
0010
0001
0010
0100
0001
0010
0100
0001
0010
0100
,  // measure 90
1000
0010
0100
0001
0010
0100
1000
0010
0100
0001
0100
1000
,  // measure 91
0110
0000
0001
0010
0100
1000
1100
0001
0010
0100
0010
1000
,  // measure 92
0110
0001
0100
0010
1000
0010
0110
0001
0010
0100
1000
0010
,  // measure 93
1010
0100
0001
0010
0001
0100
0110
0010
1000
0100
0010
0001
,  // measure 94
0011
0100
0010
1000
0010
0100
0110
0001
0010
0100
1000
0100
,  // measure 95
0110
0001
0100
0010
1000
0010
0110
0001
0010
0100
1000
0001
,  // measure 96
0011
0100
0010
1000
0010
0100
0110
0001
0010
0100
1000
0010
,  // measure 97
0110
0100
0001
0010
0100
1000
0010
0100
0001
0010
0100
1000
,  // measure 98
0100
0001
0010
0100
0001
0010
0100
1000
0010
0001
0010
0100
,  // measure 99
0100
0000
0000
0100
0001
0010
0100
1000
0100
0001
0010
0100
,  // measure 100
1000
0010
0100
0001
0010
0100
0010
1000
0100
0010
0001
0010
,  // measure 101
0100
1000
0010
0100
0001
0010
0100
1000
0010
0100
0010
0001
,  // measure 102
0010
0100
1000
0100
0010
0001
0011
0000
0000
0000
0000
0000
,  // measure 103
1001
0100
0010
0100
0001
0010
0101
0010
1000
0100
0010
0001
,  // measure 104
0101
0010
1000
0100
0010
0001
0101
0010
1000
0100
0010
0100
,  // measure 105
0110
0001
0100
0010
1000
0010
1010
0010
0100
0010
0100
0001
,  // measure 106
0011
0100
0010
1000
0100
0010
0011
0000
0100
0010
1000
0100
,  // measure 107
0110
0001
0100
0001
0010
0100
1100
0010
0100
0010
0100
0001
,  // measure 108
0011
0100
0010
1000
0100
0010
0101
0010
1000
0100
0010
0100
,  // measure 109
0101
0010
1000
0100
0010
0100
0011
0000
0000
0001
0000
0001
,  // measure 110
0010
0100
1000
0100
0010
0001
0010
0000
0000
0000
0000
0000
,  // measure 111
0110
1000
0100
0010
0001
0010
0110
0001
0010
0100
1000
0100
,  // measure 112
1100
0001
0100
0010
0100
0001
0101
0010
0100
1000
0010
0100
,  // measure 113
0110
0001
0010
0100
0010
0001
0011
0001
0100
0010
1000
0100
,  // measure 114
1100
0010
0100
0100
0010
0100
0110
0000
0001
0100
0010
1000
,  // measure 115
1100
0001
0010
0100
1000
0100
0011
0001
0010
0100
1000
0100
,  // measure 116
0110
0001
0010
0100
1000
0100
0110
0000
0001
0010
0100
1000
,  // measure 117
0100
0010
0001
0010
0100
0001
0010
0100
1000
0100
0010
0001
,  // measure 118
0011
0000
0110
0000
1100
0000
0110
0000
0000
0000
0000
0000
,  // measure 119
1001
0100
0010
0100
0010
0001
0010
0100
1000
1100
0000
0000
,  // measure 120
1001
0100
0010
0100
0001
0010
0101
0010
1000
0100
0010
0100
,  // measure 121
0101
0010
1000
0100
0010
0100
0110
0001
0010
0100
0010
1000
,  // measure 122
0110
0010
0001
0100
0001
1000
0110
0100
0001
0010
0100
1000
,  // measure 123
1100
0010
0100
0001
0010
0100
0101
0010
1000
0100
0010
0001
,  // measure 124
0011
0100
0010
1000
0100
0010
0011
0100
1000
0100
1000
0100
,  // measure 125
0110
0010
0001
0010
0100
1000
1010
0100
0001
0010
0100
1000
,  // measure 126
0100
0010
0001
0010
0100
1000
0010
0001
0010
0100
0010
0001
,  // measure 127
0010
0100
1000
0100
0010
0001
0000
0000
0000
0000
0000
0000
;
