#TITLE:Abigail the Wicked Witch;
#SUBTITLE:;
#ARTIST:Kevin Dreadstar;
#TITLETRANSLIT:;
#SUBTITLETRANSLIT:;
#ARTISTTRANSLIT:;
#CREDIT:;
#BANNER:Abigail the Wicked Witch.PNG;
#BACKGROUND:Abigail the Wicked Witch-bg.PNG;
#LYRICSPATH:Abigail the Wicked Witch.LRC;
#CDTITLE:cdtitle.PNG;
#MUSIC:Abigail the Wicked Witch.mp3;
#OFFSET:-0.352;
#SAMPLESTART:102.000;
#SAMPLELENGTH:25.000;
#SELECTABLE:YES;
#BPMS:0.000=155.000;
#STOPS:;
#BGCHANGES:;

//---------------dance-single - ----------------
#NOTES:
     dance-single:
     :
     Medium:
     8:
     0.449,0.541,0.207,0.009,0.000:
0000
0000
0000
0000
,
0000
0000
0000
0000
,
0000
0000
0000
0000
,
0000
0000
0000
0000
,
0000
0000
0000
0000
,
0000
0000
0000
0000
,
0000
0000
0000
0000
,
0000
0000
0000
0000
,
0000
0000
1000
0100
0001
0000
0100
0000
,
0100
1000
0000
1000
0000
0000
0000
1000
,
0100
0000
0010
0001
0000
0000
0000
0001
,
0010
0100
0000
0100
0000
0000
0000
0000
,
0000
0000
0001
0010
0100
0000
1000
0000
,
1000
0100
0000
0100
0000
0000
0000
0001
,
0010
0000
0100
1000
0000
0000
0000
1000
,
0100
0010
0011
0000
,
1001
0000
0100
0000
1000
1000
0110
0000
,
0001
0000
0110
0000
0001
0001
0101
0000
,
1000
0000
1100
0000
1000
1000
1100
0000
,
0010
0000
0100
0000
0010
0010
0110
0000
,
0001
0000
0001
0010
0100
0000
1000
0000
,
0000
0000
0100
0010
0001
0100
0100
0000
,
0000
0000
0001
0010
0100
0000
1000
0000
,
0000
1000
0100
0010
0001
0010
0100
0000
,
0000
0000
0001
0100
1000
0000
1001
0000
,
0000
1000
0100
0010
0001
0010
0100
0000
,
0000
1000
0100
0001
0010
0000
0100
0000
,
0000
1000
0100
0010
0001
0000
0010
0000
,
1001
0000
0000
0000
,
0000
0000
0000
0000
0000
0000
0000
0001
,
0100
0000
1000
0100
0010
0000
0001
0010
,
0100
0000
1000
1000
1100
0000
0000
0001
,
0100
0000
0010
0000
1000
0100
0000
0010
,
0001
0100
0000
0010
0110
0000
0000
0001
,
0010
0000
0100
0000
1000
0100
0000
0010
,
0001
0000
0010
0100
0010
1100
0000
0000
,
0000
0001
0000
0010
0100
0000
0001
0000
,
0100
0010
0000
1000
0010
0100
0000
0000
,
0000
0000
0000
0000
,
1001
0000
1000
0001
0000
0000
0100
0010
,
0000
0100
0000
1000
0100
0000
1001
0000
,
0100
0000
0001
0010
0000
0100
0000
1000
,
0000
1000
0100
0010
0001
0000
0010
0000
,
0010
0000
0100
0000
1000
0100
0000
0001
,
0010
0000
0001
0100
1000
0000
0000
0000
,
1000
0100
0000
0001
0010
0000
0100
0000
,
1000
0000
0100
0010
0100
0000
0000
0000
,
1001
0000
0100
0010
0100
0000
1001
0000
,
0110
0000
0001
0010
0001
0000
0101
0000
,
0001
0010
0100
1000
0010
0100
0001
0000
,
0010
0000
0100
0001
0000
0000
1000
0000
,
0100
0010
0001
0010
0100
1000
0010
0100
,
0001
0010
0100
1000
1000
0000
0000
0000
,
1000
0100
0010
0001
0010
0100
1000
0010
,
0000
0100
0000
0010
0000
0000
0000
0001
,
0010
0000
0100
1000
0000
0100
0000
0000
,
0011
0010
1001
0000
,
0000
0001
0010
0100
1000
0000
0000
1000
,
0100
0000
0010
0000
0110
0000
0000
0001
,
0010
0000
0100
1000
0000
0000
1000
0100
,
0010
0110
0110
0000
,
0001
0010
0100
1000
0100
0010
0100
0001
,
0010
0100
1000
0100
0010
0000
0000
0000
,
0001
0010
0100
1000
0100
0000
0100
0000
,
0100
0010
0001
0010
0100
0000
0000
0000
,
0000
0000
0000
0000
1001
0000
0100
0010
,
0000
0000
0110
1000
0000
0100
0000
0010
,
0100
0000
0011
0000
0001
0000
0001
0010
,
0000
0100
0000
1000
0000
0100
0010
0001
,
0010
0100
1000
0100
,
0010
0001
0000
0001
0010
0000
0100
1000
,
0100
0000
0000
0000
0001
0000
0100
0010
,
1000
0000
0100
0000
0010
0000
0100
0001
,
0010
0000
0000
0000
0001
0010
0100
1000
,
0100
0010
0001
0010
0100
1000
0100
0010
,
0001
0100
0100
0000
0001
0010
0010
0000
,
1000
0100
0100
0000
0001
0100
0100
0000
,
0100
0010
0010
0000
1000
0000
0100
0001
,
0000
0001
0010
0100
1000
0010
0100
0010
,
0000
0001
0010
0100
1000
0010
0100
0001
,
0010
0100
1000
0010
0100
0001
0010
0100
,
0000
0000
0100
0000
1001
0000
0100
0010
,
1000
0000
1000
0000
1000
0100
0000
1000
,
0000
0000
0000
1001
0100
0000
0010
1000
,
0000
0000
0000
1000
0100
0001
0000
0100
,
0100
0000
0000
0000
0000
0001
0010
0100
,
1000
0000
1000
0000
0100
0010
0000
0010
,
0000
0000
0000
0000
1001
0100
0000
0010
,
0000
0000
0000
0100
0010
1000
0001
0000
,
0010
0000
0000
0000
0001
0100
1000
0100
,
0010
0001
0010
0100
1000
0010
0100
0001
,
0010
0100
1000
0010
0100
0001
0010
0100
,
1000
0010
0100
0001
0010
0100
1000
0010
,
0100
0000
0000
0000
1001
0000
0000
0110
,
0000
0000
1000
0100
0001
0010
0100
1000
,
0000
0000
1000
0100
0010
0001
0010
0100
,
1000
0010
0100
0001
0010
0100
1000
0010
,
0000
0000
0000
0000
0001
0100
1000
0100
,
0001
0100
1000
0100
0001
0100
1000
0100
,
0001
0100
0010
0100
0001
0010
1000
0100
,
0010
0001
0010
1000
0100
0010
0001
0010
,
0100
1000
0100
0010
0010
1000
0100
0000
,
0001
0000
0100
0010
0000
1000
0100
0000
,
0011
0000
0000
0000
0001
0100
1000
0010
,
0100
0000
0001
0000
0010
0100
0000
1000
,
0000
0000
1000
0100
0000
0000
0001
0000
,
0100
0000
0010
1000
0010
0100
0001
0010
,
0000
0000
0100
0001
0010
0100
1000
0010
,
0100
0000
0010
0001
0010
0100
1000
0010
,
0100
0000
0000
0000
0001
1000
0100
0000
,
0010
0000
0001
0010
0100
1000
0010
0100
,
0010
0000
0000
0000
0001
0010
0100
1000
,
0100
0010
0010
0010
0001
0100
0010
0000
,
1100
0000
0000
0000
0001
0100
0010
1000
,
0100
0010
0100
0001
0010
0100
1000
1000
,
0100
0000
0000
0000
0001
0100
0010
1000
,
0100
0000
0000
0000
0010
0000
0100
0001
,
1001
0000
0000
0000
,
0000
0000
0000
0000
0001
0010
0100
1000
,
0000
0000
0100
0010
0000
0001
0000
0100
,
0100
0000
1000
0000
1000
0100
0010
0001
,
0010
0100
1000
0010
0000
0010
0001
0010
,
0100
0100
1000
0100
,
0010
0001
0000
0001
0010
0100
1000
0100
,
0010
0000
0000
0000
0001
0010
0100
1000
,
0100
0010
0001
0010
0100
0010
0001
0010
,
0000
0000
0000
0000
1001
0100
0010
0100
,
0001
1000
0010
0000
1000
0100
0010
0100
,
0001
0000
0000
0000
0001
0010
0100
1000
,
0100
0000
0000
0100
0010
0000
0001
0000
,
0010
0000
0000
0000
1000
0010
0100
0001
,
0010
0000
1000
0000
0100
0010
0000
0000
,
0100
0000
0000
0000
1001
0100
0010
0000
,
0100
0000
0001
0010
0100
1000
0100
0010
,
0001
0000
0000
0000
0001
0010
0100
1000
,
0100
0010
0001
0010
0100
1000
0010
0010
,
0010
0000
0000
0000
,
0000
2002
0000
0000
,
0000
0000
0000
0000
0000
3003
0000
0000
,
0000
0110
0000
0000
,
0000
0000
0110
0000
0000
0000
0000
1001
,
0110
0000
0000
0011
0011
0000
0000
0000
,
0000
0000
0000
0000
,
0000
0000
0000
1001
0000
0000
0000
0000
,
0000
0110
1001
0000
;

//---------------dance-single - ----------------
#NOTES:
     dance-single:
     :
     Hard:
     11:
     0.790,0.955,1.000,0.009,0.033:
0001
0010
1000
0100
0010
0001
0100
0010
,
1010
0100
0001
0010
0100
1000
0010
0100
,
0110
0001
0010
0100
1000
0010
0100
0010
,
0110
0001
0010
0100
1000
0010
0100
0010
,
0110
0001
0010
0100
1000
0010
1000
0010
,
0110
0001
0010
0100
1000
0010
0100
0001
,
0011
0100
0010
1000
0010
0100
0010
1000
,
0101
0000
0000
0000
,
1001
0100
0010
1000
0010
0100
0001
0010
,
0110
0001
0010
1000
0100
0010
1000
0100
,
0110
1000
0100
0010
0001
0100
0010
0100
,
0101
0010
1000
0100
0010
1000
0100
0010
,
1010
0100
0001
0010
0100
1000
0010
0100
,
0110
0001
0010
0100
1000
0010
0100
0100
,
1001
0100
0010
1000
0000
0000
0000
1001
,
0100
0010
1000
0000
0110
0000
0000
0000
,
0101
1000
0010
0100
0011
0100
0010
1000
,
0110
0010
0001
0010
0110
0001
1000
0010
,
0110
1000
0010
0100
1010
0100
0010
0100
,
0011
0100
0010
1000
0110
0010
0011
0011
,
1001
0100
0010
1000
0110
0100
0010
0001
,
0011
0100
0010
1000
1010
0100
0010
0100
,
0011
0100
0010
0100
0110
0001
0010
0100
,
0110
0001
0010
1000
1010
0100
0001
0010
,
0110
0010
0001
0100
0110
1000
0010
0100
,
0101
0010
1000
0010
0110
0001
0010
0100
,
1010
0100
0010
0100
0011
0100
0010
1000
,
0010
0100
0001
0110
0110
0000
1001
0000
,
0010
0010
0001
1000
0100
0010
0100
0010
,
1000
0100
0010
0001
0100
1000
1000
0000
,
1001
0100
0010
0100
0101
0010
1000
0100
,
1100
0000
0011
0010
0101
1000
0010
0100
,
0110
1000
0001
0010
0110
0001
0010
0100
,
1100
0010
0100
0100
0101
0010
1000
0100
,
0010
0001
0010
0100
1000
0100
0010
0001
,
0010
0100
1000
0100
0010
0001
0000
0000
,
0001
0010
0100
1000
0100
0010
0001
0010
,
0011
0100
1000
0100
1100
1100
0000
0000
,
1001
0100
0010
0100
0001
0000
1001
0000
,
1000
0100
0010
0001
0011
0100
0010
0100
,
0110
1000
0010
0100
0110
0001
0010
0100
,
0011
0100
0010
1000
1010
0100
0010
0100
,
0101
0010
1000
0100
0011
0100
0010
1000
,
0101
0010
1000
0100
0010
0001
0100
0010
,
1000
0001
0100
0010
0101
0000
0000
0000
,
0011
0000
1000
0100
0110
1001
0000
0000
,
1001
0000
0110
0110
0110
0000
0000
0000
,
0101
1000
0010
0100
0010
0100
0001
0010
,
0100
1000
0100
0010
0100
0000
0000
0000
,
1001
0100
0010
0100
0001
0010
0100
1000
,
1100
0001
0100
0010
0100
0010
1000
0100
,
0110
0001
0010
0100
1000
0010
0100
0001
,
0011
0100
0010
1000
0100
0010
1000
0001
,
0110
1000
0010
0000
0101
0010
0100
1000
,
1100
0010
0100
0001
0010
0100
0000
0010
,
0100
0100
0001
0010
0100
1000
0100
0010
,
0110
0110
1001
0000
0110
0000
0000
0000
,
1001
0100
0010
0100
0110
0001
0010
0100
,
1000
0010
0100
0001
0010
0100
1000
0100
,
0011
0100
1000
0010
0110
0001
1000
0100
,
0110
0001
0100
0010
1010
0100
0001
0010
,
0011
0100
0010
1000
0110
0001
0010
0100
,
1100
0010
0100
0001
0011
0100
0010
1000
,
0110
0001
0010
1000
1100
0000
0110
0000
,
1001
0110
1001
0000
0110
0000
0000
0000
,
0000
0000
0000
0000
1001
0100
0010
0100
,
0001
0010
0100
1000
1100
0001
0010
0100
,
1010
0100
0010
0100
0101
0010
0100
1000
,
1100
0010
0100
0001
0011
0100
0010
0100
,
0110
1000
0100
0010
0110
0001
0010
0100
,
0110
1000
0100
0010
0110
0001
1000
0100
,
0110
0001
1000
0000
1010
0100
0001
0010
,
0100
1000
0100
0010
0011
0000
0110
1010
,
0101
0000
0000
0000
1001
0100
0010
1000
,
0110
0100
0001
0010
0110
1000
0010
0100
,
0110
0000
1000
0000
1001
0000
0100
0000
0001
0100
0001
0100
0001
0100
0001
0100
,
1000
0100
1000
0100
1000
0100
1000
0100
0001
0100
0001
0100
0001
0100
0001
0100
,
0010
0100
0010
0100
0010
0100
0010
0000
1001
0000
0100
0000
0010
0000
0100
0000
,
0110
0001
0010
0100
1010
0100
0010
0100
,
0101
0010
1000
0100
0110
0010
0001
0100
,
1000
0100
0010
0001
0011
0100
1000
0100
,
0001
0100
0010
1000
0101
1010
0100
0001
,
0010
0100
0010
1000
0110
0001
0010
0100
,
1000
0010
0100
0010
0110
0001
0010
0100
,
1000
0100
0010
0001
0010
0100
1000
0100
,
0010
0100
1000
0100
0110
0110
1001
0100
,
0010
0010
0001
0010
0100
1000
0100
0010
,
0100
0001
0010
0100
0110
0110
1001
0100
,
0010
0100
0000
1001
0100
0010
0100
0010
,
1010
0000
0000
0000
1001
0010
0110
0000
,
0110
1000
0001
0010
0011
0100
0010
0100
,
0110
0010
1000
0010
0110
0100
0101
0100
,
0110
0010
1010
0010
0110
0010
0110
0001
,
0101
0000
0000
0000
1001
0100
0010
0100
,
0110
0001
0010
0001
0101
0010
1000
0010
,
0110
0010
1000
0010
1010
0010
0100
0001
,
0101
0010
1000
0010
0110
1000
0001
0100
,
1001
0000
0000
0000
1001
0100
0010
0100
,
0110
1000
0010
0100
0110
1000
0010
0100
,
0110
0001
0010
0001
0011
1100
0110
0101
,
1010
0110
1001
0110
1001
0110
1001
0110
,
1001
0110
1001
0110
0110
0010
0010
0010
,
0100
0001
1000
0100
0010
0100
1000
0000
,
1100
0000
1001
0000
0110
1000
0001
0010
,
0100
0001
1000
0010
0110
1000
0001
0010
,
0000
0000
0001
0010
0110
1000
0010
0100
,
0110
0001
0010
0001
0011
0100
0010
1000
,
1010
0010
0100
0010
0110
0001
0010
0100
,
1010
0100
0001
0010
0100
0011
0000
1010
,
0000
0000
0000
0000
0011
0100
1000
0010
,
0110
0010
0100
0001
0011
0001
0100
0010
,
1010
0010
0100
0001
0011
0100
0010
0100
,
0110
0010
1000
0010
1010
0100
0010
0100
,
0110
0000
0000
0000
1001
0100
0010
0100
,
0110
0010
0100
0001
0011
0100
0010
1000
,
1010
0100
0010
0100
0110
0001
0010
0001
,
0011
0000
0000
0000
1010
0100
0001
0000
,
0011
0000
0000
0000
,
0000
0000
0000
0000
1001
0100
0010
0100
,
0000
0110
0000
1001
0000
0010
0000
0100
,
0101
0000
1010
0000
1010
0100
0001
0010
,
0011
0100
0010
0100
0110
1000
0010
1000
,
1010
0010
0100
0010
0110
0001
0010
0100
,
0110
0001
1000
0010
1010
0010
0100
0001
,
0101
0010
1000
0010
0110
0000
0010
1000
,
0010
0100
0001
0010
0011
0100
0000
0010
,
1010
0000
0000
0000
1001
0100
0010
0100
,
0110
1000
0001
0010
0011
0100
0010
0100
,
0110
1000
0010
0100
0011
0100
0010
1000
,
0100
0010
0001
0010
0100
1000
0100
0010
,
0001
0100
0010
1000
0110
0100
0001
0010
,
0100
0010
0001
0010
0100
1000
0100
0010
,
0001
0010
0100
0010
0110
0001
0010
0100
,
1000
0010
0100
0001
0010
0100
1000
0100
,
0010
0000
0000
0000
1001
0010
0100
0010
,
0100
0010
0001
0100
1000
0010
1010
0000
,
0110
0000
0000
0000
,
0000
2002
0000
0000
,
0000
0000
0000
3003
0000
0000
0000
0000
,
0000
1001
0000
0000
,
0000
0110
0000
0000
1000
0001
0010
0100
,
1000
0010
0100
0110
0110
0000
0000
0000
,
0000
0000
0000
0000
,
0000
0000
0100
1000
0100
0001
0000
0000
,
0000
0011
1100
0000
;

//---------------dance-single - Copied from----------------
#NOTES:
     dance-single:
     Copied from:
     Challenge:
     12:
     0.810,1.000,0.903,0.009,0.198: // measure 1
0001
0010
1000
0100
0010
0001
0100
0010
,  // measure 2
1010
0100
0001
0010
0100
1000
0010
0100
,  // measure 3
0110
0001
0010
0100
1000
0010
0100
0010
,  // measure 4
0110
0001
0010
0100
1000
0010
0100
0010
,  // measure 5
0110
0001
0010
0100
1000
0010
1000
0010
,  // measure 6
0110
0001
0010
0100
1000
0010
0100
0001
,  // measure 7
0011
0100
0010
1000
0010
0100
0010
1000
,  // measure 8
0101
0000
0000
0000
,  // measure 9
1001
0100
0010
1000
0010
0100
0001
0010
,  // measure 10
0110
0001
0010
1000
0100
0010
1000
0100
,  // measure 11
0110
1000
0100
0010
0001
0100
0010
0100
,  // measure 12
0101
0010
1000
0100
0010
1000
0100
0010
,  // measure 13
1010
0100
0001
0010
0100
1000
0010
0100
,  // measure 14
0110
0001
0010
0100
1000
0010
0100
0100
,  // measure 15
1001
0100
0010
1000
0000
0000
0000
1001
,  // measure 16
0100
0010
1000
0000
0110
0000
0000
0000
,  // measure 17
0101
1000
0010
0100
0011
0100
0010
1000
,  // measure 18
0110
0010
0001
0010
0110
0001
1000
0010
,  // measure 19
0110
1000
0010
0100
1010
0100
0010
0100
,  // measure 20
0011
0100
0010
1000
0110
0010
0011
0011
,  // measure 21
1001
0100
0010
1000
0110
0100
0010
0001
,  // measure 22
0011
0100
0010
1000
1010
0100
0010
0100
,  // measure 23
0011
0100
0010
0100
0110
0001
0010
0100
,  // measure 24
0110
0001
0010
1000
1010
0100
0001
0010
,  // measure 25
0110
0010
0001
0100
0110
1000
0010
0100
,  // measure 26
0101
0010
1000
0010
0110
0001
0010
0100
,  // measure 27
1010
0100
0010
0100
0011
0100
0010
1000
,  // measure 28
0010
0100
0001
0110
0110
0000
1001
0000
,  // measure 29
0010
0010
0001
1000
0100
0010
0100
0010
,  // measure 30
1000
0100
0010
0001
0100
1000
1000
0000
,  // measure 31
1001
0100
0010
0100
0101
0010
1000
0100
,  // measure 32
1100
0000
0011
0010
0101
1000
0010
0100
,  // measure 33
0110
1000
0001
0010
0110
0001
0010
0100
,  // measure 34
1100
0010
0100
0100
0101
0010
1000
0100
,  // measure 35
0010
0001
0010
0100
1000
0100
0010
0001
,  // measure 36
0010
0100
1000
0100
0010
0001
0000
0000
,  // measure 37
0001
0010
0100
1000
0100
0010
0001
0010
,  // measure 38
0011
0100
1000
0100
1100
1100
0000
0000
,  // measure 39
1001
0100
0010
0100
0001
0000
1001
0000
,  // measure 40
1000
0100
0010
0001
0011
0100
0010
0100
,  // measure 41
0110
1000
0010
0100
0110
0001
0010
0100
,  // measure 42
0011
0100
0010
1000
1010
0100
0010
0100
,  // measure 43
0101
0010
1000
0100
0011
0100
0010
1000
,  // measure 44
0101
0010
1000
0100
0010
0001
0100
0010
,  // measure 45
1000
0001
0100
0010
0101
0000
0000
0000
,  // measure 46
0011
0000
1000
0100
0110
1001
0000
0000
,  // measure 47
1001
0000
0110
0110
0110
0000
0000
0000
,  // measure 48
0101
1000
0010
0100
0010
0100
0001
0010
,  // measure 49
0100
1000
0100
0010
0100
0000
0000
0000
,  // measure 50
1001
0100
0010
0100
0001
0010
0100
1000
,  // measure 51
1100
0001
0100
0010
0100
0010
1000
0100
,  // measure 52
0110
0001
0010
0100
1000
0010
0100
0001
,  // measure 53
0011
0100
0010
1000
0100
0010
1000
0001
,  // measure 54
0110
1000
0010
0000
0101
0010
0100
1000
,  // measure 55
1100
0010
0100
0001
0010
0100
0000
0010
,  // measure 56
0100
0100
0001
0010
0100
1000
0100
0010
,  // measure 57
0110
0110
1001
0000
0110
0000
0000
0000
,  // measure 58
1001
0100
0010
0100
0110
0001
0010
0100
,  // measure 59
1000
0010
0100
0001
0010
0100
1000
0100
,  // measure 60
0011
0100
1000
0010
0110
0001
1000
0100
,  // measure 61
0110
0001
0100
0010
1010
0100
0001
0010
,  // measure 62
0011
0100
0010
1000
0110
0001
0010
0100
,  // measure 63
1100
0010
0100
0001
0011
0100
0010
1000
,  // measure 64
0110
0001
0010
1000
1100
0000
0110
0000
,  // measure 65
1001
0110
1001
0000
0110
0000
0000
0000
,  // measure 66
0000
0000
0000
0000
1001
0100
0010
0100
,  // measure 67
0001
0010
0100
1000
1100
0001
0010
0100
,  // measure 68
1010
0100
0010
0100
0101
0010
0100
1000
,  // measure 69
1100
0010
0100
0001
0011
0100
0010
0100
,  // measure 70
0110
1000
0100
0010
0110
0001
0010
0100
,  // measure 71
0110
1000
0100
0010
0110
0001
1000
0100
,  // measure 72
0110
0001
1000
0000
1010
0100
0001
0010
,  // measure 73
0100
1000
0100
0010
0011
0000
0110
1010
,  // measure 74
0101
0000
0000
0000
1001
0100
0010
1000
,  // measure 75
0110
0100
0001
0010
0110
1000
0010
0100
,  // measure 76
0110
0000
1000
0000
1001
0000
0100
0000
0001
0100
0001
0100
0001
0100
0001
0100
,  // measure 77
1000
0100
1000
0100
1000
0100
1000
0100
0001
0100
0001
0100
0001
0100
0001
0100
,  // measure 78
0010
0100
0010
0100
0010
0100
0010
0000
1001
0000
0100
0000
0010
0000
0100
0000
,  // measure 79
0110
0001
0010
0100
1010
0100
0010
0100
,  // measure 80
0101
0010
1000
0100
0110
0010
0001
0100
,  // measure 81
1000
0100
0010
0001
0011
0100
1000
0100
,  // measure 82
0001
0100
0010
1000
0101
1010
0100
0001
,  // measure 83
0010
0100
0010
1000
0110
0001
0010
0100
,  // measure 84
1000
0010
0100
0010
0110
0001
0010
0100
,  // measure 85
1000
0100
0010
0001
0010
0100
1000
0100
,  // measure 86
0010
0100
1000
0100
0110
0110
1001
0100
,  // measure 87
0010
0010
0001
0010
0100
1000
0100
0010
,  // measure 88
0100
0001
0010
0100
0110
0110
1001
0100
,  // measure 89
0010
0100
0000
1001
0100
0010
0100
0010
,  // measure 90
1010
0000
0000
0000
0000
0000
0000
0000
0001
0010
0100
1000
0010
0100
0010
0100
,  // measure 91
1000
0010
0100
0001
0010
0100
1000
0010
0001
0010
0100
1000
0010
0100
0001
0010
,  // measure 92
0100
1000
0010
0100
0001
0010
0100
1000
0010
1000
0010
1000
0010
0100
0010
0100
,  // measure 93
0010
0001
0100
0001
0100
0010
0100
0001
0010
0100
1000
0010
0100
0010
0100
1000
,  // measure 94
0100
0000
0000
0000
1001
0000
0100
1010
,  // measure 95
0000
0000
1010
0000
1000
0100
0010
0000
0001
0010
0100
1000
0100
0010
0001
0000
,  // measure 96
0000
0000
0001
0000
0001
0010
0100
0000
1000
0100
0010
0001
0010
0000
0100
0000
,  // measure 97
0001
0010
0100
0010
0001
0010
0100
1000
0100
0010
0001
0100
0010
0100
1000
0010
,  // measure 98
0001
0000
0000
0000
0000
0000
0000
0000
0001
0010
0100
0010
0001
0100
1000
0010
,  // measure 99
0100
0010
0100
1000
0100
0010
0001
0010
0100
0001
0010
0100
1000
0100
0010
0001
,  // measure 100
0010
0001
0100
1000
0010
0001
0010
0001
0010
0100
1000
0010
0100
0001
0010
1000
,  // measure 101
0010
0100
0001
0010
0100
1000
0010
0100
0001
0010
0100
1000
0010
0100
0001
0010
,  // measure 102
0100
0001
0010
0100
1000
0100
0010
0001
0010
0000
0000
0000
0010
0000
0000
0000
,  // measure 103
0100
0000
1000
0100
0010
0100
1000
0000
,  // measure 104
1100
0000
1001
0000
0110
1000
0001
0010
,  // measure 105
0100
0001
1000
0010
0110
1000
0001
0010
,  // measure 106
0000
0000
0001
0010
0110
1000
0010
0100
,  // measure 107
0110
0001
0010
0001
0011
0100
0010
1000
,  // measure 108
1010
0010
0100
0010
0110
0001
0010
0100
,  // measure 109
1010
0100
0001
0010
0100
0011
0000
1010
,  // measure 110
0000
0000
0000
0000
0011
0100
1000
0010
,  // measure 111
0110
0010
0100
0001
0011
0001
0100
0010
,  // measure 112
1010
0010
0100
0001
0011
0100
0010
0100
,  // measure 113
0110
0010
1000
0010
1010
0100
0010
0100
,  // measure 114
0110
0000
0000
0000
1001
0100
0010
0100
,  // measure 115
0110
0010
0100
0001
0011
0100
0010
1000
,  // measure 116
1010
0100
0010
0100
0110
0001
0010
0001
,  // measure 117
0011
0000
0000
0000
1010
0100
0001
0000
,  // measure 118
0011
0000
0000
0000
,  // measure 119
0000
0000
0000
0000
1001
0100
0010
0100
,  // measure 120
0000
0110
0000
1001
0000
0010
0000
0100
,  // measure 121
0101
0000
1010
0000
1010
0100
0001
0010
,  // measure 122
0011
0100
0010
0100
0110
1000
0010
1000
,  // measure 123
1010
0010
0100
0010
0110
0001
0010
0100
,  // measure 124
0110
0001
1000
0010
1010
0010
0100
0001
,  // measure 125
0101
0010
1000
0010
0110
0000
0010
1000
,  // measure 126
0010
0100
0001
0010
0011
0100
0000
0010
,  // measure 127
1010
0000
0000
0000
1001
0100
0010
0100
,  // measure 128
0110
1000
0001
0010
0011
0100
0010
0100
,  // measure 129
0110
1000
0010
0100
0011
0100
0010
1000
,  // measure 130
0100
0010
0001
0010
0100
1000
0100
0010
,  // measure 131
0001
0100
0010
1000
0110
0100
0001
0010
,  // measure 132
0100
0010
0001
0010
0100
1000
0100
0010
,  // measure 133
0001
0010
0100
0010
0110
0001
0010
0100
,  // measure 134
1000
0010
0100
0001
0010
0100
1000
0100
,  // measure 135
0010
0000
0000
0000
1001
0010
0100
0010
,  // measure 136
0100
0010
0001
0100
1000
0010
1010
0000
,  // measure 137
0110
0000
0000
0000
,  // measure 138
0000
2002
0000
0000
,  // measure 139
0000
0000
0000
3003
0000
0000
0000
0000
,  // measure 140
0000
1001
0000
0000
,  // measure 141
0000
0110
0000
0000
1000
0001
0010
0100
,  // measure 142
1000
0010
0100
0110
0110
0000
0000
0000
,  // measure 143
0000
0000
0000
0000
,  // measure 144
0000
0000
0100
1000
0100
0001
0000
0000
,  // measure 145
0000
0011
1100
0000
;
