#VERSION:0.83;
#TITLE:We Lost;
#SUBTITLE:- Clair Obscur Expedition 33;
#ARTIST:Lorien Testard;
#TITLETRANSLIT:;
#SUBTITLETRANSLIT:;
#ARTISTTRANSLIT:;
#GENRE:;
#CREDIT:;
#MUSIC:We Lost short.ogg;
#BANNER:Banner.png;
#BACKGROUND:Banner.png;
#CDTITLE:;
#SAMPLESTART:46.027;
#SAMPLELENGTH:15.668;
#SELECTABLE:YES;
#OFFSET:-0.024;
#BPMS:0.000=179.989;
#STOPS:;
#BGCHANGES:-0.024=We Lost short.mp4=1.000=0=0=1,
99999.000=-nosongbg-=1.000=0=0=0=StretchNoLoop====
;
#FGCHANGES:;

//--------------- dance-single - Ettenra ----------------
#NOTEDATA:;
#STEPSTYPE:dance-single;
#DESCRIPTION:Ettenra;
#DIFFICULTY:Challenge;
#METER:9;
#RADARVALUES:0,0,0,0,0;
#NOTES:
0000
0000
0000
0000
,
0000
0000
0000
0000
,
0000
0000
0000
0000
,
0000
0000
0000
0000
,
0000
0000
0000
0000
,
0000
0000
0000
0000
,
0000
0000
0000
0000
,
0000
0000
0000
0000
1002
0000
0000
0003
,
0200
0000
0320
0000
0030
1000
0001
0000
,
0100
1000
0010
2000
,
3002
0000
0023
0030
0210
0000
1000
0000
,
0300
0000
0120
0000
0000
0001
0031
0000
,
1001
0000
1000
0000
0010
1000
0010
0000
,
0100
0001
0100
0000
0101
0000
1000
0000
,
0010
0000
1020
0000
0000
1000
1030
0000
,
1100
0001
0010
0021
,
0001
0031
0120
0130
,
0000
0000
2001
0000
0000
0010
3010
0000
,
0000
0010
0000
0010
,
0010
1000
0010
1000
0000
0000
0001
0100
,
1000
0100
0002
0000
0000
0003
0000
0000
,
0000
0000
2002
0000
0010
0010
0010
0000
,
0010
0000
3013
0000
0000
0100
0001
0100
,
0010
0100
0110
0000
0010
1000
0010
0000
,
1001
0000
0100
0001
0100
0000
0001
0100
,
0010
1000
0100
0010
0001
0000
0011
0000
,
0011
0000
0110
0000
0010
0001
0010
0000
,
1001
0000
0010
1000
0010
0000
1000
0010
,
0100
0001
0010
0100
1000
0000
1100
0000
,
1100
2000
3002
0203
,
0301
0100
0010
1000
0100
0010
0001
1000
,
0010
0100
0001
0010
0100
1000
0010
1000
,
0100
0010
0100
0001
0100
1000
0001
0100
,
0001
0010
0001
1000
0010
0100
0010
0001
,
0010
1000
0100
0010
0100
0001
0100
1000
,
0100
0001
0200
0000
0300
0000
2002
0000
,
3003
0000
0000
0000
0000
0101
0000
0000
0102
0000
0000
0000
1003
0000
0001
0000
,
1000
0220
0330
1100
,
2100
0000
3001
1000
0001
0000
1002
0000
,
0013
0001
0010
0000
0011
0000
0110
0000
,
1100
0000
0002
0000
0103
0001
0100
0000
,
1000
0010
0100
0001
0010
0000
0220
0330
,
0000
2000
3001
0000
2002
3003
0000
0200
,
0000
0300
1020
0000
0130
0000
0210
0000
,
0320
0000
1030
0010
1000
0000
2002
0000
,
0000
3003
4004
0000
,
3003
0000
1000
0010
0100
0001
0010
0000
,
0011
0010
0100
1000
0001
0000
1001
0000
,
0000
0000
0011
0000
1100
0000
1000
0001
,
1000
0000
0001
0000
2002
0000
0000
0000
3003
0000
0000
0000
0000
0101
0000
0000
,
0102
0000
1003
0001
1000
0000
0220
0000
,
0330
0000
1100
0000
2100
0000
3001
1000
,
0001
0000
1002
0000
0013
0001
0010
0000
,
0011
0110
1100
0002
,
0103
0001
0100
0000
1000
0010
0100
0001
,
0010
0000
0220
0330
0000
2000
3001
0000
,
2002
3003
0000
0020
0030
0000
0220
0330
,
0000
2002
3003
0000
0120
0000
1030
0010
,
1000
2002
0000
3003
,
4004
0000
0000
0000
3003
0000
1000
0010
,
0100
0001
0010
0000
0011
0010
0100
1000
,
0001
1001
0000
0011
,
1100
0000
1000
0001
1000
0001
1002
0000
,
0000
0003
0200
0000
0320
0000
0000
0000
,
2030
3200
0300
0020
,
0031
1000
0002
0000
0023
0030
0210
0000
,
1000
0300
0120
0001
,
0030
0000
1001
0000
1000
0000
0010
1000
,
0010
0000
0100
0001
0100
0000
0002
0000
,
2003
3010
1020
0000
,
1030
2000
3002
0013
,
0021
0000
0030
0220
,
0000
0000
0000
0030
,
0310
0200
1000
1000
,
0010
0300
0010
0001
0010
0000
0021
0000
,
0000
0000
0001
0000
,
0030
0000
2000
0000
0000
0000
0000
3000
,
2000
0000
0002
3000
0000
0000
0203
0000
,
0000
0000
0000
0300
0200
0000
0000
0000
,
0000
0320
0000
0000
,
0230
0000
0300
0200
,
0310
1000
0010
0000
2000
0000
3001
0010
,
0001
0000
0020
0000
0130
0010
0100
0000
,
0002
0000
1003
0100
1000
0000
0120
0000
,
0100
0130
1200
1000
,
1300
0012
0010
0013
,
0120
0100
0130
0110
,
0010
0001
0010
0000
1001
0000
0100
1000
,
0100
0000
0001
0100
0010
1000
0100
0010
,
0001
0011
0011
0110
,
0010
0001
0010
0000
1001
0000
0010
1000
,
0010
0000
1000
0010
0100
0001
0010
0100
,
1000
1100
1100
2000
,
3002
0000
0203
0000
0301
0100
0010
1000
,
0100
0010
0001
1000
0010
0100
0001
0010
,
0100
1000
0010
1000
0100
0010
0100
0001
,
0100
1000
0001
0100
0001
0010
0001
1000
,
0010
0100
0010
0001
0010
1000
0100
0010
,
0200
0000
0000
0000
,
0300
0000
0000
0000
;
