#VERSION:0.83;
#TITLE:Valse di Fantastica;
#SUBTITLE:- Fintal Fantasy XV;
#ARTIST:Yoko Shimomura;
#TITLETRANSLIT:;
#SUBTITLETRANSLIT:;
#ARTISTTRANSLIT:;
#GENRE:;
#CREDIT:;
#MUSIC:Valse di Fantastica.ogg;
#BANNER:Banner.png;
#BACKGROUND:Banner.png;
#CDTITLE:;
#SAMPLESTART:0.000;
#SAMPLELENGTH:0.000;
#SELECTABLE:YES;
#OFFSET:-0.345;
#BPMS:0.000=132.000;
#STOPS:;
#BGCHANGES:-0.500=Valse di Fantastica.mp4=1.000=0=0=1,
99999.000=-nosongbg-=1.000=0=0=0=StretchNoLoop====
;
#FGCHANGES:;

//--------------- dance-single - Ettenra ----------------
#NOTEDATA:;
#STEPSTYPE:dance-single;
#DESCRIPTION:Ettenra;
#DIFFICULTY:Beginner;
#METER:1;
#RADARVALUES:0,0,0,0,0;
#NOTES:
0000
0000
0000
0000
,
0000
0000
0000
0000
,
0000
0010
0000
0100
,
0000
0000
0000
0020
0000
0000
0000
0030
0000
0000
0000
0000
,
0000
0000
0000
2000
0000
0000
0000
3000
0000
0000
0000
0000
,
0010
0000
0000
0000
,
0000
0010
0000
0100
,
0000
0000
0000
0020
0000
0000
0000
0030
0000
0000
0000
0000
,
0000
0000
0000
2000
0000
0000
0000
3000
0000
0000
0000
0000
,
0010
0000
0000
0000
,
0000
0110
0000
0100
,
0000
0010
0000
0001
,
0000
1000
0000
0100
,
0000
1000
0000
0100
,
0000
0110
0000
0010
,
0000
0010
0000
1000
,
0000
2000
3000
0000
,
0010
0000
0000
0000
,
0000
0020
0000
0030
,
0000
0002
0000
0003
,
0000
2000
0000
3000
,
0000
0002
0000
0003
,
0000
2000
0000
3000
,
0000
0200
0000
0300
,
0000
0002
0000
0003
,
0000
0020
0000
0030
,
0000
0110
0000
0100
,
0000
0010
0000
0001
,
0000
1000
0000
0100
,
0000
1000
0000
0100
,
0000
0110
0000
0010
,
0000
0010
0000
1000
,
0000
1000
0000
0001
,
0000
0001
0000
0000
,
0000
1001
0000
0000
,
0000
0010
0000
0100
,
0000
0110
0000
0001
,
0000
1000
0000
0000
,
0000
1001
0000
1000
,
0000
0110
0000
0100
,
0000
0020
0000
0030
,
0000
1000
0000
0001
,
0000
0001
0000
0100
,
0000
0100
0000
1000
,
0000
0010
0000
0001
,
0000
0100
0000
0100
,
0000
0001
0000
0100
,
0000
0100
0000
1000
,
0000
0010
0000
0001
,
0000
0100
0000
0010
,
0000
0200
0000
0000
,
0000
0300
0000
0000
;

//--------------- dance-single - Ettenra ----------------
#NOTEDATA:;
#STEPSTYPE:dance-single;
#DESCRIPTION:Ettenra;
#DIFFICULTY:Easy;
#METER:3;
#RADARVALUES:0,0,0,0,0;
#NOTES:
0000
0000
0000
0000
,
0000
0000
0000
0000
,
0000
0010
0100
0100
,
0000
0000
0000
0020
0000
0000
0000
0030
0000
0001
0000
0000
,
0000
0000
0000
2000
0000
0000
0000
3000
0000
0200
0000
0000
,
0310
0000
0000
0000
0000
0000
2000
0000
0000
0000
0000
3000
0100
0000
0000
0000
0000
0000
0100
0000
0000
0000
0000
0000
,
0000
0010
0100
0100
,
0000
0000
0000
0020
0000
0000
0000
0030
0000
1000
0000
0000
,
0000
0000
0000
0000
0000
0000
2000
0000
0000
0000
0000
0000
0000
0000
3000
0000
0000
0000
0200
0000
0000
0000
0000
0300
,
0010
0200
0300
0000
,
0100
0011
0100
0100
,
0000
0000
0000
0020
0000
0000
0000
0030
0000
0001
0000
0000
,
0000
0000
0000
2000
0000
0000
0000
3000
0000
0100
0000
0000
,
0010
0000
0000
0000
0000
0000
2000
0000
0000
0000
0000
3000
0100
0000
0000
0000
0000
0000
0100
0000
0000
0000
0000
0000
,
0000
0110
0010
0010
,
0000
0000
0000
0020
0000
0000
0000
0030
0000
1000
0000
0000
,
0000
0000
0000
0000
0000
0000
2000
0000
0000
0000
0000
0000
3100
0000
0000
0000
0000
0000
0200
0000
0000
0000
0000
0300
,
0010
0000
0000
0200
0000
0000
0000
0000
0300
0000
0000
0000
,
0000
0020
0000
0000
,
0030
0002
0000
0200
,
0300
0000
0000
2003
0000
0000
0000
0000
0000
0000
3000
0000
,
0000
0002
0000
0020
,
0030
0000
2003
0000
0000
0000
0020
3030
,
0000
0200
0000
0000
,
0300
0000
0000
0002
0000
0000
0103
0000
0000
0020
0000
0030
,
0000
0020
0000
0030
,
0100
0011
0100
0100
,
0000
0000
0000
0020
0000
0000
0000
0030
0000
0001
0000
0000
,
0000
0000
0000
2000
0000
0000
0000
3000
0000
0100
0000
0000
,
0010
0000
0000
0000
0000
0000
2000
0000
0000
0000
0000
3000
0100
0000
0000
0000
0000
0000
0100
0000
0000
0000
0000
0000
,
0000
0110
0010
0010
,
0000
0000
0000
0020
0000
0000
0000
0030
0000
1000
0000
0000
,
0000
1000
0000
0001
,
0100
0001
1000
0100
,
0010
1001
0010
1000
,
0000
0101
0000
0100
,
0000
1001
0001
0010
,
0100
1000
0001
0000
,
0000
0000
0000
0000
0000
0000
1002
0000
0000
0000
0000
0000
1000
0000
0000
0000
0000
0003
2000
0000
0000
0000
0000
0000
,
3000
0000
0000
0210
0000
0300
0000
0000
0000
0200
0000
0300
,
0000
0000
0000
0020
0000
0000
0000
0000
0000
0100
0000
0030
,
0000
0000
0000
0000
0000
0000
2000
0000
0000
0000
0000
3000
0000
0000
0000
0000
0000
0000
0002
0000
0000
0000
0003
0000
,
0000
0001
0100
0100
,
0000
0100
0000
1000
,
0000
0010
0100
0002
,
0003
0000
0000
0100
0000
0000
0010
0000
0000
0200
0000
0300
,
0000
0001
0100
0100
,
0000
0100
0000
1000
,
0000
0010
0100
0002
,
0003
0000
0000
0100
0000
0000
0010
0000
0000
0200
0000
0300
,
0000
0200
0000
0000
,
0000
0300
0000
0000
;

//--------------- dance-single - Ettenra ----------------
#NOTEDATA:;
#STEPSTYPE:dance-single;
#DESCRIPTION:Ettenra;
#DIFFICULTY:Medium;
#METER:5;
#RADARVALUES:0,0,0,0,0;
#NOTES:
0000
0000
0000
0000
,
0000
0000
0000
0000
,
0000
0000
0000
0010
0000
0000
0000
0010
0000
0100
0000
0001
,
0000
1000
0000
0020
0000
0000
0000
0130
0000
0001
0000
0002
,
0000
0000
0000
2003
0000
0000
0000
3020
0000
0200
0330
0000
,
0000
0000
0100
0000
0000
0000
2000
0000
0000
0000
0000
3000
0000
0000
0010
0000
0000
0000
0200
0000
0300
0000
0001
0000
,
0000
0100
0000
0010
0000
0000
0000
0010
0000
0100
0000
0001
,
0000
1000
0000
0020
0000
0000
0000
0130
0000
0001
0000
0002
,
0000
0000
0000
0000
0000
0000
2003
0000
0000
0000
0000
0000
0000
0000
3020
0000
0000
0000
0200
0000
0030
0000
0000
0300
,
0000
1000
0000
0200
0000
0000
0300
0000
0000
0000
0000
1000
,
0000
0001
0000
0011
0000
0000
0000
0010
0000
0100
0000
0001
,
0000
1000
0000
0020
0000
0000
0000
0130
0000
0001
0000
0002
,
0000
0000
0000
2003
0000
0000
0000
3020
0000
0200
0330
0000
,
0000
0000
0100
0000
0000
0000
2000
0000
0000
0000
0000
3000
0000
0000
0010
0000
0000
0000
0200
0000
0300
0000
0001
0000
,
0000
1000
0000
1010
0000
0000
0000
0010
0000
0100
0000
0001
,
0000
1000
0000
0020
0000
0000
0000
0130
0000
0001
0000
0002
,
0000
0000
0000
0000
0000
0000
2003
0000
0000
0000
0000
0000
3000
0000
0010
0000
0000
0000
0200
0000
0000
0000
0000
0300
,
0000
0001
0000
0200
0000
0000
0000
0000
0300
0000
0000
0002
,
0000
0203
0000
0320
0000
0000
0000
2000
0000
0000
0000
0000
,
3030
0002
0000
0200
,
0300
0000
0000
2003
0000
0000
0000
0200
0000
0000
3300
0000
,
0000
0100
0000
0002
0000
0000
0000
0000
0000
0020
0000
0000
,
0030
0000
2003
0000
0000
0000
0020
3030
,
0000
0200
0000
0000
,
0300
0000
0000
0002
0000
0000
0003
1000
0000
0020
0000
2030
,
0000
3002
0000
0023
0000
0000
0000
0000
0000
0030
0000
1000
,
0000
0001
0000
0011
0000
0000
0000
0010
0000
0100
0000
0001
,
0000
1000
0000
0020
0000
0000
0000
0130
0000
0001
0000
0002
,
0000
0000
0000
2003
0000
0000
0000
3020
0000
0200
0330
0000
,
0000
0000
0100
0000
0000
0000
2000
0000
0000
0000
0000
3000
0000
0000
0010
0000
0000
0000
0200
0000
0300
0000
0001
0000
,
0000
1000
0000
1010
0000
0000
0000
0010
0000
0100
0000
0001
,
0000
1000
0000
0020
0000
0000
0000
0130
0000
0001
0000
0002
,
0000
0000
0000
1003
0000
0100
0000
0010
0000
0001
0000
0000
,
0000
0001
0000
0001
0000
0000
0000
0100
0000
0100
0000
0000
,
0010
0000
0000
1001
0000
0000
0000
0000
0000
1000
0000
0001
,
0000
0100
0000
0101
0000
0010
0000
0011
0000
0100
0000
1100
,
0000
0001
0000
1001
0000
0000
0001
0000
0010
0000
0001
0000
,
0010
0000
0100
0000
0010
0000
0100
0000
1000
0000
0100
0000
,
1000
0000
0000
0000
0000
0000
1002
0000
0000
0000
0000
0000
0000
0000
0000
0000
0000
0003
2000
0000
0000
0000
0001
0000
,
3000
0001
0000
0210
0000
0302
0000
2003
0000
3200
0000
0310
,
0000
0001
0000
0020
0000
0000
0000
0000
0000
0100
0000
0031
,
0000
0000
1000
0000
0000
0000
2000
0000
0000
0000
0000
3000
0000
0000
0001
0000
0000
0000
0002
0000
0000
0000
0023
0000
,
0000
0200
0330
0001
0000
0000
0000
0001
0000
0100
0000
0001
,
0000
0010
0000
0100
0000
0000
0000
1000
0000
1000
0000
0000
,
0000
0100
0000
0010
0000
0000
0000
0010
0000
0002
0000
0000
,
0003
0010
0000
0100
0000
0000
0000
0001
0000
0200
0000
0302
,
0000
0203
0000
0301
0000
0000
0000
0001
0000
0100
0000
0001
,
0000
0010
0000
0100
0000
0000
0000
1000
0000
1000
0000
0000
,
0000
0100
0000
0010
0000
0000
0000
0010
0000
0002
0000
0000
,
0003
0010
0000
0100
0000
0000
0000
0001
0000
0200
0000
0302
,
0000
0023
0000
0230
0000
0000
0000
0000
0000
0000
0000
0000
,
0000
0300
0000
0000
;

//--------------- dance-single - Ettenra ----------------
#NOTEDATA:;
#STEPSTYPE:dance-single;
#DESCRIPTION:Ettenra;
#DIFFICULTY:Hard;
#METER:6;
#RADARVALUES:0,0,0,0,0;
#NOTES:
0000
0000
0000
0000
,
0000
0000
0000
0000
,
0000
0000
0000
0010
0000
0000
0100
0010
0000
0100
0000
0001
,
0000
1000
0000
0020
0000
0000
0000
0130
0000
0001
0000
0002
,
0000
0000
0000
2003
0000
0000
0000
3020
0000
0200
0330
0000
,
0010
0000
0100
0000
0000
0000
2000
0000
0000
0000
0000
3000
0100
0000
0010
0000
0000
0000
0200
0000
0300
0000
0001
0000
,
0100
0010
0000
0010
0000
0000
0100
0010
0000
0100
0000
0001
,
0000
1000
0000
0020
0000
0000
0000
0130
0000
0001
0000
0002
,
0000
0000
0000
0000
0000
0000
2003
0000
0000
0000
0000
0000
0000
0000
3020
0000
0000
0000
0200
0000
0030
0000
0000
0300
,
0010
1000
0000
0200
0000
0000
0300
0000
0000
0000
0000
1000
,
0100
0010
0000
0011
0000
0000
0100
0010
0000
0100
0000
0001
,
0000
1000
0000
0020
0000
0000
0000
0130
0000
0001
0000
0002
,
0000
0000
0000
2003
0000
0000
0000
3020
0000
0200
0330
0000
,
0010
0000
0100
0000
0000
0000
2000
0000
0000
0000
0000
3000
0100
0000
0010
0000
0000
0000
0200
0000
0300
0000
0001
0000
,
0100
0010
0000
1010
0000
0000
0100
0010
0000
0100
0000
0001
,
0000
1000
0000
0020
0000
0000
0000
0130
0000
0001
0000
0002
,
0000
0000
0000
0000
0000
0000
2003
0000
0000
0000
0000
0000
3100
0000
0010
0000
0000
0000
0200
0000
0000
0000
0000
0300
,
0010
0001
0000
0200
0000
0000
0000
0000
0300
0000
0000
0002
,
0000
0203
0000
0320
0000
0000
0000
2000
0000
0000
0000
0000
,
3030
0000
0000
0002
0000
0000
0000
0010
0000
0200
0000
0000
,
0300
0000
0000
2003
0000
0000
0000
0200
0000
0000
3300
0000
,
0000
0100
0000
0002
0000
0000
0000
0100
0000
0020
0000
0000
,
0030
0000
2003
0000
0000
0000
0020
3030
,
0000
1000
0000
0200
0000
0000
0000
0000
0000
0000
0000
0000
,
0300
0000
0000
0002
0000
0000
0103
0010
0000
0020
0000
2030
,
0000
3002
0000
0023
0000
0000
0000
0000
0000
0030
0000
1000
,
0100
0010
0000
0011
0000
0000
0100
0010
0000
0100
0000
0001
,
0000
1000
0000
0020
0000
0000
0000
0130
0000
0001
0000
0002
,
0000
0000
0000
2003
0000
0000
0000
3020
0000
0200
0330
0000
,
0010
0000
0100
0000
0000
0000
2000
0000
0000
0000
0000
3000
0100
0000
0010
0000
0000
0000
0200
0000
0300
0000
0001
0000
,
0100
0010
0000
1010
0000
0000
0100
0010
0000
0100
0000
0001
,
0000
1000
0000
0020
0000
0000
0000
0130
0000
0001
0000
0002
,
0000
0000
0000
1003
0000
0100
0000
0010
0000
0001
0000
0000
,
0100
0001
0000
0001
0000
0000
1000
0100
0000
0100
0000
0000
,
0010
0100
0000
1001
0000
0000
0010
0010
0000
1000
0000
0001
,
0000
0100
0000
0101
0000
0010
0000
0011
0000
0100
0000
1100
,
0000
0001
0000
1001
0000
0000
0001
0010
0000
0010
0100
0000
,
0100
1000
0000
1000
0001
0000
0001
0010
0000
0000
0000
0200
,
0000
0000
0002
0303
0000
0000
1002
0000
0000
0000
0000
0000
1000
0000
1000
0000
0000
0003
2000
0000
0000
0000
0001
0000
,
3000
0001
0000
0210
0000
0302
0000
2103
0000
3200
0000
0310
,
0000
0001
0000
0020
0000
0000
0001
0001
0000
0100
0000
0031
,
0000
0000
1000
0000
0000
0000
2000
0000
0000
0000
0000
3000
0000
0000
0001
0000
0000
0000
0002
0000
0000
0000
0023
0000
,
0000
0200
0330
0001
0000
0000
0100
0001
0000
0100
0000
0001
,
0000
0010
0000
0100
0000
0000
0000
1000
0000
1000
0100
0000
,
0000
0100
0000
0010
0000
0000
0100
0010
0000
0002
0000
0000
,
0003
0010
0000
0100
0000
0000
0010
0001
0000
0200
0000
0302
,
0000
0203
0000
0301
0000
0000
0100
0001
0000
0100
0000
0001
,
0000
0010
0000
0100
0000
0000
0000
1000
0000
1000
0100
0000
,
0000
0100
0000
0010
0000
0000
0100
0010
0000
0002
0000
0000
,
0003
0010
0000
0100
0000
0000
0010
0001
0000
0200
0000
0302
,
0000
0023
0000
0230
0000
0000
0000
0000
0000
0000
0000
0000
,
0000
0300
0000
0000
;

//--------------- dance-single - Ettenra ----------------
#NOTEDATA:;
#STEPSTYPE:dance-single;
#DESCRIPTION:Ettenra;
#DIFFICULTY:Challenge;
#METER:8;
#RADARVALUES:0,0,0,0,0;
#NOTES:
0000
0000
0000
0000
,
0000
0000
0000
0000
,
0000
0000
0000
0010
0000
0000
0100
0010
0000
0100
0000
0001
,
0000
1000
0000
0020
0000
0000
0000
0130
0000
0001
0100
0002
,
0000
0000
0000
2003
0000
0000
0000
3020
0000
0200
0330
0000
,
0010
0000
1000
0000
0100
0000
2000
0000
0000
0000
0000
3000
0100
0000
0010
0000
0001
0000
0200
0000
0300
0000
0001
0000
,
0100
0010
1000
0010
0000
0000
0100
0010
0000
0100
0000
0001
,
0000
1000
0000
0020
0000
0000
0000
0130
0000
0001
0100
0002
,
0000
0000
0000
0000
0000
0000
2003
0000
0000
0000
0000
0000
0000
0000
3020
0000
0000
0000
0200
0000
0030
0000
0000
0300
,
0010
1000
0000
0200
0000
0000
0300
0000
0000
0000
0000
1000
,
0100
0010
0001
0011
0000
0000
0100
0010
0000
0100
0000
0001
,
0000
1000
0000
0020
0000
0000
0000
0130
0000
0001
0100
0002
,
0000
0000
0000
2003
0000
0000
0000
3020
0000
0200
0330
0000
,
0010
0000
1000
0000
0100
0000
2000
0000
0000
0000
0000
3000
0100
0000
0010
0000
0001
0000
0200
0000
0300
0000
0001
0000
,
0100
0010
1000
1010
0000
0000
0100
0010
0000
0100
0000
0001
,
0000
1000
0000
0020
0000
0000
0000
0130
0000
0001
0100
0002
,
0000
0000
0000
0000
0000
0000
2003
0000
0000
0000
0000
0000
3100
0000
0010
0000
0001
0000
0200
0000
0000
0000
0000
0300
,
0010
1000
0000
0200
0000
0000
0000
0000
0300
0000
0000
0002
,
0000
0203
0000
0320
0000
0000
0000
2000
0000
0000
0000
0000
,
3030
0000
0000
0002
0000
0000
0000
0010
0000
0200
0000
0000
,
0300
0000
0000
2003
0000
0000
0000
0200
0000
0000
3300
0000
,
0000
0100
1000
0002
0000
0000
0000
0100
0000
0020
0000
0000
,
0030
0000
2003
0000
0000
0000
0020
3030
,
0000
1000
0000
0200
0000
0000
0000
0000
0000
0000
0000
0000
,
0300
0000
0000
0002
0000
0000
0103
0010
1000
0020
0000
2030
,
0000
3002
0000
0023
0000
0000
0000
0000
0000
0030
0000
1000
,
0100
0010
0001
0011
0000
0000
0100
0010
0000
0100
0000
0001
,
0000
1000
0000
0020
0000
0000
0000
0130
0000
0001
0100
0002
,
0000
0000
0000
2003
0000
0000
0000
3020
0000
0200
0330
0000
,
0010
0000
1000
0000
0100
0000
2000
0000
0000
0000
0000
3000
0100
0000
0010
0000
0001
0000
0200
0000
0300
0000
0001
0000
,
0100
0010
1000
1010
0000
0000
0100
0010
0000
0100
0000
0001
,
0000
1000
0000
0020
0000
0000
0000
0130
0000
0001
0100
0002
,
0000
0000
0000
1003
0000
0100
0000
0010
0000
0001
0000
0000
,
0100
0001
1000
0100
0000
0000
0100
1000
0001
0100
0000
0000
,
0010
0100
0000
1001
0000
0000
0010
0010
0000
1000
0010
1000
,
0010
0100
0001
0101
0000
0010
0000
0011
0000
0100
0000
1100
,
0000
0001
0000
1001
0000
0000
0001
0010
0001
0010
0100
0010
,
0100
1000
0100
1000
0001
1000
0001
0010
0001
0010
0001
0200
,
0000
0000
0002
0303
0000
0000
1002
0000
0000
0000
0000
0000
1000
0000
1000
0000
0000
0003
2000
0000
0000
0000
0001
0000
,
3000
0001
0000
0210
0000
0302
0000
2103
0000
3200
0000
0310
,
0000
0001
0100
0020
0000
0000
1000
1000
0000
0100
0000
1030
,
0000
0000
0001
0000
0010
0000
0002
0000
0000
0000
0000
0003
0000
0000
1000
0000
0100
0000
2000
0000
0000
0000
3020
0000
,
0000
0200
0330
0001
0000
0000
0100
0001
0000
0100
0000
0001
,
0000
0010
0000
0100
0000
0000
0000
1000
0000
1000
0000
0000
,
0000
0100
0000
0010
0000
0000
0100
0010
0000
0002
0000
0000
,
0003
0010
0001
0100
0000
0000
0010
1000
0001
0200
0000
0302
,
0000
0203
0000
0301
0000
0000
0100
0001
0000
0100
0000
0001
,
0000
0010
0000
0100
0000
0000
0000
1000
0000
1000
0000
0000
,
0000
0100
0000
0010
0000
0000
0100
0010
0000
0002
0000
0000
,
0003
0010
0001
0100
0000
0000
0010
1000
0001
0200
0000
0302
,
0000
0023
0000
0230
0000
0000
0000
0000
0000
0000
0000
0000
,
0000
0300
0000
0000
;
