#VERSION:0.83;
#TITLE:Touch;
#SUBTITLE:;
#ARTIST:Katseye;
#TITLETRANSLIT:;
#SUBTITLETRANSLIT:;
#ARTISTTRANSLIT:;
#GENRE:K-POP;
#CREDIT:;
#MUSIC:Touch.ogg;
#BANNER:Banner.png;
#BACKGROUND:Background.png;
#CDTITLE:;
#SAMPLESTART:0.000;
#SAMPLELENGTH:0.000;
#SELECTABLE:YES;
#OFFSET:0.132;
#BPMS:0.000=167.000;
#STOPS:;
#BGCHANGES:0.200=Touch.mp4=1.000=0=0=1,
99999.000=-nosongbg-=1.000=0=0=0=StretchNoLoop====
;
#FGCHANGES:;

//--------------- dance-single - Ettenra ----------------
#NOTEDATA:;
#STEPSTYPE:dance-single;
#DESCRIPTION:Ettenra;
#DIFFICULTY:Beginner;
#METER:3;
#RADARVALUES:0,0,0,0,0;
#NOTES:
0000
0000
1000
1000
,
1000
1000
1000
0000
,
0000
0000
0001
0001
,
0001
0001
0001
0000
,
0000
0000
0100
0100
,
0100
0100
0100
0000
,
0000
0000
1001
0000
,
1000
0000
0100
0000
,
1000
0000
1001
0000
,
0020
0030
0000
1000
,
2000
3000
0000
0000
,
0020
0030
0000
0100
,
0100
0200
0300
0000
,
2000
3000
0000
0100
,
0100
0000
0110
0000
,
0110
0000
0001
0001
,
0000
0020
0030
0000
,
0200
0300
0000
0001
,
0002
0000
0003
0000
,
0200
0300
0000
1000
,
1000
2000
3000
0000
,
0002
0003
0000
1000
,
1000
0000
0110
0000
,
0110
0000
1000
1000
,
1000
0000
0200
0300
,
0000
0200
0300
0000
,
0001
0000
0200
0300
,
0000
0002
0003
0000
,
0000
0010
0020
0030
,
0000
0200
0300
0000
,
1000
0000
0000
0000
0020
0000
0000
0030
,
0000
0000
0000
0000
,
0000
0000
1000
1000
,
1000
1000
1000
0000
,
0010
0000
0001
0001
,
0001
0001
0001
0000
,
0010
0000
0100
0100
,
0100
0100
0100
0000
,
0010
0000
1001
0000
,
1000
0000
0010
0000
,
1000
0000
1000
1000
,
1000
1000
1000
0000
,
0010
0000
0001
0001
,
0001
0001
0001
0000
,
0100
0000
0010
0010
,
0010
0010
0010
0000
,
0100
0000
1001
0000
,
1000
0000
0100
0000
,
0001
0000
1001
0000
,
0020
0030
0000
0001
,
0002
0003
0000
0000
,
0020
0030
0000
1000
,
1000
2000
3000
0000
,
0200
0300
0000
0100
,
0100
0000
0110
0000
,
0110
0000
0001
0001
,
0001
0001
0000
0010
,
0010
0000
0100
0000
,
1000
1000
0000
0010
,
0010
0000
0100
0000
,
0010
0010
0000
0001
,
0001
0000
1000
0000
,
0100
0100
0000
0000
,
0000
0000
0220
0330
,
0000
0000
0200
0300
,
0000
0200
0300
0000
,
0001
0000
0200
0300
,
0000
0002
0003
0000
,
0000
0010
0020
0030
,
0000
0200
0300
0000
,
1000
0000
0000
0000
0020
0000
0000
0030
,
0000
0000
0000
0000
,
0000
0000
1000
1000
,
1000
1000
1000
0000
,
0010
0000
0001
0001
,
0001
0001
0001
0000
,
0010
0000
0100
0100
,
0100
0100
0100
0000
,
0010
0000
1001
0000
,
1000
0000
0010
0000
,
1000
0000
1000
1000
,
1000
1000
1000
0000
,
0010
0000
0001
0001
,
0001
0001
0001
0000
,
0100
0000
0010
0010
,
0010
0010
0010
0000
,
0100
0000
1001
0000
,
1000
0000
0100
0000
,
0001
0000
1001
0000
;

//--------------- dance-single - Ettenra ----------------
#NOTEDATA:;
#STEPSTYPE:dance-single;
#DESCRIPTION:Ettenra;
#DIFFICULTY:Easy;
#METER:4;
#RADARVALUES:0,0,0,0,0;
#NOTES:
0000
0000
1000
1000
,
1000
1000
1000
0100
,
0100
0000
0001
0001
,
0001
0001
0001
0010
,
0010
0000
0100
0100
,
0100
0100
0100
0001
,
1000
0000
1001
0000
,
1000
0001
0100
0010
,
1000
0100
1001
0000
,
0020
0030
0010
1000
,
2000
0000
0000
3000
0000
0000
0000
0000
,
0020
0030
0010
0100
,
0100
0020
0000
0030
,
2000
0000
0000
3000
0001
0000
1000
0000
,
0100
0000
0202
0303
,
2020
3030
0001
0010
,
0001
0020
0030
0000
,
0200
0300
0100
0001
,
0002
0000
0000
0003
0000
0000
0000
0000
,
0200
0300
0100
1000
,
1000
0020
0000
0030
,
0002
0003
0010
1000
,
0100
0000
2200
3300
,
0022
0033
1000
0001
,
2000
3020
0230
0300
,
0000
0200
0300
0000
,
0002
0003
0200
0300
,
0000
0002
0003
0000
,
0000
0010
0020
0030
,
0000
0200
0300
0000
,
2000
3001
0020
0000
,
0000
0000
0000
0030
0000
0000
0100
0000
,
1000
0100
1100
1100
,
1100
1100
1100
0010
,
0001
0010
0011
0011
,
0011
0011
0011
0010
,
0100
0010
0110
0110
,
0110
0110
0110
0001
,
0010
0100
1001
0000
,
1000
0100
0010
0100
,
1000
0100
1100
1100
,
1100
1100
1100
0010
,
0001
0010
0011
0011
,
0011
0011
0011
0100
,
0001
0100
0101
0101
,
0101
0101
0101
0001
,
0010
0100
1001
0000
,
1000
0100
0100
0010
,
0001
1000
1001
0000
,
0020
0030
0010
0001
,
0002
0000
0000
0003
0000
0000
0000
0000
,
0020
0030
0010
1000
,
1000
0020
0000
0030
,
2000
0000
0000
3000
0010
0000
1000
0000
,
0100
0000
0202
0303
,
2020
3030
1000
0001
,
1000
0020
0030
0010
,
0010
0000
0100
0001
,
1000
2000
0000
3010
,
0020
0030
0100
1000
,
0010
0020
0030
0010
,
0020
0030
1000
0001
,
0100
0200
0310
1000
,
0010
0100
0220
0330
,
1000
1000
0200
0300
,
0000
0200
0300
0000
,
0002
0003
0200
0300
,
0000
0002
0003
0000
,
0000
0010
0020
0030
,
0000
0200
0300
0000
,
2000
3001
0010
0020
,
0000
0030
0110
0100
,
1000
0100
1100
1100
,
1100
1100
1100
0010
,
0001
0010
0011
0011
,
0011
0011
0011
0010
,
0100
0010
0110
0110
,
0110
0110
0110
0001
,
0010
0100
1001
0000
,
1000
0100
0010
0100
,
1000
0100
1100
1100
,
1100
1100
1100
0010
,
0001
0010
0011
0011
,
0011
0011
0011
0100
,
0001
0100
0101
0101
,
0101
0101
0101
0001
,
0010
0100
1001
0000
,
1000
0100
0100
0010
,
0001
1000
1001
0000
;

//--------------- dance-single - Ettenra ----------------
#NOTEDATA:;
#STEPSTYPE:dance-single;
#DESCRIPTION:Ettenra;
#DIFFICULTY:Medium;
#METER:7;
#RADARVALUES:0,0,0,0,0;
#NOTES:
0000
0000
1000
1000
,
1000
0000
1000
0000
1000
0000
0100
0010
,
0100
0000
0000
0010
0001
0000
0001
0000
,
0001
0000
0001
0000
0001
0000
0010
0100
,
0010
0000
0000
0010
0100
0000
0100
0000
,
0100
0000
0100
0000
0100
0000
1000
0001
,
1000
0000
0000
0000
1001
0000
0000
0100
,
1000
0000
0000
0001
0100
0000
0010
1000
,
0010
0000
1001
0000
,
0020
2000
0000
3030
0000
0000
0001
1000
,
0001
0200
0000
0300
0000
0000
0000
0000
,
0020
0002
0000
0033
0000
0000
1000
0100
,
1000
0100
0020
0000
0000
0000
0030
0000
,
2000
0002
0000
3003
0000
0000
0100
0001
,
0100
0002
0003
0000
0202
0303
0000
0000
,
2020
3030
0000
0000
0001
0000
0010
0000
,
0001
0020
0030
0000
,
0200
2000
0000
3300
0000
0000
0001
1000
,
0001
0020
0000
0030
0000
0000
0000
0000
,
0200
0002
0000
0303
0000
0000
1000
0100
,
1000
0100
0020
0000
0000
0000
0030
0000
,
0002
2000
0000
3003
0000
0000
0100
0001
,
0100
0002
0003
0000
2200
3300
0000
0000
,
0022
0033
0000
0100
1000
0100
0000
0000
,
2000
0000
3020
0030
0200
0000
0300
0002
,
0000
0003
2000
0000
3000
0200
0000
0300
,
0020
0000
0030
0000
0200
0000
0300
0020
,
0000
0030
0002
0000
0003
0020
0000
0030
,
0000
0000
0100
0010
0200
0300
0000
2000
,
0000
3000
0200
0000
0300
0020
0000
0030
,
0002
0000
1003
0200
0000
0000
0000
0000
,
0000
0300
0000
0100
,
1000
0000
1100
1010
,
1100
1010
1100
0010
,
0100
0000
0011
0101
,
0011
0101
0011
0010
,
0010
0000
0110
1001
,
0110
1001
0110
0001
,
0010
0100
1001
0000
,
1000
0010
1000
0000
0100
0000
0100
0000
,
0010
0000
1100
0101
,
1100
0101
1100
0010
,
0100
0000
0011
1010
,
0011
1010
0011
0010
,
0010
0000
1001
0110
,
1001
0110
1001
0001
,
0010
0100
1001
0000
,
1000
0010
1000
0000
0100
0000
0000
0000
,
0001
0010
0001
0000
1001
0000
0000
0000
,
0020
2000
0000
3030
0000
0000
0001
1000
,
0001
0200
0000
0300
0000
0000
0000
0000
,
0020
0002
0000
0033
0000
0000
1000
0100
,
1000
0100
0020
0000
0000
0000
0030
0000
,
2000
0002
0000
3003
0000
0000
0100
0001
,
0100
0002
0003
0000
0202
0303
0000
0000
,
2020
3030
0000
0000
1000
0100
1000
0000
,
0001
0100
0001
0000
0000
0000
0200
0000
,
0020
0330
0000
0000
0100
0000
0001
0000
,
2000
3020
2030
0000
0000
0000
3020
0030
,
0020
0000
0000
0030
0000
0000
0000
0000
1000
0000
0000
0000
0100
0000
0000
0000
,
0020
0032
0023
0030
0000
0000
0020
0030
,
0020
0030
0001
1000
,
0200
0320
0230
0300
0010
0001
0000
0000
,
0100
1000
0000
0000
0220
0000
0330
0000
,
0010
1000
0001
0000
0200
0000
0300
0002
,
0000
0003
2000
0000
3000
0200
0000
0300
,
0020
0000
0030
0000
0200
0000
0300
0020
,
0000
0030
0002
0000
0003
0020
0000
0030
,
0000
0000
0100
0010
0200
0300
0000
2000
,
0000
3000
0200
0000
0300
0020
0000
0030
,
0002
0000
0003
0100
0010
0000
0020
0000
,
0000
0030
0110
1000
,
0100
0000
1100
1010
,
1100
1010
1100
0010
,
0100
0000
0011
0101
,
0011
0101
0011
0010
,
0010
0000
0110
1001
,
0110
1001
0110
0001
,
0010
0100
1001
0000
,
1000
0010
1000
0000
0100
0000
0100
0000
,
0010
0000
1100
0101
,
1100
0101
1100
0010
,
0100
0000
0011
1010
,
0011
1010
0011
0010
,
0010
0000
1001
0110
,
1001
0110
1001
0001
,
0010
0100
1001
0000
,
1000
0010
1000
0000
0100
0000
0000
0000
,
0001
0010
0001
0000
1001
0000
0000
0000
;

//--------------- dance-single - Ettenra ----------------
#NOTEDATA:;
#STEPSTYPE:dance-single;
#DESCRIPTION:Ettenra;
#DIFFICULTY:Hard;
#METER:8;
#RADARVALUES:0,0,0,0,0;
#NOTES:
0000
0000
1000
1000
,
1000
0000
1000
0000
1000
0000
0100
0010
,
0100
0010
0100
0010
0001
0000
0001
0000
,
0001
0000
0001
0000
0001
0000
0010
0100
,
0010
0100
0100
0010
0100
0000
0100
0000
,
0100
0000
0100
0000
0100
0000
1000
0001
,
1000
0001
1000
0001
1001
0000
0000
0100
,
1000
0100
1000
0001
0100
0000
0010
1000
,
0001
0010
0100
1000
1001
0000
0000
0000
,
0020
2000
0000
3030
0010
1000
0001
1000
,
0001
0200
0000
0300
0000
0000
0000
0000
,
0020
0002
0000
0033
0010
0001
1000
0100
,
1000
0100
0020
0000
0000
0000
0030
0000
,
2000
0002
0000
3003
0010
0001
1000
0001
,
0100
0002
0003
0000
0101
0000
0110
0000
,
2020
3030
0000
0100
1000
0100
0010
0001
,
0010
0020
0030
0000
,
0200
2000
0000
3300
0100
1000
0001
1000
,
0001
0020
0000
0030
0000
0000
0000
0000
,
0200
0002
0000
0303
0100
0001
1000
0100
,
1000
0100
0020
0000
0000
0000
0030
0000
,
0002
2000
0000
3003
0010
0001
1000
0001
,
0100
0002
0003
0000
1100
0000
0110
0000
,
0022
0033
0000
0100
1000
0100
0001
0100
,
2000
0000
3020
0030
0200
0000
0300
0002
,
0000
0003
0020
0000
0030
0200
0000
0300
,
2000
0000
3000
0000
0200
0000
0300
0020
,
0000
0030
0002
0000
0003
0020
0000
0030
,
0000
0000
0100
0010
0200
0300
0000
2000
,
0000
3000
0200
0000
0300
0020
0000
0030
,
0002
0000
0000
0000
1003
0000
0100
0000
0000
0020
0000
0000
0000
0000
0000
0000
,
0000
0000
0000
0000
0000
0030
0000
0000
0000
0000
0000
0000
0100
0000
1000
0000
,
0010
1000
0000
0000
1100
0000
1010
0000
,
0011
0000
0101
0000
1100
0000
0010
0001
,
0100
0001
0000
0000
0011
0000
1010
0000
,
1100
0000
0101
0000
0011
0000
0010
0100
,
0010
0100
0000
0000
0110
0000
0011
0000
,
1100
0000
1010
0000
0101
0000
0010
1000
,
0001
0010
0100
1000
1001
0000
0000
0100
,
1000
0010
0100
0001
0100
0000
0010
1000
,
0100
1000
0000
0000
1100
0000
0101
0000
,
1100
0000
0101
0000
1100
0000
0010
0001
,
0100
0001
0000
0000
0011
0000
1010
0000
,
0011
0000
1010
0000
0011
0000
0010
0001
,
0010
0001
0000
0000
0101
0000
0011
0000
,
1100
0000
1010
0000
0110
0000
0010
1000
,
0001
0010
0100
1000
1001
0000
0000
0100
,
1000
0010
0100
0001
0100
0000
0010
1000
,
0001
0010
0100
1000
1001
0000
0000
0000
,
0020
2000
0000
3030
0010
1000
0001
1000
,
0001
0200
0000
0300
0000
0000
0000
0000
,
0020
0002
0000
0033
0010
0001
1000
0100
,
1000
0100
0020
0000
0000
0000
0030
0000
,
2000
0002
0000
3003
0010
0001
1000
0001
,
0100
0002
0003
0000
0101
0000
0110
0000
,
2020
3030
0000
0100
1000
0100
0001
0100
,
1000
0100
0020
0000
0030
0200
0010
0000
,
0020
0330
0000
0001
0100
0000
0001
0000
,
2000
3020
2030
0000
0000
0000
3020
0030
,
0020
0000
0000
0030
0000
0000
1000
0000
0100
0000
0000
0000
1000
0000
0000
0000
,
0002
0023
0032
0003
0000
0100
0020
0030
,
0020
0000
0030
1000
0001
0000
1000
0000
,
0200
0320
0230
0300
0010
0001
1000
0100
,
0010
0001
0100
0000
0220
0000
0330
0100
,
0010
1000
0001
0000
0200
0000
0300
0002
,
0000
0003
0020
0000
0030
0200
0000
0300
,
2000
0000
3000
0000
0200
0000
0300
0020
,
0000
0030
0002
0000
0003
0020
0000
0030
,
0000
0000
0100
0010
0200
0300
0000
2000
,
0000
3000
0200
0000
0300
0020
0000
0030
,
0002
0000
0003
0100
0010
0000
0020
0000
,
0000
0000
0030
0000
0110
0000
0010
1000
,
0100
1000
0000
0000
1100
0000
1010
0000
,
0011
0000
0101
0000
1100
0000
0010
0001
,
0100
0001
0000
0000
0011
0000
1010
0000
,
1100
0000
0101
0000
0011
0000
0010
0100
,
0010
0100
0000
0000
0110
0000
0011
0000
,
1100
0000
1010
0000
0101
0000
0010
1000
,
0001
0010
0100
1000
1001
0000
0000
0100
,
1000
0010
0100
0001
0100
0000
0100
1000
,
0010
1000
0000
0000
1100
0000
0101
0000
,
1100
0000
0101
0000
1100
0000
0010
0001
,
0100
0001
0000
0000
0011
0000
1010
0000
,
0011
0000
1010
0000
0011
0000
0010
0001
,
0010
0001
0000
0000
0101
0000
0011
0000
,
1100
0000
1010
0000
0110
0000
0010
1000
,
0001
0010
0100
1000
1001
0000
0000
0100
,
1000
0010
0100
0001
0100
0000
0010
1000
,
0001
0010
0100
1000
1001
0000
0000
0000
;

//--------------- dance-single - Ettenra ----------------
#NOTEDATA:;
#STEPSTYPE:dance-single;
#DESCRIPTION:Ettenra;
#DIFFICULTY:Challenge;
#METER:9;
#RADARVALUES:0,0,0,0,0;
#NOTES:
0000
0000
1000
1000
,
1000
0000
1000
0000
1000
0000
0100
0010
,
0001
0100
0010
1000
0001
0000
0001
0000
,
0001
0000
0001
0000
0001
0000
0010
0100
,
0010
0100
0100
0010
0100
0000
0100
0000
,
0100
0000
0100
0000
0100
0000
0010
0001
,
1000
0010
0100
0001
1001
0000
0000
0100
,
1000
0010
0100
0001
0100
0000
0010
1000
,
0001
0010
0100
1000
1001
0000
0000
0000
,
0020
2000
0000
3030
0010
1000
0001
1000
,
0001
0200
0000
0300
0000
0000
0000
0000
,
0020
0002
0000
0033
0010
0001
1000
0100
,
1000
0100
0020
0000
0000
0000
0030
0000
,
2000
0002
0000
3003
0010
0001
1000
0001
,
0100
0002
0003
0000
0101
0000
0110
0000
,
2020
3030
0000
0100
1000
0100
0001
0100
,
1000
0100
0020
0000
0030
0000
0000
0000
,
0200
2000
0000
3300
0100
1000
0001
1000
,
0001
0020
0000
0030
0000
0000
0000
0000
,
0200
0002
0000
0303
0100
0001
1000
0100
,
1000
0100
0020
0000
0000
0000
0030
0000
,
0002
2000
0000
3003
0010
0001
1000
0001
,
0100
0002
0003
0000
1100
0000
0110
0000
,
0022
0033
0000
0100
1000
0100
0001
0100
,
2000
0000
3020
1030
0200
0000
0000
0020
,
0300
0000
0200
0030
0000
2000
0300
0000
,
0002
3000
0000
0000
0203
0000
0000
0020
,
0300
0000
2000
0030
0000
0020
3000
0000
,
0100
0130
0001
0100
0020
0000
0000
2000
,
0030
0000
0200
0000
3000
0010
0310
0000
,
0001
0000
0001
0000
1000
0000
0100
0000
0000
0020
0000
0000
0000
0000
0000
0000
,
0000
0000
0000
0000
0000
0030
0000
0000
0000
0000
0000
0000
0100
0000
1000
0000
,
0010
1000
0100
1000
1100
0000
1010
0000
,
0011
0000
0101
0000
1100
0000
0010
0001
,
0100
0001
0010
0001
0011
0000
1010
0000
,
1100
0000
0101
0000
0011
0000
0010
0100
,
0010
0100
0100
0010
0110
0000
0011
0000
,
1100
0000
1010
0000
0101
0000
0010
1000
,
0001
0010
0100
1000
1001
0000
0000
0100
,
1000
0010
0100
0001
0100
0000
0010
1000
,
0100
1000
0010
1000
1100
0000
0101
0000
,
1100
0000
0101
0000
1100
0000
0010
0001
,
0100
0001
0010
0001
0011
0000
1010
0000
,
0011
0000
1010
0000
0011
0000
0010
0001
,
0010
0001
0100
0001
0101
0000
0011
0000
,
1100
0000
1010
0000
0110
0000
0010
1000
,
0001
0010
0100
1000
1001
0000
0000
0100
,
1000
0010
0100
0001
0100
0000
0010
1000
,
0001
0010
0100
1000
1001
0000
0000
0000
,
0020
2000
0000
3030
0010
1000
0001
1000
,
0001
0200
0000
0300
0000
0000
0000
0000
,
0020
0002
0000
0033
0010
0001
1000
0100
,
1000
0100
0020
0000
0000
0000
0030
0000
,
2000
0002
0000
3003
0010
0001
1000
0001
,
0100
0002
0003
0000
0101
0000
0110
0000
,
2020
3030
0000
0100
1000
0100
0001
0100
,
1000
0100
0020
0000
0030
0200
0010
0000
,
0020
0330
0000
0001
0100
0000
0001
0000
,
2000
3020
2030
0000
0000
0000
3020
0030
,
0020
0000
0000
0030
0000
0000
1000
0000
0100
0000
0000
0000
1000
0000
0000
0000
,
0002
0023
0032
0003
0000
0100
0020
0030
,
0020
0000
0030
1000
0001
0000
1000
0000
,
0200
0320
0230
0300
0010
0001
1000
0100
,
0010
0001
0100
0000
0220
0000
0330
0010
,
0100
0001
1000
1000
0200
0000
0000
0020
,
0300
0000
0200
0030
0000
2000
0300
0000
,
0002
3000
0000
0000
0203
0000
0000
0020
,
0300
0000
2000
0030
0000
0020
3000
0000
,
0100
0130
0001
0100
0020
0000
0000
2000
,
0030
0000
0200
0000
3000
0010
0310
0000
,
0001
0000
0000
0000
0001
0000
0100
0000
0010
0000
0000
0100
0020
0000
0000
0000
,
0000
0000
0030
0000
0110
0000
0010
1000
,
0100
1000
0010
1000
1100
0000
1010
0000
,
0011
0000
0101
0000
1100
0000
0010
0001
,
0100
0001
0010
0001
0011
0000
1010
0000
,
1100
0000
0101
0000
0011
0000
0010
0100
,
0010
0100
0100
0010
0110
0000
0011
0000
,
1100
0000
1010
0000
0101
0000
0010
1000
,
0001
0010
0100
1000
1001
0000
0000
0100
,
1000
0010
0100
0001
0100
0000
0010
1000
,
0100
1000
0010
1000
1100
0000
0101
0000
,
1100
0000
0101
0000
1100
0000
0010
0001
,
0100
0001
0010
0001
0011
0000
1010
0000
,
0011
0000
1010
0000
0011
0000
0010
0001
,
0010
0001
0100
0001
0101
0000
0011
0000
,
1100
0000
1010
0000
0110
0000
0010
1000
,
0001
0010
0100
1000
1001
0000
0000
0100
,
1000
0010
0100
0001
0100
0000
0010
1000
,
0001
0010
0100
1000
1001
0000
0000
0000
;

//--------------- dance-single - Ettenra ----------------
#NOTEDATA:;
#STEPSTYPE:dance-single;
#DESCRIPTION:Ettenra;
#DIFFICULTY:Edit;
#METER:10;
#RADARVALUES:0,0,0,0,0;
#NOTES:
0000
0000
1000
1000
,
1000
0000
1000
0000
1000
0000
0100
0010
,
0001
0100
0010
1000
0001
0000
0001
0000
,
0001
0000
0001
0000
0001
0000
0010
0100
,
0010
0100
0100
0010
0100
0000
0100
0000
,
0100
0000
0100
0000
0100
0000
0010
0001
,
1000
0010
0100
0001
1001
0000
0000
0100
,
1000
0010
0100
0001
0100
0000
0010
1000
,
0001
0010
0100
1000
1001
0000
0000
0000
,
0020
2000
0000
3030
0010
1000
0001
1000
,
0001
0200
0300
0000
1001
0000
0000
0000
,
0020
0002
0000
0033
0010
0001
1000
0100
,
1000
0100
0020
0000
0001
0000
0031
0000
,
2000
0002
0000
3003
0010
0001
1000
0001
,
0100
0002
0003
0000
0101
0001
1000
0010
,
2020
3030
0000
0100
1000
0100
0001
0100
,
1000
0100
0020
0000
0031
0000
0000
0000
,
0200
2000
0000
3300
0100
1000
0001
1000
,
0001
0020
0030
0000
1001
0000
0000
0000
,
0200
0002
0000
0303
0100
0001
1000
0100
,
1000
0100
0020
0000
0001
0000
0031
0000
,
0002
2000
0000
3003
0010
0001
1000
0001
,
0100
0002
0003
0000
1100
1000
0001
0010
,
0022
0033
0000
0100
1000
0100
0001
0100
,
2000
0000
3020
1030
0200
0000
0000
0020
,
0300
0000
0200
0030
0000
2000
0300
0000
,
0002
3000
0000
0000
0203
0000
0000
0020
,
0300
0000
2000
0030
0000
0020
3000
0000
,
0100
0130
0001
0100
0020
0000
0000
2000
,
0030
0000
0200
0000
3000
0010
0310
0000
,
0001
0000
0001
0000
1000
0000
0100
0000
0000
0020
0000
0000
0000
0000
0000
0000
,
0000
0000
0000
0000
0000
0030
0000
0000
0000
0000
0000
0000
0100
0000
1000
0000
,
0010
1000
0100
1000
1100
0000
1010
0000
,
0011
0000
0101
0000
1100
0000
0010
0001
,
0100
0001
0010
0001
0011
0000
1010
0000
,
1100
0000
0101
0000
0011
0000
0010
0100
,
0010
0100
0100
0010
0110
0000
0011
0000
,
1100
0000
1010
0000
0101
0000
0010
1000
,
0001
0010
0100
1000
1001
0000
0000
0100
,
1000
0010
0100
0001
0100
0000
0010
1000
,
0100
1000
0010
1000
1100
0000
0101
0000
,
1100
0000
0101
0000
1100
0000
0010
0001
,
0100
0001
0010
0001
0011
0000
1010
0000
,
0011
0000
1010
0000
0011
0000
0010
0001
,
0010
0001
0100
0001
0101
0000
0011
0000
,
1100
0000
1010
0000
0110
0000
0010
1000
,
0001
0010
0100
1000
1001
0000
0000
0100
,
1000
0010
0100
0001
0100
0000
0010
1000
,
0001
0010
0100
1000
1001
0000
0000
0000
,
0020
2000
0000
3030
0010
1000
0001
1000
,
0001
0200
0300
0000
1001
0000
0000
0000
,
0020
0002
0000
0033
0010
0001
1000
0100
,
1000
0100
0020
0000
0001
0000
0031
0000
,
2000
0002
0000
3003
0010
0001
1000
0001
,
0100
0002
0003
0000
0101
0001
1000
0010
,
2020
3030
0000
0100
1000
0100
0001
0100
,
1000
0100
0020
0000
0030
0200
0010
0000
,
0020
0330
0000
0001
0100
0000
0001
0000
,
2000
3020
2030
0000
0000
0000
3020
0030
,
0020
0000
0000
0030
0000
0000
1000
0000
0100
0000
0000
0000
1000
0000
0000
0000
,
0002
0023
0032
0003
0000
0100
0020
0030
,
0020
0000
0030
1000
0001
0000
1000
0000
,
0200
0320
0230
0300
0010
0001
1000
0100
,
0010
0001
0100
0000
0220
0000
0330
0010
,
0100
0001
1000
1000
0200
0000
0000
0020
,
0300
0000
0200
0030
0000
2000
0300
0000
,
0002
3000
0000
0000
0203
0000
0000
0020
,
0300
0000
2000
0030
0000
0020
3000
0000
,
0100
0130
0001
0100
0020
0000
0000
2000
,
0030
0000
0200
0000
3000
0010
0310
0000
,
0001
0000
0001
0000
1000
0000
0100
0000
0010
0000
0000
0100
0020
0000
0000
0000
,
0000
0000
0030
0000
0110
0000
0100
1000
,
0010
1000
0100
1000
1100
0000
1010
0000
,
0011
0000
0101
0000
1100
0000
0010
0001
,
0100
0001
0010
0001
0011
0000
1010
0000
,
1100
0000
0101
0000
0011
0000
0010
0100
,
0010
0100
0100
0010
0110
0000
0011
0000
,
1100
0000
1010
0000
0101
0000
0010
1000
,
0001
0010
0100
1000
1001
0000
0000
0100
,
1000
0010
0100
0001
0100
0000
0010
1000
,
0100
1000
0010
1000
1100
0000
0101
0000
,
1100
0000
0101
0000
1100
0000
0010
0001
,
0100
0001
0010
0001
0011
0000
1010
0000
,
0011
0000
1010
0000
0011
0000
0010
0001
,
0010
0001
0100
0001
0101
0000
0011
0000
,
1100
0000
1010
0000
0110
0000
0010
1000
,
0001
0010
0100
1000
1001
0000
0000
0100
,
1000
0010
0100
0001
0100
0000
0010
1000
,
0001
0010
0100
1000
1001
0000
0000
0000
;
