#VERSION:0.83;
#TITLE:Supernova;
#SUBTITLE:;
#ARTIST:aespa;
#TITLETRANSLIT:;
#SUBTITLETRANSLIT:;
#ARTISTTRANSLIT:;
#GENRE:;
#CREDIT:;
#MUSIC:Supernova.mp3;
#BANNER:Banner.png;
#BACKGROUND:Background.png;
#CDTITLE:;
#SAMPLESTART:0.000;
#SAMPLELENGTH:0.000;
#SELECTABLE:YES;
#OFFSET:-0.276;
#BPMS:0.000=120.000;
#STOPS:48.000=0.500;
#BGCHANGES:-0.500=Supernova short.mp4=1.000=0=0=1,
99999.000=-nosongbg-=1.000=0=0=0=StretchNoLoop====
;
#FGCHANGES:;

//--------------- dance-single - Ettenra ----------------
#NOTEDATA:;
#STEPSTYPE:dance-single;
#DESCRIPTION:Ettenra;
#DIFFICULTY:Beginner;
#METER:2;
#RADARVALUES:0,0,0,0,0;
#NOTES:
0000
0000
0000
0000
,
0000
0000
0000
0000
,
0000
0000
0000
0000
,
0000
0000
0010
0000
,
0001
0001
0001
0000
,
1000
1000
1000
0000
,
0001
0001
0000
0010
,
0010
0000
0100
0100
,
0000
0010
0000
1000
,
0000
0200
0300
0000
,
0001
0001
0000
1000
,
1000
0000
0100
0000
,
1001
0010
0010
0020
,
0030
0000
0100
0200
,
0300
0000
1000
2000
,
3000
0000
0001
0002
,
0003
0000
0100
0000
,
0001
0000
0200
0000
,
0300
0000
0000
0000
,
0000
0000
2000
0000
0000
0000
0000
0000
3000
0000
0000
0000
0000
0000
0000
2002
,
0000
0000
3003
0000
0000
0000
0000
0000
0000
0000
0000
0000
0000
0000
0000
0110
,
0000
0000
0000
0000
0000
0000
0000
1001
0000
0000
0000
0000
0000
0000
0000
0110
,
0000
0000
0000
0000
0000
0000
0000
0000
0000
0000
0000
0000
0000
0000
0000
1001
,
0000
0000
0000
0000
0000
0000
0000
0110
0000
0000
0000
0000
0000
0000
0000
1001
,
0000
0000
0001
0000
,
0100
0000
0000
0000
0000
0000
0000
0000
0000
0000
0000
0000
0000
0000
0000
0020
,
0000
0000
0000
0030
0000
0000
0000
0000
0000
0000
0000
0000
0000
0000
0000
1001
,
0000
0000
0000
0000
0000
0000
0000
0110
0000
0000
0000
0000
0000
0000
0000
0000
,
0001
0000
0100
0100
,
0000
0000
0010
0010
,
0000
0000
0100
0100
,
0000
0000
0010
0010
,
0000
0000
0100
0000
,
0010
0000
0010
0000
,
0100
0000
1001
1001
,
0000
0000
2002
3003
,
0000
2000
0000
0000
0000
0000
0000
3000
,
0000
0010
0010
0010
,
0000
0100
0100
0100
,
0000
1000
1000
1000
,
0000
0001
0001
0001
,
0000
0010
0010
0010
,
0000
0100
0100
0100
,
0000
0000
0010
0000
0000
0010
0000
0000
0010
0000
0000
0000
0020
0000
0000
0000
,
0030
0000
0001
0001
,
0000
1000
1000
0000
,
2002
0000
0000
0000
0000
0000
0000
0000
0000
0000
0000
3003
0000
0000
0000
0000
,
1001
0000
0000
0000
,
1010
0000
0011
0000
,
1010
0000
0000
0000
,
1001
0000
0110
0000
,
1001
0000
0010
0000
,
0002
0003
0000
0100
,
0200
0000
0000
0000
0000
0300
0000
0000
,
0100
0000
0110
0000
,
0000
0000
0000
0001
0000
0000
0000
0001
0000
0000
0000
0000
0000
0001
0000
0000
,
0000
0000
0000
1000
0000
0000
0000
1000
0000
0000
0000
0000
0000
1000
0000
0000
,
0000
0000
0000
0001
0000
0000
0000
0001
0000
0000
0000
0000
0000
0001
0000
0000
,
0000
0000
0000
1000
0000
0000
0000
1000
0000
0000
0000
0000
0000
1000
0000
0000
,
0000
0000
0000
0000
0000
0000
0000
0000
0000
0200
0000
0300
0000
0000
0000
0000
,
0000
0020
0000
0030
0000
0000
0000
0000
0000
0002
0000
0003
0000
0000
0000
0000
,
0000
0000
0000
0000
0000
2000
0000
3000
0000
0000
0000
0000
0000
0002
0000
0003
,
0000
0000
0000
0000
0000
0020
0000
0000
0000
0000
0000
0000
0000
0030
0000
0000
;

//--------------- dance-single - Ettenra ----------------
#NOTEDATA:;
#STEPSTYPE:dance-single;
#DESCRIPTION:Ettenra;
#DIFFICULTY:Easy;
#METER:3;
#RADARVALUES:0,0,0,0,0;
#NOTES:
0000
0000
0000
0000
,
0000
0000
0000
0000
,
0000
0000
0000
0000
,
0000
0000
0010
0000
,
0001
0001
0011
0000
,
1000
1000
1100
0000
,
0010
2002
3003
0010
,
0020
0000
0000
0030
0000
0000
0000
0000
0100
0000
0000
0000
0200
0000
0000
0300
,
0000
0100
0110
0000
,
1000
0200
0300
1001
,
0001
0001
0000
0010
,
1000
0000
0100
0001
,
1001
0010
0010
0200
,
0300
0010
0010
0200
,
0300
1000
1000
2020
,
3030
0100
0100
0202
,
0303
0000
0000
0000
0200
0000
0300
0002
,
0000
0000
0003
0000
0000
0000
0000
0000
0202
0000
0000
0000
0000
0000
0000
0303
,
0000
0000
0000
0020
0000
0000
0000
0000
,
0030
0000
1000
0000
1000
0000
1000
0000
1000
0000
0000
0000
0000
0000
0000
2002
,
0000
0000
3003
0000
0000
0000
0000
0000
0000
0000
0000
0000
0000
0000
0000
0022
,
0000
0000
0033
0000
0000
0000
0000
2200
0000
0000
3300
0000
0000
0000
0000
0220
,
0000
0000
0000
0330
0000
0000
0000
0000
0000
0000
0000
0000
0000
0000
0000
2200
,
0000
0000
3300
0000
0000
0000
0000
0202
0000
0000
0303
0000
0000
0000
0000
2002
,
0000
3003
0010
0000
0001
0000
0010
0000
,
1000
0000
0000
0000
0000
0000
0000
0000
0000
0000
0000
0000
0000
0000
0000
0011
,
0000
0022
0000
0033
0000
0000
0000
0000
0000
0000
0000
0000
0000
0000
0000
2002
,
0000
0000
3003
0000
0000
0000
0000
0220
0000
0000
0000
0330
0000
0000
0000
0000
,
0000
0001
0000
0000
0000
0000
0000
0010
0000
0000
0000
0000
0000
0100
0000
0000
0000
0000
0000
0010
0000
0000
0000
0000
,
0000
1000
0000
0000
0000
0000
0000
0100
0000
0000
0000
0000
0000
0010
0000
0000
0000
0000
0000
0010
0000
0000
0000
0000
,
0000
0001
0000
0000
0000
0000
0000
0010
0000
0000
0000
0000
0000
0100
0000
0000
0000
0000
0000
0100
0000
0000
0000
0000
,
0000
1000
0000
0000
0000
0000
0000
0100
0000
0000
0000
0000
0000
0010
0000
0000
0000
0000
0000
0100
0000
0000
0000
0000
,
1100
0100
1100
0100
,
0011
0010
0011
0010
,
0100
0010
1001
1001
,
0010
0100
2002
0000
,
3003
0000
1000
0000
1000
0000
1000
0000
2000
0000
0000
0000
0000
0000
0000
3000
,
0000
0010
0010
0002
,
0003
0100
0100
0002
,
0003
1000
1000
0002
,
0003
0100
0100
0002
,
0003
0010
0010
2000
,
3000
0100
0100
2000
,
3000
0000
0010
0000
0000
0010
0000
0000
0010
0000
0000
0000
0200
0000
0000
0000
,
0300
0100
0001
2000
,
3000
0000
0000
0000
0100
0000
0000
0000
1000
0000
0000
0000
0000
0000
0000
2002
,
0000
0000
0000
0000
0000
0000
0000
0000
0000
0000
0000
3003
0000
0000
0000
0000
,
1001
0000
0000
0000
,
1010
0000
0011
0000
,
1010
0000
0000
0000
,
1001
0000
0110
0000
,
1001
0000
0000
0000
0000
1000
0000
0000
0000
0001
0000
0000
0000
1000
0000
0000
,
0002
0000
0000
0000
0003
0000
0000
0000
0000
0002
0000
0003
0000
0000
0000
0000
,
0200
0000
0000
0000
0000
0000
0000
0300
,
0100
0000
0110
0000
,
0000
0000
0000
0001
0000
0000
0000
0001
0000
0000
0000
0000
0000
0002
0000
0000
,
0000
0003
0000
1000
0000
0000
0000
1000
0000
0000
0000
0000
0000
2000
0000
0000
,
0000
3000
0000
0001
0000
0000
0000
0001
0000
0000
0000
0000
0000
0002
0000
0000
,
0000
0003
0000
1000
0000
0000
0000
1000
0000
0000
0000
0000
0000
2000
0000
0000
,
0000
0000
0000
0000
0000
0000
3000
0000
0000
0200
0000
0000
0000
0000
0000
0300
,
0000
0020
0000
0000
0000
0000
0000
0030
0000
0002
0000
0000
0000
0000
0000
0003
,
0000
0000
0000
0000
0000
2000
0000
3000
0000
0200
0000
0300
0000
0020
0000
0030
,
0000
0002
0000
0003
0000
0020
0000
0000
0000
0000
0000
0000
0000
0030
0000
0000
;

//--------------- dance-single - Ettenra ----------------
#NOTEDATA:;
#STEPSTYPE:dance-single;
#DESCRIPTION:Ettenra;
#DIFFICULTY:Medium;
#METER:6;
#RADARVALUES:0,0,0,0,0;
#NOTES:
0000
0000
0000
0000
,
0000
0000
0000
0000
,
0000
0000
0000
0000
,
0000
0000
0000
0000
0010
0100
0000
0000
,
0001
0010
0001
0000
0011
0000
0000
0000
,
1000
0100
1000
0000
1100
0000
0000
0000
,
0010
1000
2002
0000
3003
0000
0010
0100
,
0020
0000
0000
0030
0000
0000
0010
0000
0100
0000
0010
0000
0200
0000
0000
0300
,
1000
0010
0100
0000
0110
0000
0000
0000
,
1000
0010
0200
0000
0301
0000
1001
0000
,
0001
0010
0001
0000
0000
0001
0010
0100
,
2000
0000
3000
1000
0100
0010
0002
0003
,
1001
1000
0010
1000
0010
0010
0200
0000
,
0300
0001
0010
0001
0010
0010
0200
0000
,
0300
0010
1000
0010
1000
1000
2020
0000
,
3030
0001
0100
0001
0100
0100
0202
0000
,
0303
0000
0001
0010
0200
0000
0300
2000
,
0000
0000
3000
0000
0002
0000
0003
0000
0202
0000
0000
0000
0000
0000
0000
0303
,
0000
0000
0000
2000
0000
3020
0000
0030
,
0000
0000
1000
0000
1000
0000
1000
0000
1000
0000
0000
0001
0000
0000
0000
1001
,
0000
2002
0000
3003
0000
0000
0000
0000
0000
0000
0000
0000
0000
0000
0000
0011
,
0000
0022
0000
0033
0000
0000
0000
1100
0000
2200
0000
3300
0000
0000
0000
0110
,
0000
0220
0000
0330
0000
0000
0000
0000
0000
0000
0000
0000
0000
0000
0000
1100
,
0000
2200
0000
3300
0000
0000
0000
0101
0000
0202
0000
0303
0000
0000
0000
1001
,
0000
2002
0000
3003
0010
0000
0100
0000
0001
0000
0000
0000
0000
0000
0000
0000
,
0000
0000
0100
0000
0010
0000
1000
0000
0000
0000
0000
0000
0000
0000
0000
0011
,
0000
0022
0000
0033
0000
0000
0000
0000
0000
0000
0000
0000
0000
0000
0000
1001
,
0000
2002
0000
3003
0000
0000
0000
0110
0000
0220
0000
0330
0000
0000
0000
0000
,
0000
0001
0000
0000
0000
0000
0000
0010
0000
0000
0000
0000
0000
0100
0000
0000
0000
0000
0000
0010
0000
0000
0000
0000
,
0000
1000
0000
0000
0000
0000
0000
0100
0000
0000
0000
0000
0000
0010
0000
0000
0000
0000
0000
0010
0000
0000
0000
0000
,
0000
0001
0000
0000
0000
0000
0000
0010
0000
0000
0000
0000
0000
0100
0000
0000
0000
0000
0000
0100
0000
0000
0000
0000
,
0000
1000
0000
0000
0000
0000
0000
0100
0000
0000
0000
0000
0000
0010
0000
0000
0000
0000
0000
0100
0000
0000
0000
0000
,
1100
0100
1100
0100
,
0011
0010
0011
0010
,
0100
0010
1001
1001
,
0010
0100
2002
0000
,
3003
0000
1000
0000
1000
0000
1000
0000
1000
0000
0000
0200
0000
0000
0300
0000
,
0000
0001
0010
0001
0010
0010
0002
0000
,
0003
0001
0100
0001
0100
0100
0002
0000
,
0003
0001
1000
0001
1000
1000
0002
0000
,
0003
0001
0100
0001
0100
0100
0002
0000
,
0003
1000
0010
1000
0010
0010
2000
0000
,
3000
1000
0100
1000
0100
0100
2000
0000
,
3000
0000
0010
0000
0000
0010
0000
0000
0010
0000
0000
0000
0200
0000
0000
0000
,
0300
1000
0100
0010
0001
0001
2000
0000
,
3000
0000
0001
0000
0100
0000
0010
0000
1000
0000
1000
0000
0002
0003
0000
2002
,
0000
0000
0000
0000
0000
0000
0000
0000
0000
0000
0000
3003
0000
0000
0000
0000
,
1001
0110
0000
0000
0000
0000
0000
0000
,
1010
1010
0000
0000
0011
0011
0000
0000
,
1010
1010
0000
0000
0000
0000
0000
0000
,
1001
1001
0000
0000
0110
0110
0000
0000
,
1001
0000
1001
0000
0000
1000
0000
0000
0000
0001
0000
0000
0000
1000
0000
0000
,
0002
0000
0000
0000
0003
0000
0000
0000
0000
0002
0000
0003
0000
0020
0000
0030
,
0200
0000
0000
0000
0000
0000
0000
0300
,
0100
0010
0000
0000
0110
0110
0000
0000
,
0000
0000
0000
0001
0000
0010
0000
0001
0000
0010
0000
0010
0000
0002
0000
0000
,
0000
0003
0000
1000
0000
0100
0000
1000
0000
0100
0000
0100
0000
2000
0000
0000
,
0000
3000
0000
0001
0000
0100
0000
0001
0000
0100
0000
0100
0000
0002
0000
0000
,
0000
0003
0000
1000
0000
0010
0000
1000
0000
0010
0000
0010
0000
2000
0000
0000
,
0000
0000
0000
0000
0000
0000
3000
0000
0000
0200
0000
0000
0000
0000
0000
0300
,
0000
0020
0000
0000
0000
0000
0000
0030
0000
0002
0000
0000
0000
0000
0000
0003
,
0000
0000
0000
0000
0000
2000
0000
3000
0000
0200
0000
0300
0000
0020
0000
0030
,
0000
0002
0000
0003
0000
1000
0000
0000
0020
0000
0000
0000
0000
0000
0000
0000
,
0030
0000
0000
0000
;

//--------------- dance-single - Ettenra ----------------
#NOTEDATA:;
#STEPSTYPE:dance-single;
#DESCRIPTION:Ettenra;
#DIFFICULTY:Hard;
#METER:8;
#RADARVALUES:0,0,0,0,0;
#NOTES:
0000
0000
0000
0000
,
0000
0000
0000
0000
0000
0000
0000
1000
0000
0001
0000
0000
0000
0000
0000
0000
,
0000
0000
1000
0000
0001
0100
0000
0000
0000
0000
0000
1000
0100
0000
0010
0000
,
0001
0000
0000
0000
0010
0100
0000
0000
,
0001
0010
0001
0000
0011
0000
0000
0000
,
1000
0100
1000
0000
1100
0000
0000
0000
,
0010
1000
2002
0000
3003
0001
0010
0100
,
0020
0000
0000
0030
0000
0000
0010
0000
0100
0000
0010
0000
0200
0000
0000
0300
,
1000
0010
0100
0000
0110
0000
0000
0000
,
1000
0010
0200
0000
0301
0000
1001
0000
,
0001
0010
0001
0000
0000
0001
0010
0100
,
2000
0000
3000
1000
0100
0010
0002
0003
,
1001
0000
1000
0000
0010
0000
1000
0000
0010
0000
0010
0000
0200
0000
0300
1001
,
0000
0000
0001
0000
0010
0000
0001
0000
0010
0000
0010
0000
0200
0000
0300
1001
,
0000
0010
1000
0010
1000
1000
2020
0000
,
3030
0001
0100
0001
0100
0100
0202
0000
,
0303
0000
0000
0000
0001
0000
0010
0000
0200
0000
0300
0200
0000
0300
2000
0000
,
3000
2000
0000
3000
0002
0000
0003
0000
1000
0000
0001
0000
0202
0000
0000
0000
,
0303
0000
0000
0000
0000
0000
1000
0100
0010
0000
0010
0002
0000
0000
0000
0003
,
0000
0000
1000
0000
1000
0000
1000
0000
1000
0000
0010
0100
0000
0001
0000
1001
,
0000
2002
0000
3003
0001
0000
1000
0000
0001
0000
1000
0000
0001
0000
0000
0011
,
0000
0022
0000
0033
0000
0000
0000
1100
0000
2200
0000
3300
0000
0000
0000
0110
,
0000
0220
0000
0330
0010
0000
0100
0000
0010
0000
0100
0000
0010
0000
0000
1100
,
0000
2200
0000
3300
0000
0000
0000
0101
0000
0202
0000
0303
0000
0000
0000
1001
,
0000
2002
0000
3003
0010
0000
0100
0000
0001
0000
1000
0000
0100
0000
0000
0200
,
0000
0300
0100
0000
0010
0000
1000
0000
0001
0000
0010
0000
0001
0001
0000
0011
,
0000
0022
0000
0033
0001
0000
1000
0000
0001
0000
1000
0000
0001
0000
0000
1001
,
0000
2002
0000
3003
0000
0000
0000
0110
0000
0220
0000
0330
0000
0000
0000
0000
,
0000
0001
0000
0000
0000
0000
0000
0010
0000
0000
0000
0000
0000
0100
0000
0000
0000
0000
0000
0010
0000
0000
0000
0000
,
0000
1000
0000
0000
0000
0000
0000
0100
0000
0000
0000
0000
0000
0010
0000
0000
0000
0000
0000
0010
0000
0000
0000
0000
,
0000
0001
0000
0000
0000
0000
0000
0010
0000
0000
0000
0000
0000
0100
0000
0000
0000
0000
0000
0100
0000
0000
0000
0000
,
0000
1000
0000
0000
0000
0000
0000
0100
0000
0000
0000
0000
0000
0010
0000
0000
0000
0000
0000
0100
0000
0000
0000
0000
,
1100
0100
1100
0100
,
0011
0010
0011
0010
,
0100
0010
1001
1001
,
0010
0100
2002
0000
,
3003
0000
1000
0000
1000
0000
1000
0000
1000
0000
0010
0100
0000
0001
0000
0000
,
0000
0000
0001
0000
0010
0000
0001
0000
0010
0000
0010
0000
0001
0000
0000
0011
,
0000
0000
0001
0000
0100
0000
0001
0000
0100
0000
0100
0000
0001
0000
0000
0101
,
0000
0000
0001
0000
1000
0000
0001
0000
1000
0000
1000
0000
0001
0000
0000
1001
,
0000
0000
0001
0000
0100
0000
0001
0000
0100
0000
0100
0000
0001
0000
0000
0101
,
0000
0000
1000
0000
0010
0000
1000
0000
0010
0000
0010
0000
1000
0000
0000
1010
,
0000
0000
1000
0000
0100
0000
1000
0000
0100
0000
0100
0000
1000
0000
0000
1100
,
0000
0000
0010
0000
0000
0010
0000
0000
0010
0000
0000
0000
0200
0300
0000
0110
,
0000
0000
1000
0000
0100
0000
0010
0000
0001
0000
0001
0000
2000
0000
3000
1001
,
0000
0000
0001
0000
0100
0000
0010
0000
1000
0000
1000
0000
0002
0003
0000
2002
,
0000
0000
0000
0000
0000
0000
0000
0000
0000
0000
0000
3003
0000
0000
0000
0000
,
1001
0110
0000
0000
0000
0000
0000
0000
,
1010
1010
0000
0000
0011
0011
0000
0000
,
1010
0011
0000
0000
0000
0000
0000
0000
,
1001
1001
0000
0000
0110
0110
0000
0000
,
1001
0000
1001
0000
0000
1000
0000
0100
0000
0001
0000
0010
0000
1000
0100
0000
,
0002
0000
0000
0000
0003
0000
0000
0000
0000
0002
0000
0003
0000
0020
0000
0030
,
0200
0000
0000
0000
0000
0000
0000
0300
,
0100
0010
0000
0000
0110
0110
0000
0000
,
0000
0000
0000
0001
0000
0010
0000
0001
0000
0010
0000
0010
0000
0002
0003
0000
,
0011
0000
0000
1000
0000
0100
0000
1000
0000
0100
0000
0100
0000
2000
3000
0000
,
1100
0000
0000
0001
0000
0100
0000
0001
0000
0100
0000
0100
0000
0002
0003
0000
,
0101
0000
0000
1000
0000
0010
0000
1000
0000
0010
0000
0010
0000
2000
3000
0000
,
1010
2000
0000
0000
0000
3000
0000
1000
0000
0200
0000
0000
0000
0300
0000
0001
,
0100
0020
0000
0000
0000
0030
0000
1000
0010
0002
0000
0000
0000
0000
0000
0003
,
0000
0000
0000
0000
0000
1000
0000
0010
0000
0001
0000
0010
0100
1000
0000
0000
,
0000
2200
0000
0000
3300
1000
0000
0100
0010
0000
0002
0000
0000
0000
0000
0000
,
0003
0000
0000
0000
;

//--------------- dance-single - Ettenra ----------------
#NOTEDATA:;
#STEPSTYPE:dance-single;
#DESCRIPTION:Ettenra;
#DIFFICULTY:Challenge;
#METER:9;
#RADARVALUES:0,0,0,0,0;
#NOTES:
0000
0000
0000
0000
,
0000
0000
0000
0000
0000
0000
0000
1000
0000
0001
0000
0000
0000
0000
0000
0000
,
0000
0000
1000
0000
0001
0100
0000
0000
0000
0000
0000
1000
0100
0000
0010
0000
,
0001
0000
0000
0000
0000
0000
0000
0000
0000
0000
0000
0000
0000
0000
0000
0000
0010
0000
0000
0000
0100
0000
0000
0000
0000
0000
0000
0000
0000
0000
0000
0001
,
0000
0010
0000
0001
0000
0000
0000
0000
0020
0000
0000
0000
0030
0000
0000
0000
0011
0000
0000
0000
0000
0000
0000
0000
0000
0000
0000
0000
0000
0000
0000
1000
,
0000
0100
0000
1000
0000
0000
0000
0000
0200
0000
0000
0000
0300
0000
0000
0000
1100
0000
0000
0000
0000
0000
0000
0000
0000
0000
0000
0000
0000
0000
0000
0000
,
0010
1000
2002
0000
3003
0001
0020
0230
,
0320
0000
0000
0000
0000
0000
0030
0000
0000
0000
0000
0000
0020
0000
0000
0000
0230
0000
0000
0000
0320
0000
0000
0000
0230
0000
0000
0000
0000
0000
0300
1000
,
0000
0100
0000
1000
0000
0000
0000
0000
0100
0000
0000
0000
0000
0000
0000
0000
0110
0000
0000
0000
0000
0000
0000
0000
0000
0000
0000
0000
0000
0000
0000
1000
,
0000
0000
0010
0000
0000
0000
1000
0000
0000
0000
0000
0000
0000
0000
0000
0000
0200
0000
0000
0000
0000
0000
0000
0000
0000
0000
0000
0000
0000
0000
0000
0000
0301
0000
0000
0000
0000
0000
0000
0000
0000
0000
0010
0000
0000
0000
0002
0000
0000
0000
2000
0000
0003
0000
0000
3000
0000
0000
0000
0000
0000
0000
0001
0000
,
0000
0010
0000
0001
0000
0000
0000
0000
0001
0000
0000
0000
0000
0000
0000
0000
0000
0000
0000
0000
0002
0000
0000
0000
0020
0000
0000
0000
0203
0000
0000
0000
,
2030
0300
3000
2000
0200
3020
0302
0033
,
1001
0000
1000
0100
0010
0000
1000
0100
0010
0000
0010
0000
0200
0000
0300
1001
,
0000
0000
0001
0100
0010
0000
0001
0100
0010
0000
0010
0000
0200
0000
0300
1001
,
0000
0010
1000
0010
1000
1000
2020
0000
,
3030
0000
0001
0000
0100
0000
0001
0000
0100
0000
0100
0000
0001
0100
0001
0100
,
0001
0100
0000
0000
0001
0000
0010
0000
0200
0000
0300
0200
0000
0300
2000
0000
,
3000
2000
0000
3000
0002
0000
0003
0000
1000
0100
0001
0000
0202
0303
2200
0000
,
0000
3300
0000
0000
0000
0000
1000
0100
0010
0000
0010
0002
0000
0000
0000
0003
,
0000
0000
1000
0000
1000
0000
1000
0000
1000
0000
0010
0100
0000
0001
0000
1001
,
0000
2002
0000
3003
0001
0000
1000
0000
0001
0000
1000
0000
0001
0000
0000
0011
,
0000
0022
0000
0033
0000
0000
0000
1100
0000
2200
0000
3300
0000
0000
0000
0110
,
0000
0220
0000
0330
0010
0000
0100
0000
0010
0000
0100
0000
0010
0000
0000
1100
,
0000
2200
0000
3300
0000
0000
0000
0101
0000
0202
0000
0303
0000
0000
0000
1001
,
0000
2002
0000
3003
0010
0000
0100
0000
0001
0000
1000
0001
0100
0000
0000
0200
,
0000
0300
0100
0000
0010
0000
1000
0000
0001
0000
0010
0000
0001
0001
0000
0011
,
0000
0022
0000
0033
0001
0000
1000
0000
0001
0000
1000
0000
0001
0000
0000
1001
,
0000
2002
0000
3003
0000
0000
0000
0110
0000
0220
0000
0330
0000
0000
0000
0000
,
0000
0001
0000
0000
0000
0000
0000
0010
0000
0000
0000
0000
0000
0100
0000
0000
0000
0000
0000
0010
0000
0000
0000
0000
,
0000
1000
0000
0000
0000
0000
0000
0100
0000
0000
0000
0000
0000
0010
0000
0000
0000
0000
0000
0010
0000
0000
0000
0000
,
0000
0001
0000
0000
0000
0000
0000
0010
0000
0000
0000
0000
0000
0100
0000
0000
0000
0000
0000
0100
0000
0000
0000
0000
,
0000
1000
0000
0000
0000
0000
0000
0100
0000
0000
0000
0000
0000
0010
0000
0000
0000
0000
0000
0100
0000
0000
0000
0000
,
1000
0100
0001
0100
1000
0100
0001
0100
,
1000
0010
0001
0010
1000
0010
0001
0010
,
1000
0100
0000
0000
0010
0001
0000
0000
1001
0000
0000
0000
1001
0000
0000
0000
,
0010
0001
0000
0000
0100
0001
0000
0000
2002
0000
0000
0000
0000
0000
0000
0000
,
3003
0000
1000
0000
1000
0000
1000
0000
1000
0000
0010
0100
0000
0001
0000
0000
,
0000
0000
0001
0100
0010
0000
0001
0100
0010
0000
0010
0000
0002
0000
0003
0011
,
0000
0000
0001
0010
0100
0000
0001
0010
0100
0000
0100
0000
0002
0000
0003
0101
,
0000
0000
0001
0100
1000
0000
0001
0100
1000
0000
1000
0000
0002
0000
0003
1001
,
0000
0000
0001
1000
0100
0000
0001
1000
0100
0000
0100
0000
0002
0000
0003
0101
,
0000
0000
1000
0100
0010
0000
1000
0100
0010
0000
0010
0000
2000
0000
3000
1010
,
0000
0000
1000
0010
0100
0000
1000
0010
0100
0000
0100
0000
2000
0000
3000
1100
,
0000
0000
0010
0001
0000
0010
0001
0000
0010
0001
0000
0000
0200
0300
0000
0110
,
0000
0000
1000
0100
0010
0000
0100
0010
0001
0000
0001
0000
2000
0000
3000
1001
,
0000
0000
0001
0010
0100
0000
0010
0100
1000
0000
1000
0000
0002
0003
0000
1001
,
2002
0000
0000
0000
0000
0000
0000
0000
0000
0000
0000
3003
0000
0000
0000
0000
,
1001
0000
0110
0000
0000
2000
0000
0200
0000
3020
0000
0000
0300
0000
0030
0000
,
1010
0000
2020
0000
0000
0000
3030
0000
0011
0000
0022
0000
0000
0000
0000
0033
,
1010
0000
0011
0000
0000
0100
0010
0000
0000
2000
0000
0000
3000
0002
0000
0003
,
1001
0000
2002
0000
0000
0000
0000
3003
0110
0000
0220
0000
0000
0000
0000
0330
,
1001
0000
2002
0000
3003
1000
0000
0100
0000
0001
0000
0010
0100
1000
0100
0000
,
0002
0000
0000
1003
0000
0100
0000
0010
0000
0002
0000
0013
0000
0010
0010
0000
,
0100
0000
0200
0000
0000
0000
0000
0000
0000
0000
0000
0300
0000
0000
0000
0000
,
0100
0000
0010
0000
0000
1001
0000
0000
0110
0000
0110
0000
1000
0001
1000
0001
,
1000
0001
0000
0001
0010
0001
0000
0001
0010
0001
0000
0001
0000
0022
0000
0033
,
0011
0000
0000
1000
0100
1000
0000
1000
0100
1000
0000
1000
0000
2200
0000
3300
,
1100
0000
0000
0001
0100
0001
0000
0001
0100
0001
0000
0001
0000
0202
0000
0303
,
0101
0000
0000
1000
0010
1000
0000
1000
0010
1000
0000
1000
0000
2020
0000
3030
,
1010
2000
0000
0000
0000
3000
0000
1000
0000
0200
0000
0000
0000
0300
0000
0001
,
0100
0020
0000
0000
0000
0030
0000
1000
0010
0002
0000
0000
0000
0000
0000
0003
,
0110
0000
0110
0000
0000
1000
0000
0010
0000
0001
0000
0010
0100
1000
1000
0000
,
0000
2200
0000
0000
3300
1000
0000
0100
0010
0000
0002
0000
0000
0000
0000
0000
,
0003
0000
0000
0000
;
