#VERSION:0.83;
#TITLE:Serpent Eating the Horizon;
#SUBTITLE:- Bravely Default;
#ARTIST:Linked Horizon;
#TITLETRANSLIT:;
#SUBTITLETRANSLIT:;
#ARTISTTRANSLIT:;
#GENRE:;
#CREDIT:;
#MUSIC:Serpent Eating the Horizon.ogg;
#BANNER:Banner.png;
#BACKGROUND:Background.png;
#CDTITLE:;
#SAMPLESTART:0.000;
#SAMPLELENGTH:0.000;
#SELECTABLE:YES;
#OFFSET:-0.120;
#BPMS:0.000=178.020;
#STOPS:;
#BGCHANGES:-0.100=Serpent Eating the Horizon.mp4=1.000=0=0=1,
99999.000=-nosongbg-=1.000=0=0=0=StretchNoLoop====
;
#FGCHANGES:;

//--------------- dance-single - Ettenra ----------------
#NOTEDATA:;
#STEPSTYPE:dance-single;
#DESCRIPTION:Ettenra;
#DIFFICULTY:Beginner;
#METER:3;
#RADARVALUES:0,0,0,0,0;
#NOTES:
0000
0000
0000
0001
,
0000
0010
0000
0001
,
0000
1000
0000
0100
,
0000
1000
2000
0000
,
0000
0000
0000
0000
,
3000
0000
0020
0000
,
0000
0000
0000
0000
,
0000
0030
0000
0000
0002
0000
0000
0000
,
0000
0000
0000
0003
,
0000
0000
0000
0000
2002
0000
0000
3003
,
0000
0000
0000
0000
0220
0000
0000
0330
,
0000
0000
0010
0000
,
0100
0100
0100
0100
,
0100
0100
0000
0010
,
0010
0010
0010
0010
,
0010
0010
0000
0100
,
0100
0100
0100
0100
,
0100
0100
0000
0000
,
0000
0000
0000
0000
,
1000
0000
1000
1000
,
0000
0010
0010
0000
,
1000
1000
0000
0110
,
0000
1001
0000
0110
,
0000
0000
0010
0000
,
0100
0000
0010
0000
,
0100
0000
0010
0000
,
1000
0000
0010
0000
,
1000
0000
0100
0000
,
1000
0000
0100
0000
,
1000
0000
0100
0000
,
0001
0000
0100
0000
,
0001
0000
0100
0000
,
0000
0000
0100
0100
,
0000
0000
0010
0010
,
0000
0000
0202
0000
,
0303
0000
0000
0200
,
0000
0300
0000
0020
,
0000
0000
0030
0000
0000
0000
0002
0003
,
0000
0000
0000
0000
1001
0000
0000
1001
,
0000
1001
0000
0010
,
0000
0100
0000
0000
,
0000
0110
0000
0000
,
0100
0000
0010
0010
,
0000
0000
0100
0100
,
0000
0000
0001
0001
,
0000
0000
0100
0100
,
0000
1000
1000
0000
,
0100
0100
0000
0010
,
0010
0000
0001
0001
,
0000
0000
0000
1100
,
1100
1100
0000
0000
,
0000
0110
0110
0110
,
0000
0000
0000
0101
,
0101
0101
0000
0000
,
1000
0000
0100
0200
,
0300
0000
0110
0000
,
0100
0100
0100
0000
,
0020
0000
0000
0030
0000
0000
0000
0000
,
0010
0010
0010
0000
,
0200
0000
0300
0000
,
0001
0001
0001
0000
,
2000
0000
3000
0000
,
1000
1000
1000
0000
,
0001
0000
0000
0000
2000
0000
0000
3000
,
0000
0010
0020
0030
,
0000
1000
2000
3000
,
0000
0001
0002
0003
,
0000
0100
0100
0000
,
0010
0010
0000
0000
,
0000
1001
1001
0000
,
0000
0110
0110
0000
,
1001
0000
0100
0000
,
0010
0000
1000
0000
,
0001
0000
0100
0000
,
1000
0000
0100
0000
,
0000
0000
0200
0300
,
0100
0000
0020
0030
,
0010
0000
1001
0000
,
0001
0000
1000
0000
,
0001
0000
0100
0000
,
0010
0000
1000
0000
,
0001
0000
0100
0000
,
1000
0000
0200
0000
,
0300
0000
0100
0000
,
0100
0000
0010
0000
,
0010
0000
0220
0000
,
0000
0000
0000
0000
,
0000
0330
0000
0000
,
0001
0000
0100
0000
,
0001
0000
0010
0000
,
0001
0000
0100
0000
,
1000
0000
0010
0000
,
1000
0000
1001
0000
,
1001
0000
0110
0000
,
0110
0000
1001
0000
,
0100
0000
0010
0020
,
0030
0000
0100
0200
,
0300
0000
1001
2002
,
3003
0000
0010
0000
,
0100
0000
1001
0000
;

//--------------- dance-single - Ettenra ----------------
#NOTEDATA:;
#STEPSTYPE:dance-single;
#DESCRIPTION:Ettenra;
#DIFFICULTY:Easy;
#METER:5;
#RADARVALUES:0,0,0,0,0;
#NOTES:
0000
0000
0000
0000
,
1000
0100
0010
0001
,
0010
0100
1000
0100
,
0010
0001
2000
0000
,
0200
0000
0000
0000
,
3300
0000
0020
0000
,
0200
0000
0000
0000
,
0330
0000
0002
0000
,
0200
0000
0000
0303
,
0000
0000
2002
0000
,
0000
3003
0220
0000
,
0000
0330
0000
0000
0020
0000
0000
0000
,
2030
0100
0100
0100
,
0100
3000
0100
0000
0020
0000
0000
0000
,
0032
0100
0100
0100
,
0100
0003
0100
0000
0020
0000
0000
0000
,
0230
0010
0010
0010
,
0010
0310
1000
0000
,
0000
0000
0100
0000
,
4000
3000
1000
1000
,
0010
0010
0100
0100
,
0001
0001
0010
0011
,
1000
1001
0100
0101
,
0110
0100
0010
0001
,
0100
0001
0010
0001
,
0100
0010
0010
1000
,
0100
1000
0010
1000
,
0100
0010
0100
1000
,
0010
1000
0100
1000
,
0010
0001
1000
0100
,
0001
0100
1000
0100
,
0001
1000
0001
0001
,
0000
0010
0100
0100
,
0000
1000
0010
0010
,
0000
0000
0202
0000
,
0303
0000
0000
0200
,
0000
0300
0000
0020
,
0000
0030
0000
0002
,
0000
0000
0003
0000
1001
0000
0000
1001
,
0000
1001
1000
0100
,
0010
0001
1000
0010
,
0100
0110
1001
0010
,
0100
0000
0001
0000
0020
0030
0100
0000
,
0001
0000
0100
0000
0200
0300
0010
0000
,
0100
0000
0001
0000
0200
0300
0010
0000
,
0001
0100
0100
0010
,
0100
0000
0001
0000
0020
0030
0100
0000
,
0001
0000
0100
0000
0200
0300
0010
0000
,
0100
0000
0001
0000
0200
0300
0010
0000
,
0001
0100
0000
1100
,
0110
0000
0011
0000
0200
0300
0020
0030
,
0000
0101
0110
1010
,
0200
0300
2000
3000
0000
0000
1010
0000
,
0110
0000
0101
0000
0020
0030
0200
0300
,
2000
0000
0000
0000
0000
3000
0002
0000
0000
0203
0000
0000
,
0000
0300
0000
0000
0220
0330
0000
0000
,
0010
0100
0010
0000
,
0020
0000
0000
0030
0000
0000
0000
0000
,
0010
0100
0010
0000
,
0020
0000
0000
0030
0000
0000
0000
0000
,
0001
0100
0001
0000
,
0002
0000
0000
0003
0000
0000
0000
0000
,
1000
0010
1000
0000
,
0001
0100
2000
0000
,
0000
0000
0000
3000
0020
0000
0000
0000
,
0030
1000
2000
0000
,
3000
1000
0002
0000
,
0003
0001
1000
0000
,
0000
1000
0001
0000
,
0000
1001
1001
0000
,
0000
0110
0110
0000
,
4004
0000
0000
0000
3003
0000
0000
0000
0200
0000
0000
0000
0000
0000
0000
0300
,
0020
0000
0030
0000
2000
0000
0000
3000
,
0002
0000
0000
0000
0000
0000
0000
0000
0000
0000
0000
0000
0000
0000
0000
0000
0000
0000
0000
0000
0000
0000
0000
0000
0003
0000
0000
0000
0000
0000
0000
0000
0200
0000
0000
0000
0000
0000
0000
0000
0000
0000
0000
0000
0000
0000
0000
0000
0000
0000
0000
0000
0000
0300
0000
0000
0000
0000
0000
0000
0000
0000
0000
0000
,
2000
0000
0200
0000
,
3300
0000
1200
0000
,
0020
0330
0021
0000
,
0200
0330
1001
0000
,
0001
0000
2000
3000
,
0002
0000
0000
0003
0200
0000
0000
0300
,
0020
0030
2000
0000
,
3002
0000
0000
0000
0000
0000
0000
0000
0000
0000
0000
0000
0000
0000
0000
0000
0000
0000
0000
0000
0000
0000
0000
0000
0003
0000
0000
0000
0000
0000
0000
0000
0200
0000
0000
0000
0000
0000
0000
0000
0000
0000
0000
0000
0000
0000
0000
0000
0000
0000
0000
0000
0000
0300
0000
0000
0000
0000
0000
0000
0000
0000
0000
0000
,
0002
0000
0200
0000
,
0303
0000
2020
3030
,
2200
3300
0022
0033
,
0202
0303
0420
0000
,
0000
0000
0000
0000
,
0000
0330
0000
0000
,
0001
0000
0100
0000
,
0001
0000
0010
0000
,
0001
0000
0020
0000
,
0001
0000
0001
0000
,
0001
0030
0022
0033
,
0022
0033
2200
3300
,
2200
3300
1001
0000
,
0100
0001
0020
0200
,
0000
0330
0000
0000
0110
0000
2002
0000
,
0000
3003
1001
0220
,
0000
0330
0110
0000
,
1000
0000
1001
0000
;

//--------------- dance-single - Ettenra ----------------
#NOTEDATA:;
#STEPSTYPE:dance-single;
#DESCRIPTION:Ettenra;
#DIFFICULTY:Medium;
#METER:7;
#RADARVALUES:0,0,0,0,0;
#NOTES:
0000
0000
0000
0000
,
1000
0100
0010
0001
,
0010
0100
1000
0100
,
0010
0001
2000
0000
,
0200
0000
0000
0000
,
3300
0000
0020
0000
,
0200
0000
0000
0000
,
0330
0000
0002
0000
,
0200
0000
0000
0303
,
0000
0100
0001
0000
2002
0000
0000
0000
,
0000
3003
0220
0000
,
0000
0330
0000
0000
0020
0000
0000
0000
,
2030
0001
0100
0001
,
0100
3000
0001
0000
0020
0000
0000
0000
,
0032
1000
0100
1000
,
0100
0003
1000
0000
0020
0000
0000
0000
,
0230
0001
0010
0001
,
0010
0301
1000
0000
,
0000
0000
0100
0000
,
4000
0000
3000
0000
1000
0100
1000
0000
,
0010
1000
0010
0000
0100
0001
0100
0000
,
0001
1000
0001
0000
0010
0001
0010
0000
,
0001
1000
0001
0000
0100
0001
0100
0000
,
0110
0000
0000
0000
0010
1000
0200
0300
,
0000
0100
1000
0020
0030
0000
1000
0100
,
0000
0100
1000
0000
0010
0001
0200
0300
,
0000
0100
0001
0020
0030
0000
0001
0100
,
0000
0100
0001
0000
0100
0001
0020
0030
,
0000
0010
0001
0200
0300
0000
0001
0010
,
0000
0010
0001
0000
1000
0010
0200
0300
,
0000
0001
0010
0200
0300
0000
1000
0100
,
0000
0100
1000
0000
0001
0010
0001
0000
,
0000
0000
0001
0000
0100
1000
0100
0000
,
0000
0000
0100
0000
0010
0100
0010
0000
,
0000
0000
0000
0000
0202
0303
0000
2200
,
3300
0000
0000
0000
0000
1000
0200
0000
,
0000
0000
0300
0000
0000
0100
0020
0000
,
0000
0000
0030
0000
0000
0001
2000
0000
,
0000
0000
3000
0000
1001
0000
0000
1001
,
0000
0000
1001
0000
0100
1000
0100
0000
,
0010
0001
0010
0000
0001
1000
0001
0000
,
0010
0110
1001
0010
,
0100
0000
0001
1000
0020
0030
0200
0300
,
0001
0000
0100
0001
0200
0300
0020
0030
,
0100
0000
0001
1000
0200
0300
0020
0030
,
0001
0010
0200
0300
0100
0000
0010
0000
,
0100
0000
0001
1000
0020
0030
0200
0300
,
0001
0000
0100
0001
0200
0300
0020
0030
,
0100
0000
0001
1000
0200
0300
0020
0030
,
0001
0010
0200
0300
1000
0000
1100
0000
,
0110
0000
0011
0000
0100
1000
0100
1000
,
0000
0101
0110
1010
,
0100
0010
0100
0000
0000
0000
1010
0000
,
0110
0000
0101
0000
2000
3002
0023
0230
,
2300
0000
0000
0000
0000
3000
0002
0000
0000
0203
0000
0000
,
0000
0300
0000
0000
0220
0330
0000
0100
,
0010
1000
0100
0000
0010
0001
0000
0001
,
0010
0200
0000
0300
0000
0000
0000
0000
,
0100
1000
0100
0000
0010
0100
0020
0000
,
0000
0030
0000
0000
,
0001
0010
0001
0000
0100
0001
0200
0000
,
0000
0300
0000
0000
,
1000
0010
1000
0000
0001
0100
0002
0000
,
0000
0000
0003
0000
2000
0000
0000
0100
,
0000
0001
3002
0003
0010
0010
0000
0100
,
0000
1000
1000
0000
1000
0100
0000
0100
,
0000
0100
2000
3000
0001
0100
0000
0100
,
0000
0100
0002
0003
1000
0001
0000
0001
,
0000
2000
0002
3003
0010
0100
0000
0100
,
0000
0020
0200
0330
1001
1001
0000
0110
,
0000
0110
1001
0000
0110
0110
0000
4004
,
0000
0000
0000
0000
3003
0000
0000
0000
0200
0000
0000
0000
0000
0000
0001
0300
,
0020
0000
0000
0000
0030
0000
0000
0000
2000
0000
0000
3200
0000
0000
0320
0000
,
0032
0000
0000
0000
0000
0000
0000
0000
0000
0000
0000
0000
0000
0000
0000
0000
0000
0000
0000
0000
0000
0000
0000
0000
0003
0000
0000
0000
0000
0000
0000
0000
0200
0000
0000
0000
0000
0000
0000
0000
0000
0000
0000
0000
0000
0000
0000
0000
0000
0000
0000
0000
0000
0300
0000
0000
0001
0000
0000
0000
0000
0000
0000
0000
,
2000
0000
0200
0000
,
3300
0000
1200
0000
,
0020
0330
0021
0000
,
0200
0000
0330
0000
1001
0000
0000
1000
,
0001
0000
2000
3000
,
0002
0000
0000
0003
0200
0000
0000
0301
,
0020
0000
0000
0000
0030
0000
0000
0000
2000
0000
0000
3200
0000
0000
0320
0000
,
0032
0000
0000
0000
0000
0000
0000
0000
0000
0000
0000
0000
0000
0000
0000
0000
0000
0000
0000
0000
0000
0000
0000
0000
0003
0000
0000
0000
0000
0000
0000
0000
0200
0000
0000
0000
0000
0000
0000
0000
0000
0000
0000
0000
0000
0000
0000
0000
0000
0000
0000
0000
0000
0300
0000
0000
0001
0000
0000
0000
0000
0000
0000
0000
,
2000
0000
0200
0000
,
3300
0000
2020
3030
,
2200
3300
0022
0033
,
0202
0303
0420
0000
,
0000
0000
0000
0000
,
0000
0330
0000
0000
,
0000
0000
0000
0010
0100
0010
0200
0000
,
0000
0000
0300
0000
0000
1000
0100
1000
,
0000
0000
0010
0001
0020
0000
0000
0000
,
0002
0003
0200
0300
,
0002
0033
0022
0033
,
2200
3300
2020
3030
,
0202
0000
0303
0000
1001
0000
0000
0010
,
0100
0000
0001
0001
0020
0000
0200
0000
,
0000
0330
0000
0000
0110
0000
2002
0000
,
0000
3003
1001
0220
,
0000
0000
0330
0000
0110
0000
0000
0001
,
1000
0000
1001
0000
;

//--------------- dance-single - Ettenra ----------------
#NOTEDATA:;
#STEPSTYPE:dance-single;
#DESCRIPTION:Ettenra;
#DIFFICULTY:Hard;
#METER:8;
#RADARVALUES:0,0,0,0,0;
#NOTES:
0000
0000
0000
0100
,
1000
0010
1000
0100
,
0010
0100
1000
0100
,
0010
0001
2000
0000
,
0200
0000
0000
0000
,
3300
0000
0020
0000
,
0200
0000
0000
0000
,
0000
0330
0000
0000
0002
0000
0000
0000
,
0200
0000
0000
0303
,
0000
0100
0001
0000
2002
0000
0000
0000
,
0000
3003
0220
0000
,
0000
0330
0000
0000
0020
0000
0000
0000
,
2030
0001
0100
0001
,
0100
3000
0001
0000
0020
0000
0000
0000
,
0032
1000
0100
1000
,
0100
0003
1000
0000
0020
0000
0000
0000
,
0230
0001
0010
0001
,
0010
0301
1000
0000
,
0000
0000
0100
0000
,
4000
0000
3000
0000
1000
0100
1000
0000
,
0010
1000
0010
0000
0100
0001
0100
0000
,
0001
1000
0001
0000
0010
0001
0011
0000
,
1000
0001
1001
0000
0100
0001
0101
0000
,
0110
0000
0400
0300
0010
1000
0001
0100
,
0000
0100
0001
0010
0000
0010
0001
0100
,
0000
0001
0010
0000
0010
0001
1000
0100
,
0000
0100
1000
0010
0000
0010
1000
0100
,
0000
1000
0010
0000
0100
0001
1000
0010
,
0000
0010
1000
0100
0000
0100
1000
0010
,
0000
1000
0001
0000
1000
0010
0100
0001
,
0000
0001
0100
1000
0000
1000
0100
0001
,
0000
0000
0100
0000
1000
0000
0000
0000
0001
0000
0010
0000
0001
0000
0000
0010
,
0000
0000
0000
0000
0001
0000
0000
0000
0100
0000
1000
0000
0100
0000
0000
1000
,
0000
0000
0000
0000
0100
0000
0000
0000
0010
0000
0100
0000
0010
0000
0000
0100
,
0000
0000
0010
0000
0202
0303
0000
1100
,
0000
0010
0000
0000
0000
1000
0200
0000
,
0000
0000
0300
0000
0000
0100
0020
0000
,
0000
0000
0030
0000
0000
0001
2000
0000
,
0000
0000
3000
0000
1001
0000
0000
1001
,
0000
0000
1001
0000
0100
1000
0100
0000
,
0010
0001
0010
0000
0001
1000
0001
0000
,
0010
0110
1001
0010
,
0100
0000
0001
1000
0020
0030
0200
0300
,
0001
0000
0100
0001
0200
0300
0020
0030
,
0100
0000
0001
1000
0200
0300
0020
0030
,
0001
0010
0200
0300
0100
0000
0010
0000
,
0100
0000
0001
1000
0020
0030
0200
0300
,
0001
0000
0100
0001
0200
0300
0020
0030
,
0100
0000
0001
1000
0200
0300
0020
0030
,
0001
0010
0200
0300
1000
0000
1100
0000
,
0110
0000
0011
0000
0200
2300
3020
0230
,
0300
0101
0110
1010
,
0200
0320
2030
3000
0000
0000
1010
0000
,
0110
0000
0101
0000
2000
3002
0023
0230
,
2300
0000
0000
0000
0000
3000
0002
0000
0000
0203
0000
0000
,
0000
0300
0000
0000
0220
0330
0000
0100
,
0010
1000
0100
0000
0010
0001
0000
0001
,
0010
0200
0000
0300
0000
0000
0000
0000
,
0100
1000
0100
0000
0010
0001
0200
0300
,
0001
0200
0000
0300
0000
0000
0000
0000
,
0001
0010
0001
0000
0100
0001
0200
0300
,
0001
0200
0000
0300
0000
0000
0000
0000
,
1000
0010
1000
0000
0001
0010
0200
0300
,
0000
0100
1000
0010
2000
0000
0000
0100
,
0000
0001
0002
3003
0010
0010
0000
0100
,
0000
1000
1000
0000
1000
0100
0000
0100
,
0000
0100
2000
3000
0001
0100
0000
0100
,
0000
0100
0002
0003
1000
0001
0000
0001
,
0000
1001
2002
3003
0010
0100
0000
0100
,
0000
0110
0220
0330
1001
1001
0000
0110
,
0000
0110
1001
0000
0110
0110
0000
4004
,
0000
0000
0000
0000
3003
0000
0000
0000
0200
0000
0000
0000
0000
0000
0001
0300
,
0020
0000
0000
0000
0030
0000
0000
0000
2000
0000
0000
3200
0000
0000
0320
0000
,
0032
0000
0000
0000
0000
0000
0000
0000
0000
0000
0000
0000
0000
0000
0000
0000
0000
0000
0000
0000
0000
0000
0000
0000
0003
0000
0000
0000
0000
0000
0000
0000
0200
0000
0000
0000
0000
0000
0000
0000
0000
0000
0000
0000
0000
0000
0000
0000
0000
0000
0000
0000
0000
0300
0000
0000
0001
0000
0000
0000
0000
0000
0000
0000
,
2000
0000
0200
0000
,
3300
0000
1200
0000
,
0020
0330
0021
0000
,
0200
0000
0330
0000
1001
0000
0000
1000
,
0001
0000
2000
3000
,
0002
0000
0000
0003
0200
0000
0000
0301
,
0020
0000
0000
0000
0030
0000
0000
0000
2000
0000
0000
3200
0000
0000
0320
0000
,
0032
0000
0000
0000
0000
0000
0000
0000
0000
0000
0000
0000
0000
0000
0000
0000
0000
0000
0000
0000
0000
0000
0000
0000
0003
0000
0000
0000
0000
0000
0000
0000
0200
0000
0000
0000
0000
0000
0000
0000
0000
0000
0000
0000
0000
0000
0000
0000
0000
0000
0000
0000
0000
0300
0000
0000
0001
0000
0000
0000
0000
0000
0000
0000
,
2000
0000
0200
0000
,
3300
0000
2020
3030
,
2200
3300
0022
0033
,
0202
0303
0420
0000
,
0000
0000
0000
0000
,
0000
0000
0000
0000
0330
0000
0000
0000
0000
0000
0010
0000
0000
1000
0000
0000
,
0001
0000
0000
1000
0000
0000
0100
0000
0010
0000
0100
0000
0020
0000
0000
0030
,
0000
0400
0300
0000
0000
0100
1000
0010
,
0100
0010
1000
0001
0020
0000
0000
0000
,
0002
0003
0200
0300
,
0002
0033
0022
0033
,
2200
3300
2020
3030
,
0202
0000
0303
0000
1001
0000
0000
0010
,
0100
0000
0001
0001
0020
0000
0200
0000
,
0000
0330
0000
0000
0110
0000
2002
0000
,
0000
3003
1001
0220
,
0000
0000
0330
0000
0110
0000
0000
0001
,
1000
0000
1001
0000
;

//--------------- dance-single - Ettenra ----------------
#NOTEDATA:;
#STEPSTYPE:dance-single;
#DESCRIPTION:Ettenra;
#DIFFICULTY:Challenge;
#METER:9;
#RADARVALUES:0,0,0,0,0;
#NOTES:
0000
0000
0000
0100
,
1000
0010
1000
0100
,
0010
0100
1000
0100
,
0010
0001
2000
0000
,
0200
0000
0000
0000
,
3300
0000
0020
0000
,
0200
0000
0000
0000
,
0000
0330
0000
0000
0002
0000
0000
0000
,
0200
0000
0000
0303
,
0000
0100
0001
0000
2002
0000
0000
0000
,
0000
3003
0220
0000
,
0000
0330
0000
0000
0020
0000
0000
0000
,
2030
0001
0100
0001
,
0100
3000
0001
0000
0020
0000
0000
0000
,
0032
1000
0100
1000
,
0100
0003
1000
0000
0020
0000
0000
0000
,
0230
0001
0010
0001
,
0010
0301
1000
0000
,
0000
0000
0100
0000
,
4000
0004
0000
0000
0000
0000
3003
0000
1000
0000
0100
0000
1000
0000
0001
0000
,
1000
0010
1000
0001
0100
0001
0010
0001
,
1000
0001
0100
0001
0010
0001
0011
0000
,
1000
0001
1001
0000
0100
0001
0101
0000
,
0110
0000
0400
0300
0010
1000
0001
0100
,
0000
0100
0001
0010
0000
0010
0001
0100
,
0000
0001
0010
0000
0010
0001
1000
0100
,
0000
0100
1000
0010
0000
0010
1000
0100
,
0000
1000
0010
0000
0100
0001
1000
0010
,
0000
0010
1000
0100
0000
0100
1000
0010
,
0000
1000
0001
0000
2000
3020
0230
0302
,
0003
0002
0203
2300
3000
2000
3200
0302
,
0003
0000
0200
0000
2300
0000
3000
0000
0001
0000
0010
0000
0001
0000
0000
0010
,
0000
0000
0000
0000
0001
0000
0000
0000
0100
0000
1000
0000
0100
0000
0000
1000
,
0000
0000
0000
0000
0100
0000
0000
0000
0010
0000
0100
0000
0010
0000
0000
0100
,
0000
0000
0010
0000
0202
0303
0000
1100
,
0000
0000
0010
0000
0000
0000
0000
0000
0000
0000
1000
0000
0200
0000
0000
1000
,
0000
0000
0000
0000
1300
0000
0000
0000
0000
0000
0100
0000
0020
0000
0000
0100
,
0000
0000
0000
0000
0130
0000
0000
0000
0000
0000
1000
0000
0002
0000
0000
1000
,
0000
0000
1003
0000
1001
0000
0000
1001
,
0000
0000
1001
0000
0100
1000
0010
0100
,
0001
0010
0100
1000
0010
0100
0001
0010
,
0010
0110
1001
0010
,
0100
0000
0001
1000
0020
0030
0200
0300
,
0001
0000
0100
0001
0200
0300
0020
0030
,
0100
0000
0001
1000
0200
0300
0020
0030
,
0001
0010
0200
0300
0100
0000
0010
0000
,
0100
0000
0001
1000
0020
0030
0200
0300
,
0001
0000
0100
0001
0200
0300
0020
0030
,
0100
0000
0001
1000
0200
0300
0020
0030
,
0001
0010
0200
0300
1000
0000
1100
0000
,
0110
0000
0011
0000
0200
2300
3020
0230
,
0301
0101
0110
1010
,
0200
0320
2030
3000
1000
0000
1010
0000
,
0110
0000
0101
0000
2000
3002
0023
0230
,
2300
0000
0000
0000
0000
3000
0002
0000
0000
0203
0000
0000
,
0000
0300
0000
0000
0220
0330
0000
0100
,
0010
1000
0100
0000
0010
0001
0000
0001
,
0010
0200
0000
0300
0000
0001
0100
0001
,
1000
0010
0100
0001
0010
0001
0200
0310
,
1000
0200
0000
0300
0000
1000
0100
1000
,
0001
0010
0100
1000
0010
1000
0200
0310
,
0001
0200
0000
0300
0000
0001
0100
0001
,
1000
0010
0100
0001
0010
0001
0200
0310
,
1000
0100
1000
0010
2000
0000
0000
0100
,
0000
0001
0002
3003
0010
0010
0000
0100
,
0000
1000
1000
0000
1000
0100
0000
0100
,
0000
0100
2000
3000
0001
0100
0000
0100
,
0000
0100
0002
0003
1000
0001
0000
0001
,
0000
1001
2002
3003
0010
0100
0000
0100
,
0000
0110
0220
0330
1001
1001
0000
0110
,
0000
0110
1001
0000
0110
0110
0000
4004
,
0000
0000
3003
0000
0200
0000
0000
0301
,
0020
0000
0000
0000
0030
0000
0000
0000
2000
0000
0000
3200
0000
0000
0320
0000
,
0032
0000
0000
0000
0000
0000
0000
0000
0000
0000
0000
0000
0000
0000
0000
0000
0000
0000
0000
0000
0000
0000
0000
0000
0003
0000
0000
0000
0000
0000
0000
0000
0200
0000
0000
0000
0000
0000
0000
0000
0000
0000
0000
0000
0000
0000
0000
0000
0000
0000
0000
0000
0000
0300
0000
0000
0001
0000
0000
0000
0000
0000
0000
0000
,
2000
0000
0000
0010
0000
0000
0001
0000
0200
0000
0000
0000
0000
0000
0000
0000
,
3300
0000
0000
0000
0000
0000
0000
0000
1200
0000
0000
1000
0000
0000
0010
0000
,
0020
0000
0000
0000
0330
0000
0000
0000
0021
0000
0000
0001
0000
0000
0100
0000
,
0200
0000
0330
0000
1001
0000
0000
1000
,
0001
0000
0000
0010
0000
0000
1000
0000
2000
0000
0000
0000
3000
0000
0001
0010
,
0002
0000
0000
0003
0200
0000
0000
0301
,
0020
0000
0000
0000
0030
0000
0000
0000
2000
0000
0000
3200
0000
0000
0320
0000
,
0032
0000
0000
0000
0000
0000
0000
0000
0000
0000
0000
0000
0000
0000
0000
0000
0000
0000
0000
0000
0000
0000
0000
0000
0003
0000
0000
0000
0000
0000
0000
0000
0200
0000
0000
0000
0000
0000
0000
0000
0000
0000
0000
0000
0000
0000
0000
0000
0000
0000
0000
0000
0000
0300
0000
0000
0001
0000
0000
0000
0000
0000
0000
0000
,
2000
0000
0000
0010
0000
0000
0001
0000
0200
0000
0000
0000
0000
0000
0000
0000
,
3300
0000
2020
3030
,
2200
3300
0022
0033
,
0202
0303
0420
0000
,
0000
0000
0000
0000
,
0000
0000
0000
0000
0330
0000
0000
0000
0000
0000
0010
0000
0000
1000
0000
0000
,
0001
0000
0000
1000
0000
0000
0100
0000
0010
0000
0100
0000
0020
0000
0000
0030
,
0000
0400
0000
0000
0300
0100
1000
0010
,
0100
0010
1000
0001
0020
0000
0000
0000
,
0002
0003
0200
0300
,
0002
0033
0022
0033
,
2200
3300
2020
3030
,
0202
0000
0303
0000
1001
0000
0000
0010
,
0100
0000
0001
0001
0020
0000
0200
0000
,
0000
0330
0000
0000
0110
0000
2002
0000
,
0000
3003
1001
0220
,
0000
0000
0330
0000
0110
0000
0000
0001
,
1000
0000
1001
0000
;

//--------------- dance-single - Ettenra ----------------
#NOTEDATA:;
#STEPSTYPE:dance-single;
#DESCRIPTION:Ettenra;
#DIFFICULTY:Edit;
#METER:10;
#RADARVALUES:0,0,0,0,0;
#NOTES:
0000
0000
0000
0100
,
1000
0010
1000
0100
,
0010
0100
1000
0100
,
0010
0001
2000
0000
,
0200
0000
0000
0000
,
3300
0000
0020
0000
,
0200
0000
0000
0000
,
0000
0330
0000
0000
0002
0000
0000
0000
,
0200
0000
0000
0303
,
0000
0100
0001
0000
2002
0000
0000
0000
,
0000
3003
0220
0000
,
0000
0330
0000
0000
0020
0000
0000
0000
,
2030
0001
0100
0001
,
0100
3001
0020
0000
,
0032
1000
0100
1000
,
0100
1003
0020
0000
,
0230
0001
0010
0001
,
0010
0301
1000
0000
,
0000
0000
0100
0000
,
4000
0004
0000
0000
0000
0000
3003
0000
1000
0000
0100
0000
1000
0000
0001
0000
,
1000
0010
1000
0001
0100
0001
0010
0001
,
1000
0001
0100
0001
0010
0001
0011
0000
,
1000
0001
1001
0000
0100
0001
0101
0000
,
0110
0000
0400
0300
0010
1000
0001
0100
,
0000
0100
0001
0010
0000
0010
0001
0100
,
0000
0001
0010
0000
0010
0001
1000
0100
,
0000
0100
1000
0010
0000
0010
1000
0100
,
0000
1000
0010
0000
0100
0001
1000
0010
,
0000
0010
1000
0100
0000
0100
1000
0010
,
0000
1000
0001
0000
2000
3020
0230
0302
,
0003
0002
0203
2300
3000
2000
3200
0302
,
0003
0000
0200
0000
2300
0000
3000
0000
0001
0000
0010
0000
0001
0000
0000
0010
,
0000
0001
0000
0000
0001
0000
0010
0000
0100
0000
1000
0000
0100
0000
0000
1000
,
0000
0100
0000
1000
0100
0000
1000
0000
0010
0000
0100
0000
0010
0000
0000
0100
,
0000
0010
0000
0100
0010
0000
0100
0000
0202
0000
0303
0000
0000
0000
1100
0000
,
0000
0000
0010
0000
0000
0000
0000
0000
0000
0000
1000
0000
0200
0000
0000
1000
,
0000
0000
0000
0000
1300
0000
0000
0000
0000
0000
0100
0000
0020
0000
0000
0100
,
0000
0000
0000
0000
0130
0000
0000
0000
0000
0000
1000
0000
0002
0000
0000
1000
,
0000
0000
1003
0000
1001
0000
0000
1001
,
0000
0000
1001
0000
0100
1000
0010
0100
,
0001
0010
0100
1000
0010
0100
0001
0010
,
0010
0110
1001
0010
,
0100
0010
0100
0000
0001
0000
1000
0000
0020
0000
0030
0000
0200
0000
0300
0000
,
0001
1000
0001
0000
0100
0000
0001
0000
0200
0000
0300
0000
0020
0000
0030
0000
,
0100
0010
0100
0000
0001
0000
1000
0000
0200
0000
0300
0000
0020
0000
0030
0000
,
0001
0010
0200
0300
0100
0000
0010
0000
,
0100
0010
0100
0000
0001
0000
1000
0000
0020
0000
0030
0000
0200
0000
0300
0000
,
0001
1000
0001
0000
0100
0000
0001
0000
0200
0000
0300
0000
0020
0000
0030
0000
,
0100
0010
0100
0000
0001
0000
1000
0000
0200
0000
0300
0000
0020
0000
0030
0000
,
0001
0010
0200
0300
1000
0000
1100
0000
,
0110
0000
0011
0000
0200
2300
3020
0230
,
0301
0000
0101
0000
0110
0000
1010
0020
,
0230
0320
2030
3000
1000
0000
1010
0000
,
0110
0000
0101
0000
2000
3002
0023
0230
,
2300
0000
0000
0000
0000
0000
0000
0000
0000
0000
0000
0000
0000
0000
0000
0000
0000
0000
0000
0000
3000
0000
0000
0000
0001
0000
0000
0100
0000
0000
0001
0000
0000
0000
0000
0000
0200
0000
0000
0000
0000
0000
0000
0000
0000
0000
0000
0000
,
0000
0300
0000
0000
0220
0330
0000
0100
,
0010
1000
0100
0000
0010
0001
0000
0001
,
0010
0200
0000
0300
0000
0001
0100
0001
,
1000
0010
0100
0001
0010
0001
0200
0310
,
0001
0200
0000
0300
0000
1000
0100
1000
,
0001
0010
0100
1000
0010
1000
0200
0310
,
0001
0200
0000
0300
0000
0001
0100
0001
,
1000
0010
0100
0001
0010
0001
0200
0310
,
0001
0100
1000
0010
2000
0000
0000
0100
,
0000
0001
0002
3003
0010
0010
0000
0100
,
0000
1000
1000
0000
1000
0100
0000
0100
,
0000
0100
2000
3000
0001
0100
0000
0100
,
0000
0100
0002
0003
1000
0001
0000
0001
,
0000
1001
2002
3003
0010
0100
0000
0100
,
0000
0110
0220
0330
1001
1001
0000
0110
,
0000
0110
1001
0000
0110
0110
0000
4004
,
0000
0000
3003
0000
0200
0000
0000
0001
,
0020
0000
0000
0000
0330
0000
0000
0000
2000
0000
0000
3200
0000
0000
0320
0000
,
0032
0000
0000
0000
0000
0000
0000
0000
0000
0000
0000
0000
0000
0000
0000
0000
0000
0000
0000
0000
0000
0000
0000
0000
0003
0000
0000
0000
0000
0000
0000
0000
0200
0000
0000
0000
0000
0000
0000
0000
0000
0000
0000
0000
0000
0000
0000
0000
0000
0000
0000
0000
0000
0300
0000
0000
0001
0000
0000
0000
0000
0000
0000
0000
,
2000
0000
0000
0010
0000
0000
0001
0000
0200
0000
0000
0000
0000
0000
0000
0000
,
3300
0000
0000
0000
0000
0000
0000
0000
1200
0000
0000
1000
0000
0000
0010
0000
,
0020
0000
0000
0000
0330
0000
0000
0000
0021
0000
0000
0001
0000
0000
0100
0000
,
0200
0000
0330
0000
1001
0000
0000
1000
,
0001
0000
0000
0010
0000
0000
1000
0000
2000
0000
0000
0000
3000
0000
0001
0010
,
0002
0000
0000
0003
0200
0000
0000
0001
,
0020
0000
0000
0000
0330
0000
0000
0000
2000
0000
0000
3200
0000
0000
0320
0000
,
0032
0000
0000
0000
0000
0000
0000
0000
0000
0000
0000
0000
0000
0000
0000
0000
0000
0000
0000
0000
0000
0000
0000
0000
0003
0000
0000
0000
0000
0000
0000
0000
0200
0000
0000
0000
0000
0000
0000
0000
0000
0000
0000
0000
0000
0000
0000
0000
0000
0000
0000
0000
0000
0300
0000
0000
0001
0000
0000
0000
0000
0000
0000
0000
,
2000
0000
0000
0010
0000
0000
0001
0000
0200
0000
0000
0000
0000
0000
0000
0000
,
3300
0000
2020
3030
,
2200
3300
0022
0033
,
0202
0303
0420
0000
,
0000
0000
0000
0000
,
0000
0000
0000
0000
0330
0000
0000
0000
0000
0000
0010
0000
0000
1000
0000
0000
,
0001
0000
0000
1000
0000
0000
0100
0010
0100
0000
0010
0000
0200
0000
0000
0300
,
0000
0400
0000
0000
0300
0100
1000
0010
,
0100
0010
1000
0001
0020
0000
0000
0000
,
0002
0003
0200
0300
,
0002
0033
0022
0033
,
2200
3300
2020
3030
,
0202
0000
0303
0000
1001
0000
0000
0010
,
0100
0000
0001
0001
0020
0000
0200
0000
,
0000
0330
0000
0000
0110
0000
2002
0000
,
0000
3003
1001
0220
,
0000
0000
0000
0000
0330
0000
0000
0000
0110
0000
0000
0000
0000
0000
0001
0010
,
0001
0000
1001
0000
;
