#VERSION:0.83;
#TITLE:Secret Story of the Swan;
#SUBTITLE:;
#ARTIST:IZ*ONE;
#TITLETRANSLIT:;
#SUBTITLETRANSLIT:;
#ARTISTTRANSLIT:;
#GENRE:;
#CREDIT:;
#MUSIC:Secret Story of the Swan.ogg;
#BANNER:Banner.png;
#BACKGROUND:BG.png;
#CDTITLE:;
#SAMPLESTART:0.000;
#SAMPLELENGTH:0.000;
#SELECTABLE:YES;
#OFFSET:-0.571;
#BPMS:0.000=103.000;
#STOPS:;
#BGCHANGES:-1.000=Secret Story of the Swan.mp4=1.000=0=0=1,
99999.000=-nosongbg-=1.000=0=0=0=StretchNoLoop====
;
#FGCHANGES:;

//--------------- dance-single - ----------------
#NOTEDATA:;
#STEPSTYPE:dance-single;
#DESCRIPTION:;
#DIFFICULTY:Beginner;
#METER:2;
#RADARVALUES:0,0,0,0,0;
#NOTES:
0000
0000
0000
0000
,
0100
0100
0100
0000
,
1000
1000
1000
0000
,
0001
0001
0001
0000
,
0010
0010
0010
0000
,
0100
0100
0100
0000
,
1000
1000
1000
0000
,
0001
0001
0001
0000
,
0010
0010
0010
0000
,
1000
0000
0100
0000
,
1000
0000
0100
0000
,
0020
0000
0030
0000
,
0200
0000
0300
0000
,
1000
0000
0100
0000
,
1000
0000
0100
0000
,
0020
0000
0030
0000
,
1000
0000
0010
0000
,
1000
1000
1000
0000
,
0001
0001
0001
0000
,
0100
0000
0001
0000
,
0100
0100
0100
0000
,
1000
1000
1000
0000
,
0001
0001
0001
0000
,
0020
0000
0030
0000
,
0200
0000
0300
0000
,
0100
0100
0100
0000
,
1000
1000
1000
0000
,
0001
0001
0001
0000
,
0010
0010
0010
0000
,
0010
0010
0010
0000
,
0100
0100
0100
0000
,
0200
0000
0300
0000
0200
0000
0000
0300
,
0000
1000
0000
0010
,
0000
0000
1000
0000
,
0100
0000
0010
0000
,
0001
0000
0010
0000
,
0100
0000
1000
0000
,
0100
0000
0200
0000
0000
0000
0000
0300
,
0000
0000
0010
0000
,
0110
0000
1000
0000
,
0010
0000
0100
0000
,
0010
0000
1000
0000
,
0100
0000
0200
0300
,
0100
0000
0001
0000
,
0100
0000
0200
0300
,
0100
0000
0001
0000
,
0010
0000
0200
0300
,
0200
0000
0300
0100
,
0000
1000
0000
0020
,
0030
0000
0010
0010
,
0010
0000
0200
0300
,
0001
0001
0001
0000
,
0100
0100
0100
0000
,
0010
0010
0010
0000
,
0100
0000
0110
0000
,
0001
0000
0200
0300
,
0100
0000
0200
0300
,
0000
0000
0010
0010
,
0010
0000
0000
0000
;

//--------------- dance-single - ----------------
#NOTEDATA:;
#STEPSTYPE:dance-single;
#DESCRIPTION:;
#DIFFICULTY:Easy;
#METER:3;
#RADARVALUES:0,0,0,0,0;
#NOTES:
0000
0000
0000
0000
,
0100
0000
0000
0000
1000
0000
0000
0000
0100
0000
0000
0100
0000
0000
0100
0000
,
0001
0000
0000
0000
0100
0000
0000
0000
0100
0000
0000
0100
0000
0000
0100
0000
,
1000
0000
0000
0000
0100
0000
0000
0000
0100
0000
0000
0100
0000
0000
0100
0000
,
0000
1000
0100
0010
,
0001
0000
0000
0000
0000
0000
0000
0000
0100
0000
0000
0100
0000
0000
0100
0000
,
0001
0000
0000
0000
1000
0000
0000
0000
1000
0000
0000
1000
0000
0000
1000
0000
,
0000
0000
0000
0000
0000
0000
0000
0000
0001
0000
0000
0001
0000
0000
0001
0000
,
0000
0000
1000
0001
,
1000
0100
1000
0000
,
2002
3003
0020
0130
,
0010
0000
0000
0010
0000
0000
0010
0000
0000
0000
0000
0000
0010
0000
0000
0000
,
0100
0000
0000
0100
0000
0000
0100
0000
0000
0000
0000
0000
0000
0000
0000
0000
,
1000
0001
1000
0000
,
2002
0000
3003
0000
0020
0030
1000
0000
,
0100
0000
0000
0100
0000
0000
0100
0000
0000
0000
0000
0000
1000
0000
0000
0000
,
0200
0300
0020
0030
,
1000
0001
1000
2000
,
3001
0001
0002
0103
,
0200
0000
0000
0000
0301
0000
0000
0000
0002
0000
0000
0000
2003
0000
0000
3000
,
0100
0000
0000
0000
0100
0000
0000
0000
0020
0000
0000
0030
0200
0000
0000
0300
,
2000
0000
0001
0000
3200
0000
0320
0030
,
0002
1000
0103
0002
,
0023
0000
0000
0030
0000
0000
0100
0000
,
0040
0000
0000
0030
1000
0000
0000
0000
0100
0000
0000
0000
0010
0000
0000
0000
,
0001
0000
0000
0000
0100
0000
0000
0000
0100
0000
0000
0100
0000
0000
0100
0000
,
0000
1000
0010
1000
,
0010
0000
0000
0000
0100
0000
0000
0000
0100
0000
0000
0100
0000
0000
0100
0000
,
0000
1000
0010
1000
,
0010
0010
0020
0030
,
0100
0100
0200
0301
,
0002
0000
0000
0003
0000
0000
0000
0000
0100
0000
0000
0100
0000
0000
0100
0000
,
0000
1000
0010
1000
,
0100
0000
1000
0100
,
0010
0001
0001
0020
,
0030
0000
1000
0001
,
0020
0230
2300
3001
,
0100
0200
0000
0000
,
2000
3300
0010
0000
,
0220
0330
2000
0000
,
3020
0000
0000
0000
0000
0000
0000
0030
0200
0000
0000
0000
0000
0300
0000
0000
,
0010
0010
1000
1000
,
0100
0000
0000
0000
0100
0000
0000
0000
0100
0000
0000
0100
0000
0000
0100
0000
,
0010
0010
0001
0001
,
0100
0000
0000
0000
0100
0000
0000
0000
0100
0000
0000
0100
0000
0000
0200
0000
,
0000
0300
0000
0000
0000
0000
0002
0000
0000
0000
0000
0003
0000
0000
0000
0000
,
0020
0000
0000
0000
0000
0000
0000
0000
0100
0000
0000
0100
0000
0000
0130
0000
,
0200
0000
0300
0100
,
1000
1000
0100
0010
,
0000
0000
0010
0100
,
1001
0000
0000
0000
1000
0000
0000
0000
0100
0000
0000
0100
0000
0000
0100
0000
,
0002
0000
0000
0003
0200
0000
0000
0300
0002
0000
0000
0000
0003
0000
0000
0000
,
1000
0000
0000
0000
0100
0000
0000
0000
0100
0000
0000
0100
0000
0000
0100
0000
,
0000
1000
0100
0010
,
0001
1000
0020
0030
,
0001
0000
0100
0000
0200
0000
0300
0002
,
0000
0000
0000
0000
0003
0000
0000
0000
0100
0000
0000
0100
0000
0000
0100
0000
,
0000
1000
0100
0010
,
0001
0000
0000
0000
;

//--------------- dance-single - ----------------
#NOTEDATA:;
#STEPSTYPE:dance-single;
#DESCRIPTION:;
#DIFFICULTY:Medium;
#METER:6;
#RADARVALUES:0,0,0,0,0;
#NOTES:
0000
0000
0000
0000
,
0000
0000
0010
0000
1000
0000
0100
0000
1100
0000
0000
1100
0000
0000
1100
0000
,
0000
0000
0010
0000
0001
0000
0100
0000
0101
0000
0000
0101
0000
0000
0101
0000
,
0000
0000
0010
0000
1000
0000
0100
0000
1100
0000
0000
1100
0000
0000
1100
0000
,
0000
0000
0000
0100
0010
0001
0010
0100
,
0000
0000
0000
0000
0000
0000
0100
0000
1100
0000
0000
1100
0000
0000
1100
0000
,
0000
0000
0010
0000
1000
0000
0002
0000
1000
0000
0000
1000
0000
0000
1003
0000
,
0000
0000
0000
0000
0000
0000
0100
0000
0101
0000
0000
0101
0000
0000
0101
0000
,
0000
0200
0000
0310
0000
0000
0000
0000
,
0000
0100
1000
0000
0100
1000
0000
0000
,
2002
0000
3003
0000
0020
0030
0100
0001
,
0010
0000
0000
0010
0000
0000
0010
0000
0000
0000
0000
0000
0010
0000
1000
0000
,
0100
0000
0000
0100
0000
0000
0100
0000
1000
0000
0001
0000
1000
0000
0000
0000
,
0000
0100
0001
0000
0100
0001
0000
0000
,
2002
0000
3003
0000
0020
0030
1000
0010
,
0100
0000
0000
0100
0000
0000
0100
0000
0000
0000
0000
0000
1000
0000
0000
0000
,
0210
0300
0020
0030
,
1000
0001
1000
0001
0000
0020
2030
3000
,
0001
1000
0001
2000
0000
3000
0000
0000
,
0002
0000
0000
0000
0003
0000
2002
0000
0000
0000
3003
0000
2000
0000
0000
3000
,
0000
0000
1000
0000
0100
0000
0010
0000
0020
0000
0200
0330
0200
0000
2000
3300
,
0002
0000
1000
0003
0200
0000
0320
0030
,
2000
0000
0001
3000
0100
0002
2003
3010
,
0020
0000
0000
0030
0000
0000
0100
0001
,
0040
0000
0000
0030
0000
0000
0100
0000
0010
0000
0001
0000
0010
0000
0100
0000
,
0110
0000
0000
0000
0000
0000
0100
0000
1100
0000
0000
1100
0000
0000
1100
0000
,
0000
0010
1000
0001
0010
0001
1000
0001
,
0000
0000
0000
0000
0000
0000
0100
0000
0101
0000
0000
0101
0000
0000
0101
0000
,
0000
0000
0000
1000
0010
1000
0000
0000
,
0010
1000
0010
0000
0010
0010
0010
0000
,
0001
0100
0001
0000
0010
0010
0010
0001
,
0002
0000
0000
0003
0000
0000
0100
0000
0101
0000
0000
0101
0000
0000
0101
0000
,
0000
0000
0000
1000
0010
1000
0010
0100
,
0100
0000
0000
0010
1000
0001
0010
0010
,
0001
0000
0100
0000
0001
0000
0010
0020
,
0030
0000
0000
0100
1000
0001
1000
0001
,
0020
0230
2300
3001
,
1010
0200
0000
0000
,
2000
3300
0010
0000
,
0220
0330
2000
0000
,
3020
0000
0000
0000
0000
0000
0100
0030
0200
0000
0000
0000
0000
0300
0000
0000
,
0010
0100
0010
0000
1000
0001
1000
0000
,
0100
0000
1000
0000
0100
0000
0000
0000
1100
0000
0000
1100
0000
0000
1100
0000
,
0010
0100
0010
0000
0001
1000
0001
0000
,
0100
0000
0001
0000
0100
0000
0000
0000
0101
0000
0000
0101
0000
0000
0202
0000
,
0000
0303
0000
0000
0000
0000
0002
0000
0000
0000
0000
0003
0000
0000
0000
0000
,
0021
0000
0000
0000
0030
0000
0000
0000
0101
0000
0000
0101
0000
0000
0101
0000
,
0200
0000
0000
0300
0000
0000
0002
0000
0000
0003
0000
0000
0100
0000
1000
0000
,
4000
0000
0000
3000
0000
0000
0100
0000
0010
0000
0001
0000
0010
0000
0200
0000
,
0300
0000
0000
0010
0100
1000
0100
0010
,
1001
0000
0010
0000
1000
0000
0100
0000
1100
0000
0000
1100
0000
0000
1100
0000
,
0002
0000
0000
0003
0200
0000
0000
0300
0002
0003
0002
0000
0003
0000
0010
0000
,
0010
0000
0000
0000
0000
0000
0100
0000
1100
0000
0000
1100
0000
0000
1100
0000
,
0000
0000
0000
0100
0010
0001
0010
0100
,
1000
0010
1000
0000
0010
0010
0010
0000
,
0001
0010
0001
0000
0010
0010
0010
0001
,
0001
0000
0002
0000
0003
0000
0010
0000
0101
0000
0000
0101
0000
0000
0101
0000
,
0000
0000
0000
1000
0010
1000
0010
0200
,
0000
0300
0000
0000
;

//--------------- dance-single - ----------------
#NOTEDATA:;
#STEPSTYPE:dance-single;
#DESCRIPTION:;
#DIFFICULTY:Hard;
#METER:7;
#RADARVALUES:0,0,0,0,0;
#NOTES:
0000
0000
0000
0000
,
1001
0000
0010
0000
1000
0000
0100
0000
1100
0000
0000
0110
0000
0000
0011
0000
,
1001
0000
0010
0000
0001
0000
0100
0000
0101
0000
0000
0110
0000
0000
1100
0000
,
1001
0000
0010
0000
1000
0000
0100
0000
1100
0000
0000
0110
0000
0000
0011
0000
,
1001
0020
0030
0100
0010
0001
0010
0100
,
1001
0000
0000
0110
0000
0000
0010
0000
1100
0000
0000
0110
0000
0000
0011
0000
,
0200
0000
0320
0000
2030
0000
3002
0000
1000
0000
0000
1000
0000
0000
0103
0000
,
1001
0000
0000
0110
0000
0000
0010
0000
0101
0000
0000
0110
0000
0000
1010
0000
,
0000
0200
0000
0310
0000
0000
0000
0000
,
0000
0000
0100
0000
1000
0020
0030
0000
0100
0000
1000
0020
0030
0000
0100
0000
,
1001
0000
0000
2000
0000
0000
0100
0000
0020
0000
3030
0000
0100
0000
0001
0000
,
0020
0000
0000
0032
0000
0000
0203
0000
0000
0300
0000
0000
0010
0000
1000
0000
,
0200
0000
0000
2300
0000
0000
3020
0000
0230
0000
0302
0000
0203
0000
0302
0000
,
0003
0000
0100
0000
0001
0020
0030
0000
0100
0000
0001
0020
0030
0000
0100
0000
,
1001
0000
0000
0002
0000
0000
0100
0000
0020
0000
0033
0000
1000
0000
0010
0000
,
0200
0000
0000
0302
0000
0000
0023
0000
0000
0030
0000
0000
1000
0000
0000
0000
,
0102
0000
0000
1000
0003
0000
0000
0000
0010
0000
0000
0002
0000
0000
1003
0000
,
1001
0000
0000
0010
0000
1000
0000
1000
0000
0000
0020
0000
2030
0000
3100
0000
,
1001
0000
0000
0010
0000
0010
0000
0002
0000
0000
0003
0000
0002
0000
0003
0000
,
0201
0000
0000
0000
0300
0000
1002
0000
0000
0000
0003
0000
2000
0000
0200
3300
,
0000
0000
1000
0000
0100
0000
0010
0000
0020
0000
0200
0330
0200
0000
2000
3300
,
0002
0000
1000
0003
0200
0000
0320
0030
,
2000
0000
0001
3000
0100
0002
2003
3010
,
0020
0000
0000
0100
0000
0000
0130
0000
0000
0001
0000
0000
0100
0000
0001
0000
,
0040
0000
0000
0030
0000
0000
0100
0000
0010
0000
0001
0000
0010
0000
0100
0000
,
1001
0000
0000
0110
0000
0000
0010
0000
1100
0000
0000
0110
0000
0000
0011
0000
,
0200
0320
2030
3001
0010
0001
1000
0001
,
1001
0000
0000
0110
0000
0000
0010
0000
0101
0000
0000
0110
0000
0000
1010
0000
,
0000
0200
0300
0100
0010
1000
0010
0100
,
1000
0000
0000
0010
0000
0100
0000
0000
0010
0000
0010
0000
0010
0000
0000
0000
,
0001
0000
0000
0010
0000
0200
0300
0000
0010
0000
0010
0000
0010
0000
0200
0300
,
0002
0000
0000
0003
0000
0000
0010
0000
0101
0000
0000
0110
0000
0000
1010
0000
,
0000
0200
0300
0100
0010
1000
0010
0100
,
0100
0000
0000
0010
1000
0001
0010
0010
,
0001
0000
0100
0000
0001
0000
0010
0020
,
0030
0000
0000
0100
1000
0001
1000
0001
,
0020
0230
2300
3001
,
1010
0000
0000
0000
0200
0000
0000
0000
0000
0000
0000
0002
0000
0300
0000
0000
,
2000
3003
0010
0000
,
0220
0000
0000
0000
0330
0000
0000
0000
2000
0000
0000
3002
0000
0000
2003
0000
,
3020
0000
0000
0230
0000
0300
0001
0000
0200
0000
0000
0000
0000
0300
0000
0000
,
0110
0000
0010
1000
0000
0010
1000
0000
0110
0000
0001
0100
0000
0001
0100
0000
,
0110
0000
1000
0001
0000
1000
0001
0000
1100
0000
0000
0110
0000
0000
0011
0000
,
0110
0000
0010
0001
0000
0010
0001
0000
0110
0000
1000
0100
0000
1000
0100
0000
,
0110
0000
0001
1000
0000
0001
1000
0000
0101
0000
0000
0110
0000
0000
0010
0000
,
0010
0100
0100
0001
0001
0010
0010
0100
,
0021
0000
0000
0200
0030
0000
1300
0000
0101
0000
0000
0110
0000
0000
1100
0000
,
0200
0000
0000
0300
0000
0000
0002
0000
0000
0003
0000
0000
0100
0000
1000
0000
,
4000
0000
0000
3000
0000
0000
0100
0000
0010
0000
0001
0000
0010
0000
0200
0000
,
0300
0000
0000
0010
0100
1000
0100
0010
,
1001
0000
0010
0000
1000
0000
0100
0000
1100
0000
0000
0110
0000
0000
0011
0000
,
0002
0000
0000
0003
0200
0000
0000
0300
0002
0003
0002
0000
0003
0000
0010
0000
,
0010
0000
0000
0110
0000
0000
0010
0000
1100
0000
0000
0110
0000
0000
0011
0000
,
1001
0020
0030
0100
0010
0001
0010
0100
,
1000
0000
0000
0010
0000
0100
0000
0000
0010
0000
0010
0000
0010
0000
0000
0000
,
0001
0000
0000
0010
0000
0200
0300
0000
0010
0000
0010
0000
0010
0000
0001
0000
,
0001
0000
0002
0000
0003
0000
0010
0000
0101
0000
0000
0110
0000
0000
1010
0000
,
0000
0200
0300
0100
0010
1000
0010
0200
,
0000
0300
0000
0000
;

//--------------- dance-single - Ettenra ----------------
#NOTEDATA:;
#STEPSTYPE:dance-single;
#DESCRIPTION:Ettenra;
#DIFFICULTY:Challenge;
#METER:9;
#RADARVALUES:0,0,0,0,0;
#NOTES:
0000
0000
0000
0000
,
1001
0000
0010
0000
1000
0000
0100
0000
1100
0000
0000
0110
0000
0000
0011
0000
,
1001
0000
0010
0000
0001
0000
0100
0000
0101
0000
0000
0110
0000
0000
1100
0000
,
1001
0000
0010
0000
1000
0000
0100
0000
1100
0000
0000
0110
0000
0000
0011
0000
,
1001
0000
0020
0000
0030
0000
0100
0000
0010
0000
0001
0000
0010
0001
0100
0000
,
1001
0000
0000
0110
0000
0000
0010
0000
1100
0000
0000
0110
0000
0000
0011
0000
,
0200
0000
0320
0000
2030
0000
3002
0000
1000
0000
0000
1000
0000
0000
0103
0000
,
1001
0000
0000
0110
0000
0000
0010
0000
0101
0000
0000
0110
0000
0000
1010
0000
,
0000
0000
0200
0000
0000
0000
0310
0000
0100
0001
0000
0010
0000
0001
1000
0001
,
0000
0000
0100
0001
1000
0020
0030
0000
0100
0001
1000
0020
0030
0000
0100
0010
,
1001
0000
0002
2000
0003
0000
0100
0000
0020
0000
3030
0000
0100
0000
0001
0000
,
0010
0020
0000
0031
0002
0000
0103
0200
0000
0300
0000
0000
0010
0000
1000
0000
,
0100
0200
0000
1300
2000
0000
3010
0020
0130
0001
0100
0001
0100
0010
0100
0001
,
1000
0000
0100
1000
0001
0020
0030
0000
0100
1000
0001
0020
0030
0000
0100
0010
,
1001
0000
2000
0002
0000
3000
0100
0000
0020
0000
0033
0000
1000
0000
0010
0000
,
0100
0000
0000
0200
0000
0000
0000
0000
0000
0301
0000
0000
0002
0000
0000
0000
0000
0000
0013
0000
0000
0020
0000
0000
0000
0000
0000
0030
0000
0000
0000
0000
0100
0000
0000
0000
1000
0000
0000
0000
0001
0000
0000
0000
0100
0000
0000
0000
,
0102
0000
0000
1000
0003
0000
1000
0000
0010
0100
0000
0002
0000
0000
1003
0000
,
1001
0000
0010
1000
0000
0010
0000
0010
0000
0000
0020
0000
2030
0000
3100
0000
,
1001
0000
0010
0001
0000
0010
0000
0002
0000
0000
0103
0000
0002
0000
0003
0000
,
0201
0000
0000
0002
0303
0000
1002
0000
0000
2000
3003
0000
2000
0000
0200
3300
,
0000
0000
1000
0100
0010
0001
0010
0000
0020
0000
0200
0330
0200
0000
2000
3300
,
0001
0000
0000
0000
0010
0000
0000
0000
0001
0000
0000
0000
1000
0000
0000
0000
0100
0000
0000
0000
1000
0000
0000
0000
0100
0000
0000
0010
0000
0000
0000
0000
0000
0010
0000
0000
0200
0000
0000
0000
0000
0000
0000
0000
0000
0000
0000
0000
,
1300
0000
0010
0000
1000
0000
0001
0000
0100
0000
0001
0000
0200
0000
0000
0302
0000
0000
2003
0000
0000
3010
0000
0000
,
0020
0000
0000
2000
3000
0000
0230
0300
0000
0002
0003
0000
0100
0000
0001
0000
,
0040
0000
0000
0130
0000
0000
0100
0000
0010
0000
0001
0000
0010
0001
0100
0000
,
1001
0000
0000
0110
0000
0000
0010
0000
1100
0000
0000
0110
0000
0000
0011
0000
,
0200
0000
0320
0000
2030
0000
3001
0010
0001
0010
0100
0010
0100
1000
0100
0000
,
1001
0000
0000
0110
0000
0000
0010
0000
0101
0000
0000
0110
0000
0000
1010
0000
,
0000
0000
0200
0000
0300
0000
0100
0000
0010
0000
1000
0000
0010
1000
0100
0000
,
1000
0001
0000
0010
0000
0100
0000
1000
0010
0100
0010
0100
0010
0100
0000
0000
,
0001
1000
0000
0010
0000
0200
0300
0001
0010
0100
0010
0100
0010
0000
0200
2300
,
0002
3000
0000
0103
0000
0000
0010
0000
0101
0000
0000
0110
0000
0000
1010
0000
,
0000
0000
0200
0000
0300
0000
0100
0000
0010
0000
1000
0000
0010
1000
0100
0000
,
0100
0000
0000
0010
1000
0001
0010
0010
,
0001
0000
0100
0000
0001
0000
0010
0020
,
0030
0000
0000
0100
1000
0001
1000
0001
,
0020
0230
2300
3001
,
1010
0000
0000
0020
0200
0000
0000
0000
0030
0000
0000
0002
0000
0300
0000
0000
,
2000
0000
0000
0000
3003
0000
0000
0000
0010
0000
1000
0100
0000
0100
0010
0000
,
0220
0000
0000
0000
0330
0000
0000
0000
2000
0000
0000
3002
0000
0000
2003
0000
,
3020
0000
0000
0230
0000
0000
0301
0000
0100
0001
0000
0010
0000
0001
1000
0001
,
0110
0000
0010
1000
0000
0010
1000
0000
0110
0000
0001
0100
0000
0001
0100
0000
,
0010
0100
0001
1000
0000
0100
0010
0000
1100
0000
0000
0110
0000
0000
0011
0000
,
0110
0000
0010
0001
0000
0010
0001
0000
0110
0000
1000
0100
0000
1000
0100
0000
,
0010
0100
1000
0001
0000
0100
0010
0000
0101
0000
0000
0110
0000
0000
0010
1000
,
0010
0000
0100
0000
0100
0000
0001
1000
0001
0000
0010
0000
0010
0000
0100
0000
,
0021
0000
0000
0200
0030
0000
1300
0000
0101
0000
0000
0110
0000
0000
1100
0000
,
0200
0000
0000
0310
0000
0000
0002
0000
0000
0013
0000
0000
0100
0000
1000
0000
,
4000
0000
0000
3000
0000
0000
0100
0000
0010
0000
0001
0000
0010
0001
0200
0000
,
0300
0000
0000
0000
0000
0000
0010
0000
0100
0000
1000
0000
0100
1000
0010
0000
,
1001
0000
0010
0000
1000
0000
0100
0000
1100
0000
0000
0110
0000
0000
0011
0000
,
0002
0000
0000
1003
0200
0000
0000
0310
0002
0003
0002
0000
0003
0000
0020
0030
,
0010
0000
0000
0110
0000
0000
0010
0000
1100
0000
0000
0110
0000
0000
0011
0000
,
1001
0000
0020
0000
0030
0000
0100
0000
0010
0000
0001
0000
0010
0001
0100
0000
,
1000
0001
0000
0010
0000
0100
0000
1000
0010
0100
0010
0100
0010
0100
0000
0000
,
0001
1000
0000
0010
0000
0200
0300
0001
0010
0100
0010
0100
0010
0000
0001
1000
,
0001
1000
0002
0000
0003
0000
0010
0000
0101
0000
0000
0110
0000
0000
1010
0000
,
0000
0000
0200
0000
0300
0000
0100
0000
0010
0000
1000
0000
0010
1000
0200
0000
,
0000
0300
0000
0000
;
