#VERSION:0.83;
#TITLE:SPAGHETTI;
#SUBTITLE:;
#ARTIST:LE SSERAFIM;
#TITLETRANSLIT:;
#SUBTITLETRANSLIT:;
#ARTISTTRANSLIT:;
#GENRE:;
#CREDIT:;
#MUSIC:SPAGHETTI.ogg;
#BANNER:;
#BACKGROUND:;
#CDTITLE:;
#SAMPLESTART:47.089;
#SAMPLELENGTH:17.755;
#SELECTABLE:YES;
#OFFSET:-0.269;
#BPMS:0.000=111.494
,4.250=222.988
,7.500=111.494
,40.000=55.747
,47.250=111.494
,48.000=55.747
,55.000=111.502
,55.500=223.003
,56.000=111.494
,71.000=222.988
,72.000=111.494
,87.000=222.988
,87.500=111.494
,88.000=222.988
,100.000=111.494
,136.000=55.747
,143.250=111.494
,144.000=55.747
,151.000=111.494
,152.000=222.988
,153.000=111.494
,168.000=222.988
,169.000=111.494
,184.000=222.988
,184.750=111.494
,185.000=222.988
,197.000=111.494
,201.000=222.988
,213.000=111.494
;
#STOPS:4.250=0.874
,47.250=0.135
,47.500=0.135
,47.750=0.135
,55.000=0.538
,55.500=0.135
,71.000=0.269
,87.000=0.135
,88.000=0.202
,88.750=0.202
,89.500=0.135
,90.000=0.135
,90.500=0.135
,91.000=0.135
,91.500=0.135
,92.000=0.202
,92.750=0.202
,93.500=0.135
,94.000=0.135
,94.500=0.135
,95.000=0.269
,96.000=0.202
,96.750=0.202
,97.500=0.135
,98.000=0.135
,98.500=0.135
,99.000=0.135
,99.500=0.135
,143.250=0.135
,143.500=0.135
,143.750=0.135
,152.000=0.269
,168.000=0.269
,184.000=0.202
,185.000=0.202
,185.750=0.202
,186.500=0.135
,187.000=0.135
,187.500=0.135
,188.000=0.135
,188.500=0.135
,189.000=0.202
,189.750=0.202
,190.500=0.135
,191.000=0.135
,191.500=0.135
,192.000=0.269
,193.000=0.202
,193.750=0.202
,194.500=0.135
,195.000=0.135
,195.500=0.135
,196.000=0.135
,196.500=0.135
,201.000=0.202
,201.750=0.202
,202.500=0.135
,203.000=0.135
,203.500=0.135
,204.000=0.135
,204.500=0.135
,205.000=0.202
,205.750=0.202
,206.500=0.135
,207.000=0.135
,207.500=0.135
,208.000=0.269
,209.000=0.202
,209.750=0.202
,210.500=0.135
,211.000=0.135
,211.500=0.135
,212.000=0.135
,212.500=0.135
;
#SCROLLS:0.000=1.400;
#BGCHANGES:-0.269=SPAGHETTI2.mp4=1.000=0=0=1,
99999.000=-nosongbg-=1.000=0=0=0=StretchNoLoop====
;
#FGCHANGES:;

//--------------- dance-single - Ettenra ----------------
#NOTEDATA:;
#STEPSTYPE:dance-single;
#DESCRIPTION:Ettenra;
#DIFFICULTY:Beginner;
#METER:2;
#RADARVALUES:0,0,0,0,0;
#NOTES:
0000
0000
0000
0000
,
0000
0000
0000
0000
,
0000
0000
1000
1000
,
0000
0000
0001
0001
,
0000
0000
0100
0200
,
0300
0000
0001
0001
,
0001
0000
1000
1000
,
0000
0000
0100
0100
,
0000
0000
0010
0020
,
0000
0030
0000
0000
0000
0000
0000
0000
0001
0000
0000
0000
0001
0000
0000
0000
,
0001
0000
0010
0000
,
1000
0000
0010
0000
,
0100
0000
0001
0000
,
0100
0000
0200
0300
,
1001
0000
0010
0000
,
0001
0000
1000
0000
,
1001
0000
0100
0000
,
0000
0020
0030
0010
,
1001
0000
0010
0000
,
0000
2002
3003
0000
,
1001
0000
0100
0000
,
0000
0020
0030
0010
,
0002
0003
0100
0100
,
2000
3000
0010
0010
,
0002
0003
0100
0100
,
0000
0020
0030
0020
,
0030
0000
1000
1000
,
0000
0000
0001
0001
,
0000
0000
0100
0200
,
0300
0000
0001
0001
,
0001
0000
1000
1000
,
0000
0000
0100
0100
,
0000
0000
0010
0020
,
0000
0030
0000
0000
0000
0000
0000
0000
0001
0000
0000
0000
0001
0000
0000
0000
,
0001
0000
0010
0000
,
1000
0000
0010
0000
,
0100
0000
0001
0000
,
0100
0000
0200
0300
,
0000
1001
0000
0010
,
0000
0001
0000
1000
,
0000
1001
0000
0100
,
0000
0000
0020
0030
,
0010
1001
0000
0010
,
0000
0000
2002
3003
,
0000
1001
0000
0100
,
0000
0000
0020
0030
,
0010
0002
0003
0100
,
0100
2000
3000
0010
,
0010
0002
0003
0100
,
0100
0000
0020
0030
,
0010
2000
3000
0100
,
0100
0002
0003
0010
,
0010
2000
3000
0100
,
0100
0000
0020
0030
,
0020
0030
0000
0000
;

//--------------- dance-single - Ettenra ----------------
#NOTEDATA:;
#STEPSTYPE:dance-single;
#DESCRIPTION:Ettenra;
#DIFFICULTY:Easy;
#METER:4;
#RADARVALUES:0,0,0,0,0;
#NOTES:
0000
0000
0000
0000
,
0000
0000
0000
0000
,
0000
0000
1000
0100
,
0000
0000
0001
0100
,
0000
1000
0010
0200
,
0300
0000
0002
0023
,
0230
0300
1000
0010
,
0100
0100
1000
0001
,
0000
0100
0001
0020
,
0000
0030
0000
0000
0000
0000
0000
0000
0002
0000
0000
0000
0023
0000
0000
0000
,
0230
1300
0000
0100
0000
0010
0000
0001
,
0000
0010
0000
0100
0000
2000
0000
0000
,
3000
0001
0000
0010
0000
0100
0000
1000
,
0000
0000
0100
0000
0000
0000
0010
0000
0000
0000
0002
0000
0200
0303
0000
0000
,
1001
0010
1000
0001
,
1000
0001
0010
0100
,
1001
0010
1000
0001
,
1000
0000
0000
0000
0020
0000
0000
0000
0130
0000
0000
0000
0020
0030
0000
0000
,
1001
0100
0001
1000
,
0001
0000
0000
0000
2002
0000
0000
3003
0000
0000
0000
0000
0100
0000
0000
0000
,
1001
0100
0001
1000
,
0001
0000
0020
0000
0130
0000
0020
0030
,
0001
0000
0000
0001
0000
0000
0001
0000
0200
0000
0300
0000
0200
0000
0300
0000
,
1000
0000
0000
1000
0000
0000
1000
0000
0200
0000
0300
0000
0020
0030
0000
0000
,
0001
0000
0000
0001
0000
0000
0001
0000
0200
0000
0300
0000
0200
0000
0300
0000
,
0000
0020
0130
0020
,
0030
0000
1000
0100
,
0000
0000
0001
0100
,
0000
1000
0010
0200
,
0300
0000
0002
0023
,
0230
0300
1000
0010
,
0100
0100
1000
0001
,
0000
0100
0001
0020
,
0000
0030
0000
0000
0000
0000
0000
0000
0002
0000
0000
0000
0023
0000
0000
0000
,
0230
1300
0000
0100
0000
0010
0000
0001
,
0000
0010
0000
0100
0000
2000
0000
0000
,
3000
0001
0000
0010
0000
0100
0000
1000
,
0000
0100
0000
0010
0000
0002
0200
0000
,
0303
1001
0010
1000
,
0001
1000
0001
0010
,
0100
1001
0010
1000
,
0001
1000
0020
0130
,
0020
0030
0000
0000
1001
0000
0000
0000
0100
0000
0000
0000
0001
0000
0000
0000
,
1000
0000
0000
0000
0001
0000
0000
0000
2002
0000
0000
3003
0000
0000
0000
0000
,
0100
1001
0100
0001
,
1000
0001
0020
0130
,
0020
0000
0030
0000
0001
0000
0000
0001
0000
0000
0001
0000
0200
0000
0300
0000
,
0200
0000
0300
0000
1000
0000
0000
1000
0000
0000
1000
0000
0200
0000
0300
0000
,
0020
0030
0000
0000
0001
0000
0000
0001
0000
0000
0001
0000
0200
0000
0300
0000
,
0200
0300
0000
0000
0020
0000
0130
0000
,
0020
0000
0000
0000
1030
0000
0000
1000
0000
0000
1000
0000
0200
0000
0300
0000
,
0200
0000
0300
0000
0001
0000
0000
0001
0000
0000
0001
0000
0200
0000
0300
0000
,
0020
0030
0000
0000
1000
0000
0000
1000
0000
0000
1000
0000
0200
0000
0300
0000
,
0200
0300
0000
0000
0020
0000
0130
0000
,
0020
0030
0000
0000
;

//--------------- dance-single - Ettenra ----------------
#NOTEDATA:;
#STEPSTYPE:dance-single;
#DESCRIPTION:Ettenra;
#DIFFICULTY:Medium;
#METER:6;
#RADARVALUES:0,0,0,0,0;
#NOTES:
0000
0000
0000
0000
,
0000
0000
0000
0000
,
0000
0000
0000
0000
0000
0000
0000
1000
0000
1000
0000
0000
0100
0000
0100
0000
,
0000
0000
0000
0020
0000
0030
0000
0001
0000
0001
0000
0000
0100
0000
0100
0000
,
0000
0000
0000
0020
0000
0030
0000
1000
0000
1000
0000
0000
0100
0000
0200
0000
,
0000
0300
0000
0000
0000
0000
1000
0000
0002
0000
0000
0000
0020
0000
0033
0000
,
2200
0000
0000
0000
3300
0000
0000
0001
0000
1000
0000
0000
0010
0000
0000
0000
,
0110
0000
0110
0000
0110
0000
0000
1000
0000
0001
0000
0000
0100
0000
0000
0000
,
0000
0000
0000
0000
0100
0000
0000
0001
0000
1000
0000
0000
0020
0000
0000
0000
,
0000
0030
0000
0000
0000
0000
1000
0000
0002
0000
0000
0000
0020
0000
0033
0000
,
2200
3300
0001
1000
0010
2000
3000
0100
,
0010
0000
0001
0000
1000
0000
0010
0000
0100
0000
0001
0000
0000
1000
1000
1000
,
0000
1000
0001
1000
0010
0020
0030
1000
,
0010
0000
0100
0000
0001
0000
0010
0000
0022
0033
0220
0330
2200
3300
0000
0000
,
1001
0000
0000
0000
0010
0000
0000
1000
0000
0001
0000
0000
0001
0000
0100
0000
,
0000
0000
0000
0000
0010
0000
0000
0001
0000
1000
0000
0000
0100
0000
0110
0000
,
1001
0000
0000
0000
0010
0000
0000
1000
0000
0001
0000
0000
0001
0000
0100
0000
,
0000
0000
0100
0000
0020
0000
0030
0000
0100
0000
0100
0000
0020
0030
0000
0000
,
2002
3003
0000
0000
0100
0000
0000
0001
0000
1000
0000
0000
0010
0000
1000
0000
,
0000
0000
0000
0000
1001
0000
0000
1001
0000
0010
0000
0000
0100
0000
0110
0000
,
2002
3003
0000
0000
0100
0000
0000
0001
0000
1000
0000
0000
0010
0000
1000
0000
,
0000
0000
0100
0000
0020
0000
0030
0000
0100
0000
0100
0000
0020
0030
0000
0000
,
0100
0000
0000
0001
0000
0000
0010
0000
0100
0000
1000
0000
0100
0000
1000
0000
,
0100
0000
0000
1000
0000
0000
0010
0000
0100
0000
0001
0000
0220
0330
0000
0000
,
0100
0000
0000
0001
0000
0000
0010
0000
0100
0000
1000
0000
0100
0000
1000
0000
,
0000
0100
0020
0030
0100
0100
0020
0000
,
0030
0000
0000
0000
0000
0000
0000
1000
0000
1000
0000
0000
0100
0000
0100
0000
,
0000
0000
0010
0000
0010
0000
0000
0001
0000
0001
0000
0000
2000
0000
3000
0000
,
0000
0000
0000
0020
0000
0030
0000
1000
0000
1000
0000
0000
0100
0000
0100
0000
,
0000
0000
0000
1000
0002
0000
0020
0033
,
2200
0000
0000
0000
3300
0000
0000
0001
0000
1000
0000
0000
0010
0000
0000
0000
,
0110
0000
0110
0000
0110
0000
0000
1000
0000
0001
0000
0000
0100
0000
0000
0000
,
0000
0000
0000
0000
0010
0000
0000
0001
0000
1000
0000
0000
0100
0000
0000
0000
,
0000
0000
0000
1000
0002
0000
0020
0033
,
2200
3300
1000
0100
0010
0002
0003
0001
,
0010
0000
0100
0000
0010
0000
0100
0000
1000
0000
0002
0003
0000
1000
1000
1000
,
0000
0000
2000
3000
0001
0000
0010
0000
0100
0000
2000
0000
3000
0000
1000
0000
,
0010
0000
0100
0000
0001
0000
0010
0000
0022
0033
0220
0330
2200
0000
3300
0000
,
0000
0000
0000
0000
1001
0000
0000
0000
0010
0000
0000
1000
0000
0001
0000
0000
,
0100
0000
0001
0000
0000
0000
0000
0000
0010
0000
0000
0001
0000
1000
0000
0000
,
0100
0000
0110
0000
2002
3003
0000
0000
0010
0000
0000
1000
0000
0001
0000
0000
,
0100
0001
0000
0100
0020
0030
0100
0100
,
0020
0030
0000
0000
1001
0000
0000
0000
0100
0000
0000
0001
0000
1000
0000
0000
,
0010
0000
1000
0000
0000
0000
0000
0000
1001
0000
0000
1001
0000
0010
0000
0000
,
0100
0000
0110
0000
2002
3003
0000
0000
0100
0000
0000
0001
0000
1000
0000
0000
,
0010
1000
0000
0100
0020
0030
0100
0100
,
0020
0030
0000
0000
0100
0000
0000
0001
0000
0000
0010
0000
0100
0000
1000
0000
,
0100
0000
1000
0000
0100
0000
0000
1000
0000
0000
0010
0000
0100
0000
0001
0000
,
0220
0330
0000
0000
0100
0000
0000
0001
0000
0000
0010
0000
0100
0000
1000
0000
,
0100
1000
0000
0100
0020
0030
0100
0100
,
0020
0000
0030
0000
0100
0000
0000
1000
0000
0000
0010
0000
0100
0000
0001
0000
,
0100
0000
0001
0000
0100
0000
0000
0001
0000
0000
0010
0000
0100
0000
1000
0000
,
0220
0330
0000
0000
0100
0000
0000
1000
0000
0000
0010
0000
0100
0000
0001
0000
,
0100
0001
0000
0100
0020
0030
0100
0100
,
0020
0030
0000
0000
;

//--------------- dance-single - Ettenra ----------------
#NOTEDATA:;
#STEPSTYPE:dance-single;
#DESCRIPTION:Ettenra;
#DIFFICULTY:Hard;
#METER:8;
#RADARVALUES:0,0,0,0,0;
#NOTES:
0000
0000
0000
0000
,
0000
0000
0000
0000
,
0000
0000
0000
0000
0000
0000
0000
2000
3000
2000
3000
0000
0200
0300
0200
0300
,
0000
0000
0000
0010
0001
0010
0000
0002
0003
0002
0003
0000
0200
0300
0200
0300
,
0000
0000
0000
0010
1000
0010
0000
2000
3000
2000
3000
0000
0200
0300
0200
0000
,
0000
0300
0000
0000
0000
1000
0001
1000
0002
0000
0000
0000
0020
0000
0033
0000
,
2200
0000
0000
0000
3300
0000
0000
0001
0000
1000
0000
0000
0010
0000
0100
0000
,
0110
0000
1001
0000
0110
0000
0000
1000
0000
0001
0000
0000
0100
0000
0010
0000
,
0000
0000
0000
0000
0100
0000
0000
0002
0003
2000
3000
0000
0002
0003
2000
3000
,
0000
0000
0000
0000
0000
1000
0100
0010
0002
0000
0000
0000
0020
0000
0033
0000
,
2200
0000
3300
0000
1000
0100
0001
0100
0010
0100
2000
0000
3000
0000
0001
0100
,
0010
1000
1000
0001
0001
0010
0010
0100
0100
2000
0002
3003
0000
1001
1001
1001
,
0000
0000
2000
3000
0001
0100
1000
0100
0010
0100
0020
0000
0030
0000
1000
0100
,
0010
0001
0001
1000
1000
0100
0100
0010
0022
0033
0220
0330
2200
3300
0000
0000
,
2002
3003
0000
0000
0010
0000
0000
1000
0000
1001
0000
0000
0001
0000
0101
0000
,
0000
0000
0000
0000
0010
0000
0000
0001
0000
1001
0000
0000
0100
0000
0110
0000
,
2002
3003
0000
0000
0010
0000
0000
1000
0000
1001
0000
0000
0001
0000
0101
0000
,
0000
0000
0100
0000
0020
0000
0030
0000
0100
0000
0100
0000
0020
0030
0000
0000
,
2002
3003
0000
0000
0100
0000
0000
0001
0000
1001
0000
0000
0010
0000
1010
0000
,
0000
0000
0000
0000
2002
0000
3003
1001
0000
0010
0000
0000
0100
0000
0110
0000
,
2002
3003
0000
0000
0100
0000
0000
0001
0000
1001
0000
0000
0010
0000
1010
0000
,
0000
0000
0100
0000
0020
0000
0030
0000
0100
0000
0100
0000
0020
0030
0000
0000
,
1010
0000
0000
0110
0000
0000
0101
0000
1010
0000
0101
0000
1010
0000
0101
0000
,
0011
0000
0000
0110
0000
0000
1100
0000
0011
0000
1100
0000
0220
0330
0000
0000
,
1010
0000
0000
0110
0000
0000
0101
0000
1010
0000
0101
0000
1010
0000
0101
0000
,
0000
0100
0020
0030
0100
0100
0020
0000
,
0030
0000
0000
0000
0000
0000
0000
2000
3000
2000
3000
0000
0200
0300
0200
0300
,
0000
0000
0020
0030
0020
0030
0000
0002
0003
0002
0003
0000
1000
0100
1000
0000
,
0000
0000
0000
0010
1000
0010
0000
2000
3000
2000
3000
0000
0200
0300
0200
0300
,
0000
0000
0000
0000
0000
2000
0000
0000
3002
0000
0000
0000
0020
0000
0033
0000
,
2200
0000
0000
0000
3300
0000
0000
0001
0000
1000
0000
0000
0010
0000
0100
0000
,
0110
0000
1001
0000
0110
0000
0000
1000
0000
0001
0000
0000
0100
0000
0010
0000
,
0000
0000
0000
0000
0010
0000
0000
0002
0003
2000
3000
0000
0001
0000
1000
0000
,
0000
0000
0000
0000
0000
1000
0100
0010
0002
0000
0000
0000
0020
0000
0033
0000
,
2200
0000
3300
0000
1000
0100
0001
0100
0010
0100
2000
0000
3000
0000
0001
0100
,
0010
1000
1000
0001
0001
0010
0010
0100
0100
2000
0002
3003
0000
1001
1001
1001
,
0000
0000
2000
3000
0001
0100
1000
0100
0010
0100
0002
0000
0003
0000
1000
0100
,
0010
0001
0001
1000
1000
0100
0100
0010
0022
0033
0220
0330
2200
0000
3300
0000
,
0000
0000
0000
0000
2002
3003
0000
0000
0010
0000
0000
1000
0000
1001
0000
0000
,
0100
0000
0101
0000
0000
0000
0000
0000
0010
0000
0000
0001
0000
1001
0000
0000
,
0100
0000
0110
0000
2002
3003
0000
0000
0010
0000
0000
1000
0000
1001
0000
0000
,
0100
0101
0000
0100
0020
0030
0100
0100
,
0020
0030
0000
0000
2002
3003
0000
0000
0100
0000
0000
0001
0000
1001
0000
0000
,
0010
0000
1010
0000
0000
0000
0000
0000
2002
0000
3003
1001
0000
0010
0000
0000
,
0100
0000
0110
0000
2002
3003
0000
0000
0100
0000
0000
0001
0000
1001
0000
0000
,
0010
1010
0000
0100
0020
0030
0100
0100
,
0020
0030
0000
0000
1010
0000
0000
0110
0000
0000
0101
0000
1010
0000
0101
0000
,
1010
0000
0101
0000
0011
0000
0000
0110
0000
0000
1100
0000
0011
0000
1100
0000
,
0220
0330
0000
0000
1010
0000
0000
0110
0000
0000
0101
0000
1010
0000
0101
0000
,
1010
0101
0000
0100
0020
0030
0100
0100
,
0020
0000
0030
0000
0011
0000
0000
0110
0000
0000
1100
0000
0011
0000
1100
0000
,
0011
0000
1100
0000
1010
0000
0000
0110
0000
0000
0101
0000
1010
0000
0101
0000
,
0220
0330
0000
0000
0011
0000
0000
0110
0000
0000
1100
0000
0011
0000
1100
0000
,
0011
1100
0000
0100
0020
0030
0100
0100
,
0020
0030
0000
0000
;

//--------------- dance-single - Ettenra ----------------
#NOTEDATA:;
#STEPSTYPE:dance-single;
#DESCRIPTION:Ettenra;
#DIFFICULTY:Challenge;
#METER:9;
#RADARVALUES:0,0,0,0,0;
#NOTES:
0000
0000
0000
0000
,
0000
0000
0000
0000
,
1000
0000
0010
1000
0000
0100
0000
2000
3000
2000
3000
0001
0200
0300
0200
0300
,
0001
0000
0010
0001
0010
0001
0000
0002
0003
0002
0003
1000
0200
0300
0200
0300
,
1000
0000
0010
1000
0010
1000
0000
2000
3000
2000
3000
0001
0200
0300
0200
0300
,
0001
0000
0010
0001
0000
1000
0001
1000
0002
0000
0000
0000
0020
0000
0033
0000
,
2200
0000
0000
0000
3300
0000
1000
0100
0000
0010
0000
0001
0100
0000
0010
0000
,
0110
0000
1001
0000
0110
0000
0000
1000
0000
0001
0000
1000
0100
0000
1000
0000
,
0010
0000
0010
1000
0010
0100
0000
0002
0003
2000
3000
1000
0001
0000
1000
0000
,
0001
0000
0010
0001
0000
1000
0100
0010
0002
0000
0000
0000
0020
0000
0033
0000
,
2200
0000
3300
0000
1000
0100
0001
0100
0010
0100
2000
0000
3000
0000
0001
0100
,
0010
1000
1000
0001
0001
0010
0010
0100
0100
2000
0002
3003
0000
1001
1001
1001
,
0000
0000
2000
3000
0001
0100
1000
0100
0010
0100
0002
0000
0003
0000
1000
0100
,
0010
0001
0001
1000
1000
0100
0100
0010
0022
0033
0220
0330
2200
3300
0000
0000
,
2002
3003
0000
0000
0010
0001
0000
1000
0000
1001
0000
0001
0100
0000
0101
0000
,
0001
0000
0000
0000
0010
1000
0000
0001
0000
1001
0000
1000
0100
0000
0110
0000
,
2002
3003
0000
0000
0010
0001
0000
1000
0000
1001
0000
0001
0100
0000
0101
0000
,
0000
0000
0100
0001
0020
0000
0030
0000
0100
1000
0100
1000
0020
0030
0000
0000
,
2002
3003
0000
0000
0100
1000
0000
0001
0000
1001
0000
1000
0010
0000
1010
0000
,
1000
0000
0000
0000
2002
0000
3003
1001
0000
0010
0000
0001
0100
0000
0110
0000
,
2002
3003
0000
0000
0100
1000
0000
0001
0000
1001
0000
1000
0010
0000
1010
0000
,
0000
0000
0100
0001
0020
0000
0030
0000
0100
1000
0100
1000
0020
0030
0000
0000
,
1010
0000
0000
0110
0000
0000
0101
0000
1010
0000
0101
0000
1010
0000
0101
0000
,
0011
0000
0000
0110
0000
0000
1100
0000
0011
0000
1100
0000
0220
0330
0000
0000
,
1010
0000
0000
0110
0000
0000
0101
0000
1010
0000
0101
0000
1010
0000
0101
0000
,
0000
0000
0100
0001
0020
0000
0030
0000
0100
1000
0100
1000
0020
0000
0000
0000
,
0030
0000
0000
0000
0000
0000
0010
2000
3000
2000
3000
0001
0200
0300
0200
0300
,
0001
0000
0010
0000
0010
0001
0000
0002
0003
0002
0003
1000
0100
1000
0200
0300
,
1000
0000
0010
1000
0010
1000
0000
2000
3000
2000
3000
0001
0200
0300
0200
0300
,
0001
0000
0010
0001
0000
1000
0001
1000
0002
0000
0000
0000
0020
0000
0033
0000
,
2200
0000
0000
0000
3300
0000
1000
0100
0000
0010
0000
0001
0100
0000
0010
0000
,
0110
0000
1001
0000
0110
0000
0000
1000
0000
0001
0000
1000
0100
0000
1000
0000
,
0010
0000
0010
1000
0010
0100
0000
0002
0003
2000
3000
1000
0001
0000
1000
0000
,
0001
0000
0010
0001
0000
1000
0100
0010
0002
0000
0000
0000
0020
0000
0033
0000
,
2200
0000
3300
0000
1000
0100
0001
0100
0010
0100
2000
0000
3000
0000
0001
0100
,
0010
1000
1000
0001
0001
0010
0010
0100
0100
2000
0002
3003
0000
1001
1001
1001
,
0000
0000
2000
3000
0001
0100
1000
0100
0010
0100
0002
0000
0003
0000
1000
0100
,
0010
0001
0001
1000
1000
0100
0100
0010
0022
0033
0220
0330
2200
0000
3300
0000
,
0000
0000
0000
0000
2002
3003
0000
0000
0010
0001
0000
1000
0000
1001
0000
0001
,
0100
0000
0101
0000
0001
0000
0000
0000
0010
1000
0000
0001
0000
1001
0000
1000
,
0100
0000
0110
0000
2002
3003
0000
0000
0010
0001
0000
1000
0000
1001
0000
0001
,
0100
0000
0101
0000
0000
0000
0100
0001
0020
0000
0030
0000
0100
1000
0100
1000
,
0020
0030
0000
0000
2002
3003
0000
0000
0100
1000
0000
0001
0000
1001
0000
1000
,
0010
0000
1010
0000
1000
0000
0000
0000
2002
0000
3003
1001
0000
0010
0000
0001
,
0100
0000
0110
0000
2002
3003
0000
0000
0100
1000
0000
0001
0000
1001
0000
1000
,
0010
0000
1010
0000
0000
0000
0100
0001
0020
0000
0030
0000
0100
1000
0100
1000
,
0020
0030
0000
0000
1010
0000
0000
0110
0000
0000
0101
0000
1010
0000
0101
0000
,
1010
0000
0101
0000
0011
0000
0000
0110
0000
0000
1100
0000
0011
0000
1100
0000
,
0220
0330
0000
0000
1010
0000
0000
0110
0000
0000
0101
0000
1010
0000
0101
0000
,
1010
0000
0101
0000
0000
0000
0001
1000
0020
0000
0030
0000
0100
0001
0100
0001
,
0020
0000
0030
0000
0011
0000
0000
0110
0000
0000
1100
0000
0011
0000
1100
0000
,
0011
0000
1100
0000
1010
0000
0000
0110
0000
0000
0101
0000
1010
0000
0101
0000
,
0220
0330
0000
0000
0011
0000
0000
0110
0000
0000
1100
0000
0011
0000
1100
0000
,
0011
0000
1100
0000
0000
0000
0100
1000
0020
0000
0030
0000
0100
0001
0100
0001
,
0020
0030
0000
0000
;
