#VERSION:0.83;
#TITLE:Mizutsune;
#SUBTITLE:- Monster Hunter;
#ARTIST:Capcom Sound Team;
#TITLETRANSLIT:;
#SUBTITLETRANSLIT:;
#ARTISTTRANSLIT:;
#GENRE:;
#CREDIT:;
#MUSIC:Mizutsune.ogg;
#BANNER:Mizutsune.png;
#BACKGROUND:Background.png;
#CDTITLE:;
#SAMPLESTART:0.000;
#SAMPLELENGTH:0.000;
#SELECTABLE:YES;
#OFFSET:-0.211;
#BPMS:0.000=139.989;
#STOPS:;
#BGCHANGES:0.000=Mizutsune.mp4=1.000=0=0=1,
99999.000=-nosongbg-=1.000=0=0=0=StretchNoLoop====
;
#FGCHANGES:;

//--------------- dance-single - Ettenra ----------------
#NOTEDATA:;
#STEPSTYPE:dance-single;
#DESCRIPTION:Ettenra;
#DIFFICULTY:Easy;
#METER:4;
#RADARVALUES:0,0,0,0,0;
#NOTES:
0000
0000
0000
0000
,
0000
0000
0000
1000
,
0000
0002
0000
0000
,
1000
1000
0000
0000
,
0100
0103
0000
0000
,
0010
0010
0000
0001
,
0010
2000
0000
0000
,
0000
3000
0000
0000
0200
0000
0000
0000
0000
0000
0000
0000
0000
0000
0000
0000
,
0000
0300
0000
0000
0020
0000
0000
0000
0000
0000
0000
0000
0000
0000
0000
0000
,
0000
0030
0000
0000
0002
0000
0000
0000
0000
0000
0000
0000
0100
0003
0000
0000
,
0010
0000
0000
0000
2000
0000
0000
0000
0000
0000
0000
0000
0000
0000
0000
3000
,
0000
1100
0000
0011
,
0000
0101
0000
1100
,
0000
0011
0000
0101
,
0000
0000
1000
0001
,
1000
0100
0000
0011
,
0000
0101
0000
1100
,
0000
0011
0000
0101
,
0000
0000
2002
0000
0000
3003
0002
0000
,
0020
0003
0000
0000
0002
0000
0000
0000
0000
0000
0000
0030
0000
0000
0000
0000
,
0000
0000
0000
0000
0000
0000
0000
0000
0000
0000
0000
0000
0000
0000
0000
0000
0000
0000
0000
0000
0000
0000
0000
0003
2000
0000
0000
0000
0000
0000
0000
0000
0000
0000
0000
0000
0000
0000
0000
0000
0000
0000
0000
0000
0000
0000
0000
0000
0000
0000
0000
0000
0000
0000
0000
0000
0000
0000
0000
0000
0000
0000
0000
0000
0000
0000
0000
0000
0000
0000
0000
0000
0000
0000
0000
0000
0000
0000
0000
0000
0000
0000
0000
0000
0000
0000
0000
0000
0000
0000
3000
0000
0000
0000
0000
0000
,
0000
0002
0000
0000
,
0000
0003
0200
0000
0000
0000
1000
0000
,
1000
2000
0000
0000
,
0000
3300
0000
0000
0022
0000
0000
0000
0000
0000
0033
0000
0000
0000
0000
0000
,
0020
0000
0000
0000
,
0030
0000
0200
0000
0000
0000
0020
0300
,
0000
0030
0000
0001
,
0000
1000
0000
0010
,
0120
0030
0000
0000
,
0000
1100
0001
0100
,
0001
0002
0000
0000
,
0003
0200
0000
0000
,
0300
0000
0002
0000
0000
0000
0000
0003
,
0000
0010
0100
0010
,
0000
0000
0002
0000
0000
0000
0000
0003
,
2000
3000
0002
0000
0000
0000
0000
0000
,
0003
0000
0100
0001
,
0100
0001
0100
0010
,
0000
0100
1000
0001
,
0100
0000
1000
0001
,
1000
0000
0010
0100
,
1000
1100
1100
0011
,
0011
1001
1000
0010
,
0010
0000
1000
1000
,
0001
0110
0100
0010
,
0010
0000
0100
0010
,
0100
2000
0000
0000
,
3100
0002
0000
0000
,
0103
0020
0000
0000
,
0031
1010
1010
0101
,
0010
0020
0000
0000
,
0100
0000
0000
0030
0000
0000
0001
0000
,
1000
0020
0000
0000
,
1030
0000
0100
0001
,
1000
0010
1000
0100
,
1000
0000
0001
0010
,
0001
0000
0001
0100
,
0001
0101
1100
1010
,
0011
1001
0000
1000
,
0000
0001
0020
0030
,
0100
1000
0100
0010
,
0001
0100
0000
0000
;

//--------------- dance-single - ----------------
#NOTEDATA:;
#STEPSTYPE:dance-single;
#DESCRIPTION:;
#DIFFICULTY:Medium;
#METER:7;
#RADARVALUES:0,0,0,0,0;
#NOTES:
0000
0000
0000
0000
,
0000
0000
0000
1000
,
0000
0000
0002
0000
0000
1000
0000
0000
,
1000
0000
1000
0000
0000
0100
0000
0000
,
0100
0000
0103
0000
0000
0010
0000
0000
,
0010
0000
0010
0000
0000
0001
0001
0010
,
0010
0100
2000
0000
0000
0001
0000
0000
,
0001
3000
0000
0000
0200
0000
0000
0000
0000
0000
0010
0000
0000
0000
0000
0000
,
0010
0300
0000
0000
0020
0000
0000
0000
0000
0000
1000
0000
0000
0000
0000
0000
,
1000
0030
0000
0000
0002
0000
0000
0000
0000
0000
0000
0000
0100
0003
0100
0000
,
0010
0000
0001
0000
2000
0000
0000
0000
0000
0000
0000
0000
0000
0000
0000
3000
,
0000
0000
1100
0000
0000
0001
0011
0000
,
0000
0100
0101
0000
0000
1000
1100
0000
,
0000
0010
0011
0000
0000
0100
0101
0000
,
0000
0000
0000
1000
0100
0001
0100
1000
,
0100
0001
0100
0000
0000
0001
0011
0000
,
0000
0100
0101
0000
0000
1000
1100
0000
,
0000
0010
0011
0000
0000
0100
0101
0000
,
0000
1000
2002
0000
0000
3003
0002
0000
,
0020
0003
0000
0000
0002
0000
0000
0000
0000
0000
0000
0030
0000
0000
0000
0000
,
0000
0000
0000
0000
0000
0000
0000
0000
0000
0000
0000
0000
0000
0000
0000
0000
0000
0000
0000
0000
0000
0000
0000
0003
2000
0000
0000
0000
0000
0000
0000
0000
0000
0000
0000
0000
0000
0000
0000
0000
0000
0000
0000
0000
0000
0000
0000
0000
0000
0000
0000
0000
0000
0000
0000
0000
0000
0000
0000
0000
0000
0000
0000
0000
0000
0000
0000
0000
0000
0000
0000
0000
0000
0000
0000
0000
0000
0000
0000
0000
0000
0000
0000
0000
0000
0000
0000
0000
0000
0000
3000
0000
0000
0000
0000
0000
,
0000
0002
0000
0000
,
0000
0003
0200
0000
0000
0000
1000
0000
,
0010
2000
0000
0000
,
0000
3300
0000
0000
0022
0000
0000
0000
0000
0000
0033
0000
0000
0000
0000
0000
,
0020
0000
0000
0000
,
0030
0000
0200
0000
0000
0000
0020
0300
,
0000
0000
0030
0000
0000
0100
0001
0000
,
0000
0010
1000
0000
0000
0100
0010
0000
,
0120
0000
0030
0000
0000
0100
0001
0000
,
0000
0000
1100
0010
0001
1000
0100
0010
,
0001
0010
0002
0000
0000
0000
0000
0000
,
0003
0200
0000
0000
,
0300
0000
0002
0000
0000
0000
0000
0003
,
0000
0000
0010
0100
0010
0100
0010
0100
,
0000
0000
0002
0000
0000
0000
0000
0003
,
2000
0000
3000
0000
0002
0000
0000
0000
0000
0000
0000
0000
0003
0000
0200
0300
,
0002
0003
0000
0000
0000
0000
1000
0000
0100
0000
0010
0000
0001
0000
0010
0000
,
0100
1000
0001
0100
0100
0010
0010
0000
,
0000
0010
0100
0010
1000
0010
0001
0010
,
0100
0010
0000
0010
0100
1000
0100
0001
,
0100
1000
0000
0001
0010
0001
0100
0001
,
1000
0100
1100
0000
1100
0000
0011
0000
,
0011
0000
1001
0100
1000
0100
0010
0001
,
0010
0001
0000
0100
1000
0100
1000
0001
,
0001
0000
0110
0001
0100
0001
0010
1000
,
0010
1000
0000
0100
0100
0100
0010
0010
,
0100
0000
2000
0000
0000
0010
0000
0000
,
3100
0000
0002
0000
0000
0010
0000
0000
,
0103
0000
0020
0000
0000
0001
0000
0000
,
0031
1010
1010
0101
,
0010
0000
0020
0000
0000
1000
0000
0000
,
0100
0000
0000
1030
0000
0100
0001
0001
,
1000
1000
0020
0000
0000
0100
0000
0000
,
1030
0000
0000
0001
0100
1000
0001
1000
,
1000
0000
0010
1000
0010
0100
0010
1000
,
0010
0001
0000
0100
0010
1000
0010
0100
,
1000
0100
0001
0100
1000
0100
0001
0010
,
0001
0100
0101
0000
1100
0000
1010
0000
,
0011
0000
1001
0000
0000
0001
1000
0000
,
0000
1000
0001
0000
0020
0000
0030
1000
,
0100
0010
0001
0010
0100
1000
0010
0100
,
0001
0010
0100
0000
0000
0000
0000
0000
;

//--------------- dance-single - Ettenra ----------------
#NOTEDATA:;
#STEPSTYPE:dance-single;
#DESCRIPTION:Ettenra;
#DIFFICULTY:Hard;
#METER:8;
#RADARVALUES:0,0,0,0,0;
#NOTES:
0000
0000
0000
0000
,
0000
0000
0000
1000
,
0000
0000
0010
0002
0000
1000
0000
0000
,
1000
0000
1000
0000
0000
0100
0000
0000
,
0100
0000
0103
0000
0000
0010
0000
0000
,
0010
0000
0010
0000
0000
0001
0001
0010
,
0010
0100
2000
0000
0000
0001
0000
0000
,
0001
3000
0200
0000
0000
0010
0000
0000
,
0010
0300
0000
0000
0020
0000
0000
0000
0000
0000
1000
0000
0000
0000
0000
0000
,
1000
0030
0000
0000
0002
0000
0000
0000
0000
0000
0000
0000
0100
0003
0100
0000
,
0010
0000
0001
0000
2000
0000
0000
0000
0000
0000
0000
0000
0000
0000
0000
3000
,
0000
0000
0000
0000
1100
0000
0000
0010
0000
0000
0001
0000
0011
0000
0000
0001
,
0000
0000
0100
0000
0101
0000
0000
0100
0000
0000
1000
0000
1100
0000
0000
0001
,
0000
0000
0010
0000
0011
0000
0000
0001
0000
0000
0100
0000
0101
0000
0000
0100
,
0000
1000
0000
1000
0100
0001
0100
1000
,
0100
0000
0001
0000
0101
0000
0000
0010
0000
0000
0001
0000
0011
0000
0000
0001
,
0000
0000
0100
0000
0101
0000
0000
0100
0000
0000
1000
0000
1100
0000
0000
0001
,
0000
0000
0010
0000
0011
0000
0000
0001
0000
0000
0100
0000
0101
0000
0000
0001
,
0000
1000
2002
0000
0000
3003
0002
0000
,
0020
0003
0000
0000
0002
0000
0000
0000
0000
0000
0000
0030
0000
0000
0000
0000
,
0000
0000
0000
0000
0000
0000
0000
0000
0000
0000
0000
0000
0000
0000
0000
0000
0000
0000
0000
0000
0000
0000
0000
0003
2000
0000
0000
0000
0000
0000
0000
0000
0000
0000
0000
0000
0000
0000
0000
0000
0000
0000
0000
0000
0000
0000
0000
0000
0000
0000
0000
0000
0000
0000
0000
0000
0000
0000
0000
0000
0000
0000
0000
0000
0000
0000
0000
0000
0000
0000
0000
0000
0000
0000
0000
0000
0000
0000
0000
0000
0000
0000
0000
0000
0000
0000
0000
0000
0000
0000
3000
0000
0000
0000
0000
0000
,
0000
0000
0000
0000
0010
0100
0002
0000
0000
0000
0000
0000
0000
0000
0000
0000
,
0000
0003
0000
0000
0200
0000
0000
0000
0000
0000
0000
0000
1000
0000
0000
0000
,
0010
2000
0000
0000
,
0000
3300
0000
0000
0022
0000
0000
0000
0000
0000
0033
0000
0000
0000
0000
0000
,
1000
0000
0100
0000
0020
0000
0000
0000
0000
0000
0000
0000
0000
0000
0000
0030
,
0000
0000
0200
0000
0000
0000
0020
0300
,
0000
0000
0000
0000
0031
0000
0000
0001
0000
0000
0100
0000
0001
0000
0000
0001
,
0000
0000
0010
0000
1000
0000
0000
1000
0000
0000
0100
0000
0010
0000
0000
0000
,
0120
0000
0000
0000
0031
0000
0000
0001
0000
0000
0100
0000
0001
0000
0000
0001
,
0000
0010
0110
0010
0001
1000
0100
0010
,
0001
0002
0000
0000
,
0003
0000
1000
0200
0000
0000
0000
0000
,
0300
0001
0200
0000
0000
0000
0000
0000
,
0000
0300
0010
0100
0010
0100
0010
0100
,
2000
3000
0002
0000
0000
0000
0000
0003
,
2000
0000
3000
0000
0002
0000
0000
0000
0000
0000
0000
0000
0003
0000
0200
0300
,
0002
0003
0000
0000
1001
0000
1000
0000
0100
0000
0010
0000
0001
0000
0010
0000
,
0100
1000
0001
0100
0100
0010
0010
0001
,
1000
0010
0100
0010
1000
0010
0001
0010
,
0100
0010
0000
0010
0100
1000
0100
0001
,
0100
1000
0100
0001
0010
0001
0100
0001
,
1000
0100
1100
0000
1100
0000
0011
0000
,
0011
0000
1001
0100
1000
1100
0010
0001
,
0011
0010
0000
0010
1000
0100
1000
0001
,
0001
0010
0110
0001
0100
0101
0010
1000
,
1010
0010
0000
0100
0100
0100
0010
0010
,
0100
0000
2000
0000
0000
0010
0000
0000
,
3100
0000
0002
0000
0000
0010
0000
0000
,
0103
0000
0020
0000
0000
0001
0000
0000
,
1030
1010
1010
0101
,
0010
0000
0020
0000
0000
1000
0000
0000
,
0001
0000
0000
1030
0000
0100
0001
0001
,
1000
1000
0020
0000
0000
0100
0000
0000
,
0031
0000
0000
0001
0100
1000
0001
0010
,
0010
0000
1010
1000
0010
0100
0010
1000
,
0010
0001
0000
0100
0010
1000
0010
0100
,
1000
0100
0001
0100
1000
0100
0001
0010
,
0001
0100
0101
0000
1100
0000
1010
0000
,
0011
0000
1001
0000
0000
0101
1100
0000
,
0000
1100
0101
0000
0020
0000
0030
1000
,
0100
0010
0001
0010
0100
1000
0010
0100
,
0001
0010
0100
0000
0000
0000
0000
0000
;

//--------------- dance-single - Ettenra ----------------
#NOTEDATA:;
#STEPSTYPE:dance-single;
#DESCRIPTION:Ettenra;
#DIFFICULTY:Challenge;
#METER:9;
#RADARVALUES:0,0,0,0,0;
#NOTES:
0000
0000
0000
0000
,
0000
0000
0000
1000
,
0000
0000
0000
0000
0001
0010
0002
0000
0000
0000
1000
0000
0000
0000
0000
0000
,
1000
0000
1000
0000
0000
0100
0000
0000
,
0100
0000
0103
0000
0000
0010
0000
0000
,
0010
0000
0010
0000
0000
0001
0001
0010
,
0010
0100
2000
0000
0000
0001
0000
0000
,
0001
3000
0200
0000
0000
0010
0000
0000
,
0010
0300
0000
0000
0020
0000
0000
0000
0000
0000
1000
0000
0000
0000
0000
0000
,
1000
0030
0000
0000
0002
0000
0000
0000
0000
0000
0000
0000
0100
0003
0100
0000
,
0010
0000
0001
0000
2000
0000
0000
0000
0000
0000
0000
0000
0000
0000
0000
3000
,
0001
0010
0100
1000
1100
0000
0000
0010
0000
0000
0001
0000
0011
0000
0000
0001
,
0000
0000
0100
0000
0101
0000
0000
0100
0000
0000
1000
0000
1100
0000
0000
0001
,
0000
0000
0010
0000
0011
0000
0000
0001
0000
0000
0100
0000
0101
0000
0000
0100
,
0000
1000
0000
1000
0100
0001
0100
1000
,
0100
0000
0001
0000
0101
0000
0000
0010
0000
0000
0001
0000
0011
0000
0000
0001
,
0000
0000
0100
0000
0101
0000
0000
0100
0000
0000
1000
0000
1100
0000
0000
0001
,
0000
0000
0010
0000
0011
0000
0000
0001
0000
0000
0100
0000
0101
0000
0000
0001
,
0000
1000
2002
0000
0000
3003
0002
0000
,
0020
0003
0000
0000
0002
0000
0000
0000
0000
0000
0000
0030
0000
0000
0000
0000
,
0000
0000
0000
0000
0000
0000
0000
0000
0000
0000
0000
0000
0000
0000
0000
0000
0000
0000
0000
0000
0000
0000
0000
0003
2000
0000
0000
0000
0000
0000
0000
0000
0000
0000
0000
0000
0000
0000
0000
0000
0000
0000
0000
0000
0000
0000
0000
0000
0000
0000
0000
0000
0000
0000
0000
0000
0000
0000
0000
0000
0000
0000
0000
0000
0000
0000
0000
0000
0000
0000
0000
0000
0000
0000
0000
0000
0000
0000
0000
0000
0000
0000
0000
0000
0000
0000
0000
0000
0000
0000
3000
0000
0000
0000
0000
0000
,
0000
0000
0000
0000
0010
0100
0002
0000
0000
0000
0000
0000
0000
0000
0000
0000
,
0000
0003
0000
0000
0200
0000
0000
0000
0000
0000
0000
0000
1000
0000
0000
0000
,
0010
2000
0000
0000
,
0000
3300
0000
0000
0022
0000
0000
0000
0000
0000
0033
0000
0000
0000
0000
0000
,
1000
0100
0010
0001
0020
0000
0000
0000
0000
0000
0000
0000
0000
0000
0000
0030
,
0000
0000
0200
0000
0000
0000
0020
0300
,
0000
0000
0000
0000
0031
0000
0000
0001
0000
0000
0100
0000
0001
0000
0000
0001
,
0000
0000
0010
0000
1000
0000
0000
1000
0000
0000
0100
0000
0010
0000
0000
0000
,
0120
0000
0000
0000
0031
0000
0000
0001
0000
0000
0100
0000
0001
0000
0000
0001
,
0000
0010
0110
0010
0001
1000
0100
0010
,
0001
1000
0010
0100
0002
0000
0000
0000
0000
0000
0000
0000
0000
0000
0000
0000
,
0003
0000
0000
1000
0100
1000
0200
0000
0000
0000
0000
0000
0000
0000
0000
0000
,
0300
1000
0001
0010
0200
0000
0000
0000
0000
0000
0000
0000
0000
0000
0000
0000
,
0000
0000
0300
0000
0010
0100
0010
0100
0010
0100
0010
0100
0010
0100
0010
0000
,
2000
3000
0002
0000
0000
0000
0000
0003
,
2000
0000
3000
0000
0002
0000
0000
0000
0000
0000
0000
0000
0003
0000
0200
0300
,
0002
0003
0000
0000
1001
0000
1000
0000
0100
0000
0010
0000
0001
0000
0010
0000
,
0100
1000
0001
0100
0100
0010
0010
0001
,
1000
0010
0100
0010
1000
0010
0001
0010
,
0100
0010
0000
0010
0100
1000
0100
0001
,
0100
1000
0100
0001
0010
0001
0100
0001
,
1000
0100
1100
0000
1100
0000
0011
0000
,
0011
0000
1001
0100
1000
1100
0010
0001
,
0011
0010
0000
0010
1000
0100
1000
0001
,
0001
0010
0110
0001
0100
0101
0010
1000
,
1010
0010
0000
0100
0100
0100
0010
0010
,
0100
0000
2000
0000
0000
0010
0000
0000
,
3100
0000
0002
0000
0000
0010
0000
0000
,
0103
0000
0020
0000
0000
0001
0000
0000
,
1030
1010
1010
0101
,
0010
0000
0020
0000
0000
1000
0000
0000
,
0001
0000
0000
1030
0000
0100
0001
0001
,
1000
1000
0020
0000
0000
0100
0000
0000
,
0031
0000
0000
0001
0100
1000
0001
0010
,
0010
0000
1010
1000
0010
0100
0010
1000
,
0010
0001
0000
0100
0010
1000
0010
0100
,
1000
0100
0001
0100
1000
0100
0001
0010
,
0001
0100
0101
0000
1100
0000
1010
0000
,
0011
0000
0000
0000
1001
0000
0000
0100
0000
0000
0101
0000
1100
0000
0000
0100
,
0000
1100
0101
0000
0020
0000
0030
1000
,
0100
0010
0001
0010
0100
1000
0010
0100
,
0001
0010
0100
0000
0000
0000
0000
0000
;
