#VERSION:0.83;
#TITLE:La Vie en Rose;
#SUBTITLE:;
#ARTIST:IZ*ONE;
#TITLETRANSLIT:;
#SUBTITLETRANSLIT:;
#ARTISTTRANSLIT:;
#GENRE:;
#CREDIT:;
#MUSIC:La Vie en Rose.ogg;
#BANNER:Banner.png;
#BACKGROUND:Background.png;
#CDTITLE:;
#SAMPLESTART:60.036;
#SAMPLELENGTH:18.621;
#SELECTABLE:YES;
#OFFSET:-0.036;
#BPMS:0.000=116.000;
#STOPS:;
#SPEEDS:0.000=1.000=0.000=0;
#SCROLLS:0.000=1.200;
#TICKCOUNTS:0.000=0;
#BGCHANGES:-0.036=La Vie en Rose.mp4=1.000=0=0=1,
99999.000=-nosongbg-=1.000=0=0=0=StretchNoLoop====
;
#FGCHANGES:;

//--------------- dance-single - Ettenra ----------------
#NOTEDATA:;
#STEPSTYPE:dance-single;
#DESCRIPTION:Ettenra;
#DIFFICULTY:Beginner;
#METER:2;
#RADARVALUES:0,0,0,0,0;
#NOTES:
0000
0000
0000
0000
,
0002
0003
0000
0100
,
0000
0100
0000
1000
,
2000
3000
0000
0010
,
0000
0010
0000
1000
,
0000
0001
0000
0100
,
0100
0100
0000
0010
,
0000
1000
0000
0001
,
0000
1000
0000
0001
,
0000
0010
0000
0100
,
0200
0300
0100
0000
,
1000
0000
0001
0000
,
0110
0000
1000
1000
,
0000
0001
0001
0000
,
0002
0003
0200
0300
,
0001
0001
0000
1000
,
1000
0000
0010
0010
,
0010
0000
0001
0001
,
0000
0010
0000
0100
,
0000
0010
0000
2000
,
3000
0000
0010
0000
,
0100
0100
0000
0010
,
0010
0000
0001
0000
,
0100
0000
0001
0000
,
0010
0010
0000
0001
,
0001
0000
1000
1000
,
0000
0100
0100
0000
,
1000
0000
0100
0000
,
0110
0000
1001
0000
,
0000
0010
0010
0000
,
1000
1000
0000
0010
,
0010
0000
0100
0100
,
0000
0001
0001
0000
,
1000
1000
0000
0001
,
0001
0000
0100
0100
,
0000
0010
0010
0000
,
0001
0001
0000
0100
,
0100
0000
0010
0010
,
0020
0000
0030
0000
,
0200
0000
0300
0000
,
0001
0000
0100
0000
,
1000
0000
0001
0000
,
0010
0000
1000
0000
,
0001
0000
0100
0000
,
0010
0000
1000
0000
,
0100
0000
0001
0000
,
1001
0000
0010
0000
,
0110
0000
0001
0000
,
0100
0000
0001
0000
,
0010
0010
0000
0001
,
0000
1000
0000
0001
,
0000
0200
0300
0000
,
1000
0000
0100
0000
,
0110
0000
1001
0000
,
0001
0000
0100
0000
,
1001
0000
0100
0000
,
0001
0000
0100
0000
,
0001
0000
0100
0000
,
1000
0000
0010
0000
,
1001
0000
0100
0000
,
0001
0000
0100
0000
,
0001
0000
0100
0000
,
1000
0000
0010
0000
,
1000
0000
0001
0000
,
0010
0000
1000
0000
,
0001
0000
1000
0000
,
0010
0000
0010
0000
,
1000
0000
0001
0000
,
1000
0000
0010
0000
,
0100
0000
0001
0000
,
0001
0000
1000
2000
,
3000
0000
0000
0000
;

//--------------- dance-single - Ettenra ----------------
#NOTEDATA:;
#STEPSTYPE:dance-single;
#DESCRIPTION:Ettenra;
#DIFFICULTY:Easy;
#METER:4;
#RADARVALUES:0,0,0,0,0;
#NOTES:
0000
0000
0000
0000
,
0002
0003
0010
0100
,
1000
0100
0010
0001
,
2000
3000
0100
0010
,
0001
0010
0100
2000
,
3000
0002
0003
1000
,
0200
0020
0330
0100
,
1000
0001
0001
0100
,
0001
1000
1000
0100
,
0000
0010
0000
0100
,
2000
3002
0013
0100
,
1000
0001
0001
0010
,
0220
0000
0000
0330
2000
3000
0002
0003
,
1000
1000
0001
0001
,
0002
0003
0020
0030
0200
0300
2000
3000
,
0001
0001
1000
1000
,
2000
3000
1000
0000
0100
0000
0020
0000
,
0130
1000
0001
0020
,
0130
0000
0010
0000
0001
0000
0200
0300
,
0002
0003
0020
0030
0200
0300
2000
3000
,
0001
1000
0001
1000
,
1001
0000
0010
0100
,
0110
0000
0001
0010
,
0100
1000
0001
0010
,
0020
0130
2000
3001
,
0002
0003
1000
0000
1000
0000
0001
0000
,
0001
0000
0100
0000
0220
0330
0000
0000
,
2000
3000
0020
0030
0200
0300
0002
0003
,
0110
0110
1001
1001
,
0001
0010
0100
1000
,
1001
1000
0100
0010
,
0001
0010
0100
1000
,
0001
0001
0100
0100
,
1000
0100
0010
0001
,
1001
1000
0100
0010
,
0001
0010
0100
1000
,
0001
0001
0100
0100
,
1000
0100
0010
1001
,
0002
0000
2003
0000
,
3200
0000
0320
0000
,
0031
0010
0100
1000
,
2000
3000
1000
0010
,
0010
1000
1000
0001
,
0001
0100
0100
0010
,
0010
1000
1000
0100
,
0100
0000
0001
1000
,
1001
0000
0010
0100
,
0110
0000
0001
0010
,
0100
1000
0001
0010
,
0020
0130
2000
3001
,
0002
0003
1000
0000
1000
0000
0001
0000
,
0001
0000
0100
0000
0220
0330
0000
0000
,
2000
3000
0020
0030
0200
0300
0002
0003
,
0110
0110
1001
1001
,
0001
0010
0100
1000
,
1001
1000
0100
0010
,
0001
0010
0100
1000
,
0001
0001
0100
0100
,
1000
0100
0010
0001
,
1001
1000
0100
0010
,
0001
0010
0100
1000
,
0001
0001
0100
0100
,
1000
0100
0010
0001
,
1000
1000
0001
0001
,
0010
0100
1000
0001
,
0001
1000
1000
0100
,
0010
0001
0010
0100
,
1000
0001
0001
1000
,
1000
0010
0010
0100
,
0100
0001
0001
1000
,
0001
0010
0100
2000
,
3000
0000
0000
0000
;

//--------------- dance-single - Ettenra ----------------
#NOTEDATA:;
#STEPSTYPE:dance-single;
#DESCRIPTION:Ettenra;
#DIFFICULTY:Medium;
#METER:5;
#RADARVALUES:0,0,0,0,0;
#NOTES:
0000
0000
0000
0000
,
0220
0030
0300
0002
0000
0000
0000
1000
,
1003
0100
0100
0010
0010
0020
0030
0001
,
2001
0000
3000
0200
0000
0300
0000
1000
,
1000
0100
0100
0020
0030
0020
0032
0103
,
0000
0020
2030
3100
0000
0020
0032
1003
,
0200
0000
0020
0330
0000
0001
0010
0100
,
1000
0000
0000
0002
0000
0000
0000
0000
0000
0000
0000
0000
0013
0000
0100
0000
,
1000
0000
0000
0002
0000
0000
0000
0000
0000
0000
0013
0000
0100
0000
2000
0000
,
3000
0100
0010
0002
0003
0010
0100
1000
,
2000
0000
0000
0000
3002
0000
0000
0000
0023
0000
0000
0030
0010
0000
0100
0000
,
1000
0000
0000
0002
0000
0000
0000
0000
0000
0000
0003
0000
0010
0000
0100
0000
,
0220
0000
0000
0330
2000
3000
0002
0003
,
1000
0010
1000
0000
0001
0100
0001
0000
,
0002
0003
0020
0030
0200
0300
2000
3000
,
0001
0010
0001
0000
1000
0100
1000
0000
,
2000
0000
3000
0000
1000
0000
0000
0000
0100
0000
0010
0000
0002
0000
0000
0003
,
0100
0000
0000
0000
0001
0000
0000
0000
0010
0000
0100
0000
2000
0000
0000
3000
,
0100
0000
0010
1000
0001
0000
0200
0300
,
0002
0003
0020
0030
0200
0300
2000
3000
,
0000
0002
0003
1000
0001
1000
0000
1001
,
0000
1001
0000
0001
1000
0001
0000
1001
,
0000
2002
0000
3003
0000
0001
0010
0100
,
1000
0000
0001
1000
0001
0000
0010
0100
,
0110
0110
1001
1001
,
0002
0003
1000
0100
1000
0000
0001
0010
,
0001
0000
0100
0000
0220
0330
0000
0000
,
2000
3000
0020
0030
0200
0300
0002
0003
,
0110
0110
1001
4004
,
3003
0001
0001
0001
0010
0100
1000
0000
,
1001
0000
0000
0002
0000
1000
0000
0203
,
0300
0010
0010
1000
1000
0001
0001
0020
,
0030
0001
0100
0001
0000
1000
0100
1000
,
0000
1000
1000
1000
0100
0010
0001
0000
,
1001
0000
0000
2000
0000
0001
0000
3020
,
0030
0100
0100
0001
0001
1000
1000
0200
,
0300
1000
0100
1000
0000
0001
0100
0001
,
0000
0001
0001
0001
0010
0100
1000
0000
,
0001
0000
1000
0000
0001
0000
2000
3000
,
0100
0000
0010
0000
0100
0000
0020
0030
,
0001
0010
0100
1000
,
2000
0000
3000
0000
1000
0000
0010
0010
,
0010
0000
1000
1000
1000
0000
0100
0100
,
0100
0000
0001
1000
0001
0000
0010
0010
,
0010
0000
0001
0001
0001
0000
0100
0100
,
0100
0000
0000
0001
0010
0100
1000
2000
,
0000
3100
0000
1000
0100
0010
0001
0002
,
0000
0023
0030
0002
0003
0000
0001
1000
,
0001
0000
0100
0000
0200
0300
0010
0000
,
0110
0110
1001
1001
,
0002
0003
2000
3000
0020
0030
0200
0300
,
0001
0010
0220
0330
,
0002
0003
0020
0030
0200
0300
2000
3000
,
0110
0110
1001
4004
,
3003
0001
0001
0001
0010
0100
1000
0000
,
1001
0000
0000
0002
0000
1000
0000
0203
,
0300
0010
0010
1000
1000
0001
0001
0020
,
0030
0001
0100
0001
0000
1000
0100
1000
,
0000
1000
1000
1000
0100
0010
0001
0000
,
1001
0000
0000
2000
0000
0001
0000
3020
,
0030
0100
0100
0001
0001
1000
1000
0000
,
2000
0000
3000
0002
0000
0000
0003
2000
,
3000
1000
1000
1000
0100
0010
0001
0000
,
1000
0100
1000
0000
0001
0100
0001
0000
,
0010
0000
0100
0000
1000
0000
0001
0010
,
0001
0000
1000
0010
1000
0000
0100
0000
,
0010
0001
0001
0001
0010
0100
1000
0100
,
1000
0000
0001
0100
0001
0000
1000
1000
,
0000
0001
0010
0100
1000
0001
1000
0200
,
0300
1000
0100
1000
0000
0001
0100
0001
,
0000
0001
0001
0001
0010
0100
2000
0000
,
3000
0000
0000
0000
;

//--------------- dance-single - Ettenra ----------------
#NOTEDATA:;
#STEPSTYPE:dance-single;
#DESCRIPTION:Ettenra;
#DIFFICULTY:Hard;
#METER:7;
#RADARVALUES:0,0,0,0,0;
#NOTES:
0000
0000
0000
0000
,
0120
0000
0000
2030
0000
0000
0002
0000
3000
0000
0000
0010
0000
0000
0010
0000
,
1003
0100
0100
1000
1000
0020
0030
1000
,
2001
0000
0000
0020
3000
0000
0230
0000
0000
0000
0300
0001
0000
0000
0001
0000
,
1000
0100
0100
0020
0030
0020
0032
0103
,
0000
0020
2030
3100
0000
0010
0001
1000
,
0200
0000
0020
0330
0000
0001
0010
0100
,
1100
0000
0000
0200
0000
0000
0320
0000
0032
0000
0000
0000
0013
0000
0100
0000
,
1100
0000
0000
0200
0000
0000
0320
0000
0032
0000
0013
0000
0100
0000
1000
0000
,
0000
0100
0010
0002
0003
0010
0100
1000
,
2000
0000
0000
0000
3002
0000
0000
0000
0023
0000
0000
0030
0010
0000
0001
0000
,
0011
0000
0000
0020
0000
0000
0230
0000
2300
0000
0000
0000
3010
0000
0100
0000
,
0110
0000
0000
0110
0000
0000
0110
0000
2000
0000
3000
0000
0002
0000
1003
0000
,
1010
0000
0000
1010
0000
0000
0100
0000
0101
0000
0000
0101
0000
0000
2000
0000
,
3002
0000
0000
0003
2000
0000
3020
0000
0030
0000
0200
0000
0302
0000
0003
0000
0000
0000
2000
0000
0000
3001
0000
0000
,
0011
0000
0000
0011
0000
0000
0100
0000
1100
0000
0000
0000
0010
0000
0001
0000
,
2000
0000
3001
0000
0001
0000
1000
0000
0100
0000
0010
0000
0002
0000
0000
0003
,
0100
0000
0000
0000
0001
0000
0001
0000
0010
0000
0100
0000
2000
0000
0000
3000
,
0100
0000
0010
1000
0001
0100
0220
0030
,
0302
0000
0020
0003
0200
0330
1000
0100
,
0000
0002
0000
0103
0001
1000
0001
0011
,
0000
0011
0000
0100
1000
0001
1000
1010
,
0000
0000
2010
0000
0000
3000
0200
0000
0300
0000
0001
0000
0010
0000
0100
0000
,
1100
0000
0000
1100
0000
0000
1000
0000
0001
0000
0000
0000
0001
0000
1000
0000
,
2002
3003
2002
3003
0220
0330
0120
0230
,
0302
0003
2000
3010
2000
3001
2000
3000
,
0100
0000
0000
1000
0000
0000
0010
0000
0220
0000
0000
0000
0330
0000
0002
0000
,
2000
3003
0020
0030
0200
0300
0002
0003
,
1000
1001
0001
0101
1000
1100
4004
0000
,
3003
0001
0001
0001
0010
0100
1100
0000
,
1001
0000
0010
0002
0000
1000
0000
0203
,
0300
0010
0010
1000
1000
0001
0001
2020
,
3030
0000
0001
0000
0100
0000
1000
0000
0100
0000
0000
0001
0000
0000
1001
0000
,
0000
1000
1000
1000
0100
0010
0011
0000
,
1001
0000
0100
2000
0000
0001
0000
3020
,
0030
0100
0100
0001
0001
1000
1000
0202
,
0303
0000
1000
0000
0100
0000
0001
0000
0100
0000
0000
1000
0000
0000
1001
0000
,
0000
0001
0001
0001
0010
0100
1100
0000
,
1001
0000
0000
0000
0000
0000
1000
0000
0010
0000
0000
0000
0001
0000
0100
0000
0000
0000
2000
0000
0000
3000
0000
0000
,
0001
0000
0000
0000
0000
0000
1000
0000
0100
0000
0000
0000
0001
0000
0010
0000
0000
0000
2000
0000
0000
3000
0000
0000
,
0001
0010
0000
0010
0100
0000
0100
1000
0000
1000
0010
0000
,
2000
0000
3000
0020
0230
0300
0012
0010
,
0010
0000
1000
1000
1000
0000
0100
0103
,
0101
0001
1001
1000
1100
0000
2010
0010
,
0010
0000
0001
0001
0001
0000
0100
3100
,
2200
0000
3300
0001
0010
0100
1000
2100
,
0000
3100
0000
1000
0100
0010
0001
0012
,
0000
0023
0030
0002
0003
0100
0001
1000
,
0110
0000
0000
0010
0000
0000
0100
0000
0202
0000
0303
0000
1000
0000
0001
0000
,
2020
3030
0202
0303
0022
0033
2200
3300
,
0002
0000
2003
3010
2000
3001
2000
3000
,
0100
0000
0000
1000
0000
0000
0010
0000
0220
0000
0000
0000
0330
0000
2000
0000
,
0002
3003
0020
0030
0200
0300
2000
3000
,
1000
1001
0001
0101
1000
1100
4004
0000
,
3003
0001
0001
0001
0010
0100
1100
0000
,
1001
0000
0010
0002
0000
1000
0000
0203
,
0300
0010
0010
1000
1000
0001
0001
2020
,
3030
0000
0001
0000
0100
0000
1000
0000
0100
0000
0000
0001
0000
0000
1001
0000
,
0000
1000
1000
1000
0100
0010
0011
0000
,
1001
0000
0100
2000
0000
0001
0000
3020
,
0030
0100
0100
0001
0001
1000
1000
0010
,
2020
3030
0000
1010
0000
0000
0202
0303
0000
0000
0201
0000
0300
0000
0001
0000
,
0001
1020
1000
1030
0100
0010
0012
0010
,
0100
2003
0100
3010
0000
0101
0000
1100
,
0000
0101
0000
0010
0100
0001
0002
0010
,
0100
2003
0100
3010
0000
0101
0000
1100
,
0000
0001
0001
0001
0010
0100
2100
0010
,
3001
2002
3003
1000
0100
0010
0001
0011
,
0000
0001
0010
0100
1100
1000
1000
0202
,
0303
0000
1000
0000
0100
0000
0001
0000
0100
0000
0000
1000
0000
0000
1001
0000
,
0000
0001
0001
0001
0010
0100
2200
0000
,
3300
0000
0000
0000
;

//--------------- dance-single - Ettenra ----------------
#NOTEDATA:;
#STEPSTYPE:dance-single;
#DESCRIPTION:Ettenra;
#DIFFICULTY:Challenge;
#METER:8;
#RADARVALUES:0,0,0,0,0;
#NOTES:
0000
0000
0000
0000
,
0120
0000
0000
2030
0000
0000
0002
0000
3000
0000
0000
0010
0000
0000
0010
0000
,
1003
0000
0100
0000
0100
0000
1000
0000
1000
0000
0010
1000
0000
0000
0001
0000
,
2001
0000
0000
0020
3000
0000
0230
0000
0000
0000
0300
0001
0000
0000
0001
0000
,
1000
0100
0100
0020
0030
0020
0032
0103
,
0110
0020
2030
3100
0000
0010
0001
1000
,
0200
0000
0020
0330
0000
0001
0010
0100
,
1100
0000
0000
0200
0000
0000
0320
0000
0032
0000
0003
0000
0010
0000
0100
0000
,
1100
0000
0000
0200
0000
0000
0320
0000
0032
0000
0013
0000
0100
0000
1000
0000
,
1100
0100
0010
0002
0003
0010
0100
1000
,
2000
0000
0000
0000
3002
0000
0000
0000
0023
0000
0000
0130
0010
0000
0001
0000
,
0011
0000
0000
0020
0000
0000
0230
0000
2300
0000
0000
0000
3010
0000
0100
0000
,
0110
0000
0000
0110
0000
0000
0110
0000
2000
0000
3100
0010
0002
0000
1003
0000
,
1010
0000
0000
1010
0000
0000
0100
0000
0101
0000
0000
0101
0000
0010
1000
0000
,
0002
0000
0000
0003
2000
0000
3020
0000
0230
0000
0302
0000
0023
0000
0030
0000
0000
0000
2000
0000
0000
3001
0000
0000
,
0011
0000
0000
0011
0000
0000
0100
0000
1100
0000
0000
0100
0010
0000
0001
0000
,
2000
0000
3001
0100
0001
0000
1000
0000
0100
0000
0010
0000
0002
0000
0000
2003
,
0200
0000
3300
0000
1000
0000
0001
0000
0010
0000
0100
0000
2000
0000
0000
3002
,
0200
0000
0303
0000
0010
1000
0010
1000
0001
0000
0100
0000
0220
0000
0030
0000
,
0302
0000
0003
0001
0020
0000
0030
0010
0200
0000
0300
0100
1000
0010
0100
0000
,
0000
0002
0000
0103
0001
1000
0001
0011
,
0000
0011
0000
0100
1000
0001
1000
1010
,
0000
0000
2010
0000
0000
3010
0200
0000
0300
0000
0001
0000
0010
0000
0100
0000
,
1100
0000
0000
1100
0000
0000
1000
0000
0001
0000
0000
0000
0001
0000
1000
0000
,
2002
3003
2002
3003
0220
0330
0120
0230
,
0302
0000
0013
0100
2000
0000
3010
0000
2000
0000
3001
0000
2000
0000
3000
0000
,
0100
0010
0000
0001
0000
0100
0010
0000
0220
0000
0000
0000
0330
0000
0002
0000
,
2000
3003
0010
1010
0100
0101
0001
0000
,
1000
0100
1000
0100
0010
0100
0010
0100
0010
0001
0010
0001
4000
0004
0000
0000
,
3003
0001
0001
0001
0010
0100
1100
0000
,
1001
0000
0000
0010
0001
0000
0002
0000
0000
0000
1000
0000
0000
0000
0203
0000
,
0300
0010
0010
1000
1000
0001
0001
2020
,
3030
0000
0001
0100
0001
0000
1000
0100
1000
0000
0000
0001
0000
0000
1001
0000
,
0000
1000
1000
1000
0100
0010
0011
0000
,
1001
0000
0000
0100
1000
0000
2000
0000
0000
0000
0001
0000
0000
0000
3020
0000
,
0030
0100
0100
0001
0001
1000
1000
0202
,
0303
0000
1000
0100
1000
0000
0001
0100
0001
0000
0000
1000
0000
0000
1001
0000
,
0000
0001
0001
0001
0010
0100
1100
0000
,
1001
0000
0000
1000
0010
0100
0001
0010
0100
1000
0000
0000
,
0001
0000
0000
1000
0100
0010
0001
0100
0010
2000
3000
1000
,
0001
0010
0100
0010
0100
1000
0100
1000
0010
1000
0010
0100
,
0002
0000
0003
0020
0230
0300
0012
0010
,
0010
0000
1000
1000
1000
0000
0100
0103
,
0101
0000
0001
0100
0001
0000
1000
0100
1000
0000
0000
0000
2010
0000
0010
0000
,
0010
0000
0001
0001
0001
0000
0100
3100
,
2200
0000
3300
0001
0010
0100
1000
2100
,
0000
3100
0000
1000
0100
0010
0001
0012
,
0000
0000
0023
0000
0030
0100
1000
0000
0001
0000
0100
0000
0001
0000
1000
0000
,
0110
0000
0000
0010
0000
0010
0100
0000
0202
0000
0303
0000
1000
0000
0001
0000
,
2020
0000
3030
0000
0202
0000
0303
0000
0022
0000
0033
0000
2100
0000
3001
0100
,
0002
0000
2003
3010
2000
3001
2000
3000
,
0100
0010
0000
0001
0000
0100
0010
0000
0220
0000
0000
0000
0330
0000
2000
0000
,
0002
3003
0010
0011
0100
1100
1000
0000
,
0001
0100
0001
0100
0010
0100
0010
0100
0010
1000
0010
1000
0004
4000
0000
0000
,
3003
0001
0001
0001
0010
0100
1100
0000
,
1001
0000
0000
0010
0001
0000
0002
0000
0000
0000
1000
0000
0000
0000
0203
0000
,
0300
0010
0010
1000
1000
0001
0001
2020
,
3030
0000
0001
0100
0001
0000
1000
0100
1000
0000
0000
0001
0000
0000
1001
0000
,
0000
1000
1000
1000
0100
0010
0011
0000
,
1001
0000
0000
0100
1000
0000
2000
0000
0000
0000
0001
0000
0000
0000
3020
0000
,
0030
0100
0100
0001
0001
1000
1000
0010
,
2020
3030
0000
1010
0000
0000
0202
0303
0000
0000
0201
0000
0300
0000
0001
0100
,
0001
1020
1000
1030
0100
0010
0012
0010
,
0100
2003
0100
3010
0000
0101
0000
1100
,
0000
0000
0101
0000
0000
0000
0010
1000
0010
0000
0100
0000
0002
0000
0010
0000
,
0100
2003
0100
3010
0000
0101
0000
1100
,
0000
0001
0001
0001
0010
0100
2100
0010
,
3001
2002
3003
1000
0100
0010
0001
0011
,
0000
0001
0010
0100
1100
1000
1000
0202
,
0303
0000
1000
0100
1000
0000
0001
0100
0001
0000
0000
1000
0000
0000
1001
0000
,
0000
0001
0001
0001
0010
0100
2200
0000
,
3300
0000
0000
0000
;
