#VERSION:0.83;
#TITLE:KNOW ABOUT ME;
#SUBTITLE:;
#ARTIST:NMIXX;
#TITLETRANSLIT:;
#SUBTITLETRANSLIT:;
#ARTISTTRANSLIT:;
#GENRE:;
#CREDIT:;
#MUSIC:KNOW ABOUT ME.ogg;
#BANNER:Banner.png;
#BACKGROUND:Background.png;
#CDTITLE:;
#SAMPLESTART:46.872;
#SAMPLELENGTH:11.269;
#SELECTABLE:YES;
#OFFSET:-0.020;
#BPMS:0.000=169.044;
#STOPS:;
#BGCHANGES:-0.020=KNOW ABOUT ME.mp4=1.000=0=0=1,
99999.000=-nosongbg-=1.000=0=0=0=StretchNoLoop====
;
#FGCHANGES:;

//--------------- dance-single - Ettenra ----------------
#NOTEDATA:;
#STEPSTYPE:dance-single;
#DESCRIPTION:Ettenra;
#DIFFICULTY:Beginner;
#METER:2;
#RADARVALUES:0,0,0,0,0;
#NOTES:
0000
0000
0000
0000
,
0000
0000
0001
0001
,
0000
0000
1000
1000
,
0000
0000
0001
0001
,
0000
0000
0100
0100
,
0000
0000
0010
0010
,
0000
0000
0001
0001
,
0000
0000
1000
1000
,
0000
1001
0000
0000
,
0000
0110
0000
0000
,
0000
0010
0010
0000
,
1000
1000
0000
0000
,
0000
0010
0010
0000
,
0100
0100
0000
0000
,
0000
0001
0001
0001
,
0001
0000
1000
1000
,
1000
1000
0000
0220
,
0000
0330
0000
0000
,
0000
0001
0001
0000
,
1000
1000
0000
0000
,
0000
0100
0100
0000
,
0010
0010
0000
0000
,
0000
0010
0010
0010
,
0010
0000
0000
0100
,
0100
0100
0100
0000
,
0000
0020
0000
0030
,
0000
0020
0000
0030
,
0000
2002
0000
3003
,
0000
0100
0100
0100
,
0000
0020
0000
0030
,
0000
0020
0000
0030
,
0000
0200
0000
0300
,
0000
0000
0000
0000
,
0000
0010
0000
0100
,
0000
2000
0000
3000
,
0000
0010
0000
0100
,
0000
0002
0000
0003
,
0000
0010
0000
0100
,
0000
1000
2000
0000
,
3000
0010
0000
0100
,
0000
0000
0001
0000
0002
0000
0000
0003
,
0000
0010
0000
0100
,
0000
2000
0000
3000
,
0000
0010
0000
0100
,
0000
0002
0000
0003
,
0000
0010
0000
0100
,
0000
1000
2000
0000
,
3000
0010
0000
0100
,
0000
0000
0010
0000
0020
0000
0000
0030
,
0000
0000
0001
0001
,
0000
0000
1000
1000
,
0000
0000
0001
0001
,
0000
0000
1000
1000
,
0000
0000
0001
0001
,
0000
0000
0100
0100
,
0000
0000
0010
0010
,
0000
0220
0000
0330
,
0000
0000
0001
0001
,
0000
0000
1000
1000
,
0000
0000
0001
0001
,
0000
0000
1000
1000
,
0000
0000
0010
0010
,
0000
0000
0100
0100
,
0000
0000
1000
1000
,
0000
0000
0001
0001
,
0000
0010
0000
0100
,
0000
2000
0000
3000
,
0000
0010
0000
0100
,
0000
0002
0000
0003
,
0000
0010
0000
0001
,
0000
1000
2000
0000
,
3000
0010
0000
0100
,
0000
0000
0001
0000
0002
0000
0000
0003
,
0000
0010
0000
0100
,
0000
2000
0000
3000
,
0000
0010
0000
0100
,
0000
0002
0000
0003
,
0000
0010
0000
0001
,
0000
0010
0020
0000
,
0030
0010
0000
0100
,
0000
0100
0200
0300
,
0000
0110
0000
0000
;

//--------------- dance-single - Ettenra ----------------
#NOTEDATA:;
#STEPSTYPE:dance-single;
#DESCRIPTION:Ettenra;
#DIFFICULTY:Easy;
#METER:4;
#RADARVALUES:0,0,0,0,0;
#NOTES:
0000
0000
0000
0000
,
0000
0100
0001
0001
,
0000
0010
1000
1000
,
0000
0100
0001
0001
,
0000
0010
1000
1000
,
0000
0100
0001
0001
,
0000
0010
0100
0100
,
0000
0001
1000
1000
,
0000
2002
0000
3003
,
0000
0110
0000
0000
,
1000
0010
0020
0030
,
1000
1000
0100
0000
,
0001
0010
0020
0030
,
0001
1000
0010
0010
,
0000
0001
1000
0001
,
0002
0003
1000
0001
,
1000
2000
3000
0220
,
0000
0330
0000
0000
,
0100
0001
0002
0003
,
1000
0001
0000
0000
,
0100
1000
2000
3000
,
0001
1000
0000
0100
,
0000
0010
0010
1000
,
2000
3000
0000
0001
,
0001
0100
0200
0300
,
0000
0020
0000
1000
,
0000
0030
0000
0000
0020
0000
0000
0000
0000
0000
0000
0000
0130
0000
0000
0000
,
0000
2002
0000
3003
,
0000
0010
0010
0010
,
0100
0020
0000
2030
,
0000
3020
0000
2030
,
0000
3200
0000
0300
,
0000
0000
0000
0000
,
1000
0010
0100
0100
,
0001
2000
0000
3000
,
0001
0010
0100
0100
,
1000
0002
0000
0003
,
0000
0010
0010
0100
,
0010
1000
2000
0000
,
3000
0010
0010
0100
,
0010
0000
0001
0000
0002
0000
0000
0003
,
1000
0010
0100
0100
,
0001
2000
0000
3000
,
0001
0010
0100
0100
,
1000
0002
0000
0003
,
0000
0010
0100
0100
,
0010
1000
2000
0000
,
3000
0010
0100
0100
,
1000
0000
0010
0000
0020
0000
0000
0030
,
0000
0110
0001
0001
,
0000
1001
1000
1000
,
0000
0110
0001
0001
,
0000
2000
3000
0002
,
0003
0110
0001
0001
,
0000
1001
0100
0100
,
0000
0110
1000
1000
,
0000
0004
0000
0003
,
0000
0110
0001
0001
,
0000
1001
1000
1000
,
0000
0110
0001
0001
,
0000
2000
3000
0002
,
0003
0010
0000
0000
,
0110
0000
0100
0000
,
0000
1000
0001
1000
,
0001
2002
3003
2002
,
3003
0010
0100
0100
,
0001
2000
0000
3000
,
0001
0010
0100
0100
,
1000
0002
0000
0003
,
0000
0010
0200
0001
,
0300
1000
2000
0000
,
3000
0010
0100
0100
,
0010
0000
0001
0000
0002
0000
0000
0003
,
1000
0010
0100
0100
,
0001
2000
0000
3000
,
0001
0010
0100
0100
,
1000
0002
0000
0003
,
0000
0010
0100
0001
,
0000
0010
0020
0000
,
0030
0010
0100
0100
,
0000
2002
3003
2002
,
3003
0110
0000
0000
;

//--------------- dance-single - Ettenra ----------------
#NOTEDATA:;
#STEPSTYPE:dance-single;
#DESCRIPTION:Ettenra;
#DIFFICULTY:Medium;
#METER:6;
#RADARVALUES:0,0,0,0,0;
#NOTES:
0000
0000
0000
0000
,
0000
0000
0100
0000
0001
0100
0001
0000
,
0000
0000
0100
0000
1000
0100
1000
0000
,
0000
0000
0100
0000
0001
0100
0001
0000
,
0000
0000
0100
0000
1000
0100
1000
0000
,
0000
0000
0100
0000
0001
0100
0001
0000
,
0000
0000
0010
0000
0100
0010
0100
0000
,
0000
0000
0001
0000
1000
0001
1000
0000
,
0000
2002
0000
3003
,
0000
0000
0110
0000
0000
0000
0000
0010
,
1000
0000
0020
0030
0020
0030
0000
0000
,
1000
0100
1000
0000
0100
0000
0000
0010
,
0001
0000
0020
0030
0020
0030
0000
0000
,
0001
0100
0001
0000
0010
0000
0010
0000
,
0000
0000
0100
0010
0100
0000
2000
3000
,
2000
3000
0000
0000
0002
0003
0010
0000
,
0002
0003
0002
0000
0003
0000
0220
0000
,
0000
0000
0330
0000
0000
0000
0000
0001
,
0100
0000
0002
0003
0002
0003
0000
0000
,
0001
0010
0001
0000
0000
0000
0000
1000
,
0100
0000
2000
3000
2000
3000
0000
0000
,
1000
0010
1000
0000
0000
0000
0100
0000
,
0000
0000
0010
0100
0010
0000
2000
3000
,
2000
3000
0000
0000
0000
0000
0001
1000
,
0001
0000
0200
0300
0200
0300
0220
0000
,
0330
0020
0000
2000
,
3000
0030
0000
0000
0020
0000
0000
0000
0000
0000
0000
0000
0200
0000
0000
0000
,
0300
0030
0000
0000
2002
0000
0000
0000
0000
0000
0000
0000
0000
0000
0000
0000
,
3003
0000
0020
0030
0020
0030
0020
0030
,
0200
0300
0020
0000
0000
0000
2030
0000
,
0000
3020
0000
2030
,
0000
3200
0000
0300
,
0000
0000
0000
0000
,
2000
3000
0010
1000
0100
1000
0100
1000
,
0002
0003
2000
0000
0000
0000
3000
0000
,
0002
0003
0010
0001
0100
0001
0100
0001
,
2000
3000
0002
0000
0000
0000
0003
0000
,
0000
0000
0010
0001
0010
0000
0200
0300
,
0010
0000
2000
3000
2000
0000
0000
0000
,
3000
0000
0010
1000
0010
0000
0200
0300
,
0010
0000
0002
0003
0002
0000
0000
0003
,
2000
3000
0010
1000
0100
1000
0100
1000
,
0002
0003
2000
0000
0000
0000
3000
0000
,
0002
0003
0010
0001
0100
0001
0100
0001
,
2000
3000
0002
0000
0000
0000
0003
0000
,
0000
0000
0020
0031
0100
0000
0200
0300
,
0010
0000
2000
3000
2000
0000
0000
0000
,
3000
0000
0010
1000
0100
0000
0200
0300
,
1000
0000
0020
0030
0020
0000
0000
0030
,
0000
0000
0110
0000
0001
0100
0001
0000
,
0000
0000
1001
0000
1000
0100
1000
0000
,
0000
0000
0110
0000
0001
0100
0001
0000
,
0000
0220
0330
2002
,
3003
0000
0110
0000
0001
0100
0001
0000
,
0000
0000
1001
0000
0100
0010
0100
0000
,
0000
0000
0110
0000
1000
0010
1000
0000
,
0000
0000
4002
0000
0000
3003
0000
0000
,
0000
0000
0110
0000
0001
0100
0001
0000
,
0000
0000
1001
0000
1000
0100
1000
0000
,
0000
0000
0110
0000
0001
0100
0001
0000
,
0000
0220
0330
2002
,
3003
0000
0001
0000
0000
1000
0000
0000
,
0110
0000
0000
0000
0001
0000
0000
1000
,
0000
0110
1001
0110
,
1001
2002
3003
0220
,
0330
0000
0010
1000
0100
1000
0100
1000
,
0002
0003
2000
0000
0000
0000
3000
0000
,
0002
0003
0010
0001
0100
0001
0100
0001
,
2000
3000
0002
0000
0000
0000
0003
0000
,
0000
0000
0010
0001
0200
0000
0002
0003
,
0300
0000
2000
3000
2000
0000
0000
0000
,
3000
0000
0010
1000
0100
0000
0200
0300
,
0010
0000
0002
0003
0002
0000
0000
0003
,
2000
3000
0010
1000
0100
1000
0100
1000
,
0002
0003
2000
0000
0000
0000
3000
0000
,
0002
0003
0010
0001
0100
0001
0100
0001
,
2000
3000
0002
0000
0000
0000
0003
0000
,
0000
0000
0020
0031
0200
0300
0002
0003
,
0000
0000
0020
0030
0020
0000
0000
0000
,
0030
0000
0010
1000
0100
0000
0200
0300
,
0010
0220
0330
2002
,
3003
0110
0000
0000
;

//--------------- dance-single - Ettenra ----------------
#NOTEDATA:;
#STEPSTYPE:dance-single;
#DESCRIPTION:Ettenra;
#DIFFICULTY:Hard;
#METER:8;
#RADARVALUES:0,0,0,0,0;
#NOTES:
0000
0000
0000
0000
,
0200
0300
0000
0000
0101
0000
0000
0000
0001
0000
0100
0000
0001
0000
0100
0000
,
0020
0030
0000
0000
1100
0000
0000
0000
1000
0000
0100
0000
1000
0000
0100
0000
,
0020
0030
0000
0000
0101
0000
0000
0000
0001
0000
0100
0000
0001
0000
0100
0000
,
0020
0030
0000
0000
1100
0000
0000
0000
1000
0000
0100
0000
1000
0000
0100
0000
,
0020
0030
0000
0000
0101
0000
0000
0000
0001
0000
0100
0000
0001
0000
0100
0000
,
0020
0030
0000
0000
0110
0000
0000
0000
0100
0000
0010
0000
0100
0000
0010
0000
,
2000
3000
0000
0000
1001
0000
0000
0000
1000
0000
0001
0000
1000
0000
0001
0000
,
1000
0001
0010
0001
1000
0100
0000
0000
,
0000
0000
0110
0000
0000
0000
0000
0010
,
0001
0100
0020
0030
0020
0030
1000
0100
,
1000
0100
1000
0000
0010
0000
0000
0010
,
1000
0100
0020
0030
0020
0030
0001
0100
,
0001
0100
0001
0000
0010
0000
0100
0000
,
1000
0010
0100
0001
0010
0100
2000
3000
,
2000
3000
0000
0000
0010
0010
0001
1000
,
0002
0003
0002
0000
0003
0000
0220
0000
,
0000
0000
0330
0000
0000
0000
0000
1000
,
0010
0100
0002
0003
0002
0003
0001
0010
,
0001
0010
0100
0000
0000
0000
0000
0001
,
0010
0100
2000
3000
2000
3000
1000
0010
,
1000
0010
0100
0000
0000
0000
0000
0100
,
0010
1000
0001
0010
0100
1000
0002
0003
,
0002
0003
0000
0000
1000
0001
0010
0100
,
1000
0001
0200
0300
0200
0300
0220
0000
,
0330
0000
0000
0000
1020
0000
0000
0000
0000
0000
0000
0000
1000
0000
0000
2000
,
0000
3030
0000
0000
0021
0000
0000
0000
0000
0000
0000
0000
0001
0000
0000
0002
,
0000
0033
0000
0000
2002
0000
0000
0000
0000
0000
0000
0000
0000
0000
0000
0000
,
3003
0001
0020
0030
0020
0030
0020
0030
,
0200
0300
0020
0000
0000
0000
0031
0200
,
0000
0000
0320
0000
0000
0000
1030
0200
,
0000
2300
0000
3000
,
0000
0000
0000
0000
,
0001
1000
0010
1000
0100
0010
0100
1000
,
0001
0001
0100
1000
0100
0001
0000
0000
,
1000
0001
0010
0001
0100
0010
0100
0001
,
1000
1000
0100
0001
0100
1000
0000
0000
,
0000
0001
0010
0001
0100
0001
0200
0300
,
0010
0000
2000
3000
2000
0000
0000
0000
,
3000
1000
0010
1000
0100
1000
0200
0300
,
0010
0000
0002
0003
0002
0000
0000
0003
,
0001
1000
0010
1000
0100
0010
0100
1000
,
0001
0001
0100
1000
0100
0001
0000
0000
,
1000
0001
0010
0001
0100
0010
0100
0001
,
1000
1000
0100
0001
0100
1000
0000
0000
,
0000
0001
0020
0031
0100
0001
0200
0300
,
0010
0000
2000
3000
2000
0000
0000
0000
,
3000
1000
0010
1000
0100
0000
0200
0300
,
1000
0000
0020
0030
0020
0000
0000
0030
,
0200
0300
0000
0000
0101
0000
0000
0000
0001
0000
0100
0000
0001
0000
0100
0000
,
0020
0030
0000
0000
1100
0000
0000
0000
1000
0000
0100
0000
1000
0000
0100
0000
,
0020
0030
0000
0000
0101
0000
0000
0000
0001
0000
0100
0000
0001
0000
0100
0000
,
0020
0030
0000
0000
2200
0000
0000
0000
3300
0000
0000
0000
0022
0000
0000
0000
,
0033
0000
0101
0000
0001
0100
0001
0100
,
0020
0030
0000
0000
0110
0000
0000
0000
0100
0000
0010
0000
0100
0000
0010
0000
,
2000
3000
0000
0000
1010
0000
0000
0000
1000
0000
0010
0000
1000
0000
0010
0000
,
2000
3000
0000
0000
4002
0000
0000
0000
0000
0000
3003
0000
0004
0000
0000
0000
,
0003
0000
0101
0000
0001
0100
0001
0100
,
0020
0030
0000
0000
1100
0000
0000
0000
1000
0000
0100
0000
1000
0000
0100
0000
,
0020
0030
0000
0000
0101
0000
0000
0000
0001
0000
0100
0000
0001
0000
0100
0000
,
0020
0030
0000
0000
2200
0000
0000
0000
3300
0000
0000
0000
0022
0000
0000
0000
,
0033
0000
0000
0000
0101
0000
0000
0000
0000
0000
1000
0100
0000
0000
0000
0000
,
0110
0000
0000
0000
0011
0000
0000
1010
,
0000
0110
0011
0110
,
1100
2002
3003
0220
,
0331
1000
0010
1000
0100
0010
0100
1000
,
0001
0001
0100
1000
0100
0001
0000
0000
,
1000
0001
0010
0001
0100
0010
0100
0001
,
1000
1000
0100
0001
0100
1000
0000
0000
,
0000
0001
0010
0001
0200
0000
0001
0001
,
0300
0000
2000
3000
2000
0000
0000
0000
,
3000
1000
0010
1000
0100
1000
0200
0300
,
0010
0000
0002
0003
0002
0000
0000
0003
,
0001
1000
0010
1000
0100
0010
0100
1000
,
0001
0001
0100
1000
0100
0001
0000
0000
,
0001
0001
0010
0001
0100
0010
0100
0001
,
1000
1000
0100
0001
0100
1000
0000
0000
,
0000
0001
0020
0031
0200
0300
0001
0001
,
1000
0000
0020
0030
0020
0000
0000
0000
,
0030
1000
0010
1000
0100
1000
0200
0300
,
0010
0022
0033
2200
,
3300
0110
0000
0000
;

//--------------- dance-single - Ettenra ----------------
#NOTEDATA:;
#STEPSTYPE:dance-single;
#DESCRIPTION:Ettenra;
#DIFFICULTY:Challenge;
#METER:9;
#RADARVALUES:0,0,0,0,0;
#NOTES:
0000
0000
0000
0000
0000
0000
0100
0100
,
0200
0300
0000
0000
0101
0000
0000
0000
0001
0000
0100
0000
0001
0000
0100
0000
,
0020
0030
0000
0000
1100
0000
0000
0000
1000
0000
0100
0000
1000
0000
0100
0000
,
0020
0030
0000
0000
0101
0000
0000
0000
0001
0000
0100
0000
0001
0000
0100
0000
,
0020
0030
0000
0000
1100
0000
0000
0000
1000
0000
0100
0000
1000
0000
0100
0000
,
0020
0030
0000
0000
0101
0000
0000
0000
0001
0000
0100
0000
0001
0000
0100
0000
,
0020
0030
0000
0000
0110
0000
0000
0000
0100
0000
0010
0000
0100
0000
0010
0000
,
2000
3000
0000
0000
1001
0000
0000
0000
1000
0000
0001
0000
1000
0000
0001
0000
,
1000
0001
0010
0001
1000
0100
0010
0100
,
0000
0100
0110
0000
0000
0000
0000
0010
,
0001
0100
0020
0030
0020
0030
1000
0100
,
1000
0100
1000
0000
0110
0000
0000
0010
,
1000
0100
0020
0030
0020
0030
0001
0100
,
0001
0100
0001
0000
1010
0000
0101
0000
,
1000
0010
0100
0001
0010
0100
2000
3000
,
2000
3000
0100
0000
0010
0010
0001
1000
,
0002
0003
0002
0000
0003
0000
0220
0000
,
0300
0100
0130
0000
0000
0100
0010
1000
,
0010
0100
0002
0003
0002
0003
0001
0010
,
0001
0010
0100
0000
0001
0001
1000
0001
,
0010
0100
2000
3000
2000
3000
1000
0010
,
1000
0010
0100
0000
0110
0000
0000
0100
,
0010
1000
0001
0010
0100
1000
0002
0003
,
0002
0003
0100
0000
1000
0001
0010
0100
,
1000
0001
0200
0300
0200
0300
0120
0000
,
1030
0000
0001
0000
1020
0000
0000
0000
0000
0000
0000
0000
1000
0000
0000
0200
,
0000
0330
0000
0000
0021
0000
0000
0000
0000
0000
0000
0000
0001
0000
0000
0200
,
0000
0330
0000
0000
1002
0000
0000
0000
0020
0000
0030
0000
2000
0000
3000
0000
,
0203
0301
0020
0030
0020
0030
0020
0030
,
0200
0300
0020
0000
0001
0000
0031
0200
,
0010
0000
0320
0000
1000
0000
1030
0200
,
0000
2300
0000
3000
,
0000
0000
0000
0000
,
0001
1000
0010
1000
0100
0010
0100
1000
,
0001
0001
0100
1000
0100
0001
0000
0000
,
1000
0001
0010
0001
0100
0010
0100
0001
,
1000
1000
0100
0001
0100
1000
0000
0000
,
2000
3001
0010
0001
0100
0001
0200
0300
,
0010
1000
0010
0010
2000
0000
0000
0000
,
3000
1000
0010
1000
0100
1000
0200
0300
,
0010
0001
0010
0010
0002
0000
0000
0003
,
0001
1000
0010
1000
0100
0010
0100
1000
,
0001
0001
0100
1000
0100
0001
1000
0010
,
0100
0001
0010
0001
0100
0010
0100
0001
,
1000
1000
0100
0001
0100
1000
0010
0010
,
1000
0001
0020
0031
0100
0001
0200
0300
,
0010
1000
0010
0010
2000
0000
0000
0000
,
3000
1000
0010
1000
0100
1000
0200
0300
,
1000
0010
1000
1000
0020
0000
0000
0030
,
0100
0001
0000
0000
0101
0000
0000
0000
0001
0000
0100
0000
0001
0000
0100
0000
,
0010
1000
0000
0000
1100
0000
0000
0000
1000
0000
0100
0000
1000
0000
0100
0000
,
0010
0001
0000
0000
0101
0000
0000
0000
0001
0000
0100
0000
0001
0000
0100
0000
,
0010
1000
0000
0000
2200
0000
0000
0000
3300
0000
0000
0000
0022
0000
0000
0000
,
0033
0000
0101
0000
0001
0100
0001
0100
,
0010
0100
0000
0000
0110
0000
0000
0000
0100
0000
0010
0000
0100
0000
0010
0000
,
1000
0010
0000
0000
1010
0000
0000
0000
1000
0000
0010
0000
1000
0000
0010
0000
,
1000
0001
0000
0000
1002
0000
1000
0000
1000
0000
1003
0000
0001
0000
0002
0000
,
0103
1000
0000
0000
0002
0200
0303
0000
0001
0000
0100
0000
0001
0000
0100
0000
,
0010
1000
0000
0000
1100
0000
0000
0000
1000
0000
0100
0000
1000
0000
0100
0000
,
0010
0001
0000
0000
0101
0000
0000
0000
0001
0000
0100
0000
0001
0000
0100
0000
,
0010
1000
0000
0000
2200
0000
0000
0000
3300
0000
0000
0000
0022
0000
0000
0000
,
0033
0000
0000
0000
0101
0000
0000
0000
0000
0000
1000
0100
0000
0000
0000
0000
,
0110
0000
0000
0000
0011
0000
0000
1010
,
0000
0110
0011
0110
,
1100
2002
3003
0220
,
0331
1000
0010
1000
0100
0010
0100
1000
,
0001
0001
0100
1000
0100
0001
0100
0000
,
1000
0001
0010
0001
0100
0010
0100
0001
,
1000
1000
0100
0001
0100
1000
0100
0000
,
2000
3001
0010
0001
0200
0000
0001
0001
,
0310
1000
0010
0010
2000
0000
0100
0000
,
3000
1000
0010
1000
0100
1000
0200
0300
,
0010
0001
0010
0010
0002
0000
0100
0003
,
0001
1000
0010
1000
0100
0010
0100
1000
,
0001
0001
0100
1000
0200
0301
0200
0000
,
0301
0001
0010
0001
0100
0010
0100
0001
,
1000
1000
0100
0001
0100
1000
0100
0000
,
0000
0001
0020
0031
0200
0300
0001
0001
,
1000
0010
1000
1000
0020
0000
0100
0000
,
0030
1000
0010
1000
0100
1000
0200
0300
,
0010
0001
0022
0000
0033
0000
2200
0000
,
3300
0110
0000
0000
;
