#VERSION:0.83;
#TITLE:JUMP!;
#SUBTITLE:;
#ARTIST:BLACKPINK;
#TITLETRANSLIT:;
#SUBTITLETRANSLIT:;
#ARTISTTRANSLIT:;
#GENRE:;
#CREDIT:;
#MUSIC:JUMP!.ogg;
#BANNER:Banner.png;
#BACKGROUND:Background.png;
#CDTITLE:;
#SAMPLESTART:39.981;
#SAMPLELENGTH:19.866;
#SELECTABLE:YES;
#OFFSET:-0.249;
#BPMS:0.000=144.971;
#STOPS:;
#BGCHANGES:-0.249=JUMP!.mp4=1.000=0=0=1,
99999.000=-nosongbg-=1.000=0=0=0=StretchNoLoop====
;
#FGCHANGES:;

//--------------- dance-single - Ettenra ----------------
#NOTEDATA:;
#STEPSTYPE:dance-single;
#DESCRIPTION:Ettenra;
#DIFFICULTY:Beginner;
#METER:2;
#RADARVALUES:0,0,0,0,0;
#NOTES:
0000
0000
0000
0000
,
0200
0000
0300
0000
,
0002
0000
0003
0000
,
2000
0000
3000
0000
,
0010
0010
0020
0030
,
0000
0000
0100
0000
,
0010
0000
0100
0000
,
0010
0000
0100
0000
,
0001
0001
0002
0003
,
0000
0000
0100
0000
,
0010
0000
0100
0000
,
0010
0010
0020
0030
,
0000
1000
2000
3000
,
0000
0001
0002
0003
,
0000
0010
0010
0000
,
0200
0000
0300
0000
,
0000
1000
2000
3000
,
0000
0001
0001
0000
,
1000
0000
0001
0000
,
0100
0100
0100
0100
,
0000
0000
0010
0010
,
0020
0030
0000
0100
,
0000
0000
1000
1000
,
2000
3000
0000
0000
,
1001
0000
1001
0000
,
0110
0000
0110
0000
,
1001
0000
1001
0000
,
0110
0000
0110
0000
,
0000
0000
0001
0001
,
0001
0000
0010
0000
,
0100
0000
1000
1000
,
1000
0000
0100
0000
,
0010
0000
0001
0001
,
0001
0000
0010
0000
,
0100
0000
0010
0000
,
0100
0000
0010
0000
,
2000
3000
1000
0000
,
0002
0003
0001
0000
,
0020
0030
0010
0000
,
0200
0000
0300
0000
,
0020
0030
0010
0000
,
0002
0003
0001
0000
,
1001
1001
0000
1000
,
2000
0000
3000
0000
,
0000
0000
0000
0000
,
0000
0000
0001
0001
,
0001
0000
0100
0100
,
0000
0000
1000
1000
,
1000
0000
0010
0000
,
0110
0000
0110
0000
,
1001
0000
1001
0000
,
0110
0000
0110
0000
,
1001
0000
1001
0000
,
0110
MMMM
0110
MMMM
,
1001
MMMM
1001
MMMM
,
0110
MMMM
0110
MMMM
,
1001
MMMM
1001
0000
;

//--------------- dance-single - Ettenra ----------------
#NOTEDATA:;
#STEPSTYPE:dance-single;
#DESCRIPTION:Ettenra;
#DIFFICULTY:Easy;
#METER:3;
#RADARVALUES:0,0,0,0,0;
#NOTES:
0000
0000
0000
0000
,
0200
0000
0000
0000
,
0302
0000
0000
0000
,
2003
0000
0000
3000
0000
0000
1000
0000
,
0010
0000
0010
0000
0020
0030
0000
0000
,
0200
0300
0010
0010
,
0100
0000
0200
0300
0200
0300
0010
0000
,
0010
0002
0203
0301
,
0001
0000
0001
0000
0002
0003
0000
0000
,
0020
0030
0100
0100
,
0010
0000
0020
0030
0020
0030
0100
0000
,
0100
2000
3200
0300
,
0000
0010
0020
0030
,
0000
0001
0002
0003
,
0000
0010
0010
0000
,
0020
0000
0200
0000
0000
0330
0000
0000
,
0000
1000
2000
3000
,
0000
0001
0002
0003
,
2000
3000
0002
0003
,
0010
0010
0010
0100
,
0000
0000
0010
0010
,
0002
0003
0010
0100
,
0000
0000
0010
0010
,
2000
3000
0010
0100
,
1001
0000
0110
0000
,
1001
0000
0110
0000
,
1001
0000
0110
0000
,
1001
0000
0110
0000
,
0000
0000
1000
1000
,
0002
0000
0003
0000
0020
0030
0000
0000
,
0000
0000
0001
0001
,
2000
0000
3000
0000
0200
0300
0000
0000
,
0000
0000
0100
0100
,
0002
0000
0003
0000
0020
0030
0000
0000
,
0000
0000
0010
0010
,
0100
0100
0000
0100
,
0002
0000
1003
1000
,
0002
0000
1003
1000
,
0200
0000
0310
0010
,
0020
0000
0000
0030
0000
0000
0100
0000
,
0002
0000
0013
0010
,
2000
0000
3001
0001
,
1001
1001
1000
1000
,
2000
0000
3000
0000
,
0000
0000
0000
0000
,
0000
0000
0010
0010
,
0002
0000
0103
0100
,
0000
0000
0100
0100
,
2000
0000
3010
0010
,
0110
0000
1001
0000
,
0110
0000
1001
0000
,
0110
0000
1001
0000
,
0110
0000
1001
0100
,
0110
MMMM
1001
MMMM
,
0110
MMMM
1001
MMMM
,
0110
MMMM
1001
MMMM
,
0110
MMMM
1001
0100
;

//--------------- dance-single - Ettenra ----------------
#NOTEDATA:;
#STEPSTYPE:dance-single;
#DESCRIPTION:Ettenra;
#DIFFICULTY:Medium;
#METER:6;
#RADARVALUES:0,0,0,0,0;
#NOTES:
0000
0000
0000
0000
,
0200
0000
0000
0000
,
0302
0000
0000
0000
,
2003
0000
0000
3000
0000
0001
1000
0001
,
0010
0000
0010
0000
0020
0030
0000
0000
,
0200
0000
0300
0000
0010
0001
0010
0000
,
0100
1000
0200
0300
0200
0300
0010
0100
,
0010
0000
0002
0000
0203
0000
0301
1000
,
0001
0000
0001
0000
0002
0003
0000
0000
,
0020
0000
0030
0000
0100
1000
0100
0000
,
0010
0001
0020
0030
0020
0030
0100
0000
,
0100
2000
3200
0300
,
0100
0000
0010
1000
0010
0010
0000
0000
,
0100
0000
0001
0010
0001
0001
0000
0000
,
0100
0000
0010
0100
0010
0010
0000
0000
,
0020
0000
0200
0000
0330
0020
0230
0302
,
0003
0000
1000
0100
1000
1000
0000
0000
,
0100
0000
0001
0100
0001
0001
0000
0100
,
2000
0200
3300
0020
0032
0003
0000
0000
,
0010
0000
0010
0000
0010
0000
0220
0330
,
0000
0000
0000
1000
0010
0100
0010
0100
,
0002
0000
0000
0000
0103
0000
0220
0330
,
0000
0000
0000
0001
0010
0100
0010
0100
,
2000
0000
0000
0000
3100
0000
0220
0330
,
0110
MMMM
1001
MMMM
,
0110
0000
MMMM
0000
1001
0000
0220
0330
,
1001
MMMM
0110
MMMM
,
1001
0000
MMMM
0000
0110
0000
0220
0330
,
0000
0000
0000
0100
1000
0100
1000
0100
,
0002
0000
0003
0100
0020
0030
0000
0200
,
0300
0000
0000
0010
0001
0010
0001
0010
,
2000
0000
3000
0010
0200
0300
0000
0200
,
0300
0000
0000
1000
0100
1000
0100
1000
,
0002
0000
0003
1000
0020
0030
0000
0200
,
0300
0000
0000
0001
0010
0001
0010
0001
,
1000
0000
0001
0000
1000
0000
0220
0330
,
2002
3000
0000
0003
1000
0001
1000
0000
,
0002
0000
0000
0003
1000
0010
1000
0000
,
0110
0000
0000
0000
0010
0001
0010
0000
,
0020
0000
0000
0030
0000
0000
0110
0000
,
2002
3000
0000
0003
0010
0001
0010
0000
,
2000
0000
0000
3000
0001
0010
0001
0000
,
0110
0000
0110
0000
0001
1000
0001
0000
,
0002
0000
0003
0000
,
0000
0000
0000
0000
,
0000
0000
0000
1000
0010
0100
0010
0100
,
0002
0000
0103
0100
,
0000
0000
0000
0110
,
1001
0000
0010
0100
0010
0100
0010
0000
,
0110
0110
1001
1001
,
0110
0110
1001
1001
,
0110
0110
1001
1001
,
0110
0000
0110
0000
1001
0000
0220
0330
,
1001
MMMM
0110
MMMM
,
1001
MMMM
0110
MMMM
,
1001
MMMM
0110
MMMM
,
1001
0000
MMMM
0000
0110
0000
0220
0330
;

//--------------- dance-single - Ettenra ----------------
#NOTEDATA:;
#STEPSTYPE:dance-single;
#DESCRIPTION:Ettenra;
#DIFFICULTY:Hard;
#METER:8;
#RADARVALUES:0,0,0,0,0;
#NOTES:
0000
0000
0000
0000
,
0200
0000
0000
0000
,
0302
0000
0000
0000
,
2003
0000
0000
3000
0000
0100
1000
0001
,
0020
0000
0030
0000
0020
0000
0031
0000
0010
0001
0200
0000
0000
0300
0000
0000
,
0220
0000
0330
0000
0100
0001
1000
0001
,
0010
0001
2000
3000
2000
3000
0001
0100
,
1010
0000
0000
0000
0001
0000
0000
0001
0200
0000
0000
0000
0301
0000
1000
0000
,
0020
0000
0030
0000
0020
0000
1030
0000
0010
1000
0200
0000
0000
0300
0000
0000
,
0220
0000
0330
0000
0100
1000
0001
1000
,
0010
1000
0002
0003
0002
0003
1000
0100
,
0011
0000
0000
0000
1000
0000
0000
1000
0200
0000
0000
0000
0300
0000
0000
0000
,
1001
0000
0000
0000
0010
0000
1000
0000
0010
1000
0010
0000
0000
0000
0000
0000
,
0110
0000
0000
0000
0001
0000
0010
0000
0001
0010
0001
0000
0000
0000
0000
0000
,
1001
0000
0000
0000
0010
0000
0100
0000
0010
0100
0010
0000
1000
0000
0001
0000
,
0020
0000
0230
0000
1300
0020
0230
0302
,
0003
0000
0000
0000
1000
0000
0100
0000
1000
0100
1000
0000
0000
0000
0000
0000
,
0110
0000
0000
0000
0001
0000
0100
0000
0001
0100
0001
0000
0010
0000
0100
0000
,
2000
0200
3300
0020
0032
0103
0010
1000
,
0010
0000
0010
0000
0010
0000
0220
0330
,
0110
0000
0000
1000
0000
0000
1000
0000
0010
0000
0100
0000
0010
0000
0100
0000
,
0001
0000
0000
0001
0000
0000
0001
0000
0100
0000
0000
0000
0220
0000
0330
0000
,
0000
0000
0000
0001
0000
0000
0001
0000
0010
0000
0100
0000
0010
0000
0100
0000
,
1000
0000
0000
1000
0000
0000
1000
0000
0100
0000
0000
0000
0220
0000
0330
0000
,
0011
MMMM
1100
MMMM
,
1010
0000
MMMM
0000
0101
0000
0220
0330
,
1010
MMMM
0101
MMMM
,
0011
0000
MMMM
0000
0110
0000
0220
0330
,
0000
0000
0000
0100
1000
0100
0010
0100
,
0002
0000
0003
0002
0000
0003
0100
0000
0020
0000
0030
0000
0000
0000
0200
0000
,
0310
0000
0000
0010
0001
0010
0100
0010
,
2000
0000
3000
2000
0000
3000
0010
0000
0200
0000
0300
0000
0000
0000
0200
0000
,
0310
0000
0000
1000
0100
1000
0010
1000
,
0002
0000
0003
0002
0000
0003
1000
0000
0020
0000
0030
0000
0000
0000
0200
0000
,
0310
0000
0000
0001
1000
0001
0010
0001
,
1000
0100
0000
0000
1100
0000
0000
0000
0110
0000
0000
0000
0220
0000
0330
0000
,
2002
3000
0000
0103
0001
1000
0010
1000
,
0002
0000
0000
0003
0100
0010
1000
0001
,
0110
0001
1000
0100
0010
0001
1000
0001
,
0020
0000
0030
0000
0100
0010
0100
0010
0000
0000
0000
0000
0220
0000
0330
0000
,
2002
0003
0000
3100
1000
0001
0010
0001
,
2000
0000
0000
3000
0100
0010
0001
1000
,
0110
1000
0001
0100
0010
1000
0001
1000
,
0020
0000
0030
0000
,
0000
0000
0000
0000
,
0000
0000
0000
1000
0000
0000
1000
0000
0010
0000
0100
0000
0010
0000
0100
0000
,
0001
0000
0000
0001
0000
0000
0001
0000
0100
0000
0000
0000
0100
0000
0000
0000
,
0000
0000
0000
0001
0000
0000
0001
0000
0010
0000
0100
0000
0110
0000
0000
0000
,
1001
0000
0010
0001
1000
0100
0010
0000
,
0011
0011
1100
1100
,
0110
0110
1010
1010
,
0101
0101
1001
1001
,
0110
0000
0110
0000
1001
0000
0220
0330
,
0011
MMMM
1100
MMMM
,
0110
MMMM
1010
MMMM
,
0101
MMMM
1001
MMMM
,
0110
0000
MMMM
0000
1001
0000
0220
0330
;

//--------------- dance-single - Ettenra ----------------
#NOTEDATA:;
#STEPSTYPE:dance-single;
#DESCRIPTION:Ettenra;
#DIFFICULTY:Challenge;
#METER:9;
#RADARVALUES:0,0,0,0,0;
#NOTES:
0000
0000
0000
0000
,
0100
0000
0000
1000
0100
0000
1000
0000
0010
0000
0000
1000
0010
0000
1000
0000
,
0001
0000
0000
0010
0001
0000
0010
0000
0001
0000
0000
0100
0001
0000
0100
0000
,
0001
0000
0000
1000
0001
0000
1000
0000
0000
0000
0100
0000
1000
0000
0001
0000
,
0020
0000
0030
0000
0020
0000
0031
0000
0010
0001
0200
0000
0000
0300
0000
0000
,
0220
0000
0330
0000
0100
0001
1000
0001
,
0010
0001
2000
3000
2000
3000
0001
0100
,
1010
0000
0000
0000
0001
0000
0000
0001
0200
0000
0000
0000
0301
0000
1000
0000
,
0020
0000
0030
0000
0020
0000
1030
0000
0010
1000
0200
0000
0000
0300
0000
0000
,
0220
0000
0330
0000
0100
1000
0001
1000
,
0010
1000
0002
0003
0002
0003
1000
0100
,
0011
0000
0000
0000
1000
0000
0000
1000
0200
0000
0000
0000
0300
0000
0000
0000
,
1001
0000
0000
0000
0010
0000
1000
0000
0010
1000
0010
0000
1010
0000
0000
0000
,
0110
0000
0000
0000
0001
0000
0010
0000
0001
0010
0001
0000
0011
0000
0000
0000
,
1001
0000
0000
0000
0010
0000
0100
0000
0010
0100
0010
0000
2000
0000
3001
0000
,
0020
0000
0230
0000
1300
0020
0230
0302
,
0003
0000
0000
0000
1000
0000
0100
0000
1000
0100
1000
0000
1100
0000
0000
0000
,
0110
0000
0000
0000
0001
0000
0100
0000
0001
0100
0001
0000
0010
0000
0100
0000
,
2000
0200
3300
0020
0032
0103
0010
1000
,
0010
0100
0000
0000
0010
0000
0000
0000
0010
0000
0000
0000
0220
0000
0330
0000
,
0110
0000
0000
1000
0000
0000
1000
0000
0010
0000
0100
0000
0010
0000
0100
0000
,
0001
0000
0000
1001
0000
0000
1000
0000
0100
0000
0000
0000
0220
0000
0330
0000
,
0000
0000
0000
0001
0000
0000
0001
0000
0010
0000
0100
0000
0010
0000
0100
0000
,
1000
0000
0000
1001
0000
0000
0001
0000
0100
0000
0000
0000
0220
0000
0330
0000
,
0011
MMMM
1100
MMMM
,
1010
0000
MMMM
0000
0101
0000
0220
0330
,
1010
MMMM
0101
MMMM
,
0011
0000
MMMM
0000
0110
0000
0220
0330
,
0000
0000
0000
0100
1000
0100
0010
0100
,
0002
0000
0003
0002
0000
0003
0100
0000
0020
0000
0030
0000
0000
0000
0200
0000
,
0310
0000
0000
0010
0001
0010
0100
0010
,
2000
0000
3000
2000
0000
3000
0010
0000
0200
0000
0300
0000
0000
0000
0200
0000
,
0310
0000
0000
1000
0100
1000
0010
1000
,
0002
0000
0003
0002
0000
0003
1000
0000
0020
0000
0030
0000
0000
0000
0200
0000
,
0310
0000
0000
0001
1000
0001
0010
0001
,
1000
0100
0000
0000
1100
0000
0000
0000
0110
0000
0000
0000
0220
0000
0330
0000
,
2002
3000
0000
0103
0001
1000
0010
1000
,
0002
0000
0000
0003
0100
0010
1000
0001
,
0110
0001
1000
0100
0010
0001
1000
0001
,
0020
0000
0030
0000
0100
0010
0100
0010
0000
0000
0000
0000
0220
0000
0330
0000
,
2002
0003
0000
3100
1000
0001
0010
0001
,
2000
0000
0000
3000
0100
0010
0001
1000
,
0110
0001
0101
0010
0011
0001
1000
0001
,
0020
0000
0030
0000
,
0000
0000
0000
0000
,
0000
0000
0000
1000
0000
0000
1000
0000
0010
0000
0100
0000
0010
0000
0100
0000
,
0001
0000
0000
1001
0000
0000
1000
0000
0100
0000
0000
0000
0100
0000
0000
0000
,
0000
0000
0000
0001
0000
0000
0001
0000
0010
0000
0100
0000
0110
0000
0000
0000
,
1001
0000
0010
0001
1000
0100
0010
0000
,
0011
0000
0000
1000
0100
0000
1000
0000
1100
0000
0000
0010
0100
0000
0010
0000
,
0110
0000
0000
1000
0010
0000
1000
0000
1010
0000
0000
0001
0100
0000
0001
0000
,
0101
0000
0000
1000
0001
0000
1000
0000
1001
0000
0000
0010
0100
0000
0010
0000
,
0110
0000
0000
1000
0001
0000
1000
0000
1001
0000
0000
0000
0220
0000
0330
0000
,
0011
MMMM
0101
MMMM
1010
MMMM
1100
MMMM
,
0101
MMMM
0011
MMMM
1100
MMMM
1010
MMMM
,
0110
MMMM
0101
MMMM
0011
MMMM
0110
MMMM
,
1100
MMMM
0110
MMMM
1001
MMMM
0220
0330
;
