#VERSION:0.83;
#TITLE:Freaks;
#SUBTITLE:;
#ARTIST:Timmy Trumpet;
#TITLETRANSLIT:;
#SUBTITLETRANSLIT:;
#ARTISTTRANSLIT:;
#GENRE:;
#CREDIT:;
#MUSIC:Freaks.ogg;
#BANNER:Banner.png;
#BACKGROUND:Background.png;
#CDTITLE:;
#SAMPLESTART:0.000;
#SAMPLELENGTH:0.000;
#SELECTABLE:YES;
#OFFSET:-0.305;
#BPMS:0.000=128.000;
#STOPS:;
#BGCHANGES:-0.500=Freaks.mp4=1.000=0=0=1,
99999.000=-nosongbg-=1.000=0=0=0=StretchNoLoop====
;
#FGCHANGES:;

//--------------- dance-single - Ettenra ----------------
#NOTEDATA:;
#STEPSTYPE:dance-single;
#DESCRIPTION:Ettenra;
#DIFFICULTY:Beginner;
#METER:2;
#RADARVALUES:0,0,0,0,0;
#NOTES:
0000
0000
0000
0000
,
0000
0000
0000
0000
,
0000
0000
0010
0010
,
0010
0000
0100
0200
,
0300
0000
0010
0010
,
0010
0000
0100
0200
,
0300
0000
0010
0010
,
0010
0000
0100
0100
,
0000
1001
0000
0010
,
0000
0100
0000
1001
,
0000
0010
0000
0001
,
0000
1000
0000
1001
,
0000
1001
0000
0010
,
0000
0100
0000
1001
,
0000
0010
0000
0001
,
0000
1000
0000
2002
,
0000
0000
0000
0000
,
0000
0000
0000
0000
,
0000
0000
0000
0000
,
0000
0000
0000
0000
,
0000
0000
0000
0000
,
0000
0000
0000
0000
0000
3003
0000
0000
,
0000
0020
0000
0000
,
0030
0000
0000
0000
,
0000
1010
0000
0101
,
0000
1000
0000
1001
,
0000
0100
0000
0010
,
0000
0100
0000
0001
,
0000
0011
0000
1100
,
0000
0001
0000
1001
,
0000
0100
0000
0010
,
0000
0100
0000
2000
,
3000
0000
0010
0010
,
0010
0000
0100
0200
,
0300
0000
0010
0010
,
0010
0000
0100
0200
,
0300
0000
0010
0010
,
0010
0000
0100
0100
,
0000
1001
0000
0010
,
0000
0100
0000
1001
,
0000
0010
0000
0001
,
0000
1000
0000
1001
,
0000
1001
0000
0010
,
0000
0100
0000
1001
,
0000
0010
0000
0001
,
0000
0100
0000
1001
,
0000
0010
0000
0001
,
0000
1000
0000
2002
,
0000
0000
3003
0000
;

//--------------- dance-single - Ettenra ----------------
#NOTEDATA:;
#STEPSTYPE:dance-single;
#DESCRIPTION:Ettenra;
#DIFFICULTY:Easy;
#METER:3;
#RADARVALUES:0,0,0,0,0;
#NOTES:
0000
0000
0000
0000
,
0000
0000
0000
0000
,
0000
0100
0010
0010
,
0010
0000
1000
0200
,
0300
0100
0010
0010
,
0010
0000
0001
0200
,
0300
0100
0010
0010
,
0010
0000
1000
0200
,
0300
1001
0001
0010
,
0001
0100
0001
2002
,
3003
0020
0130
0001
,
0010
0001
1000
2002
,
3003
1001
0001
0010
,
0001
0100
0001
2002
,
3003
0020
0130
0001
,
0010
0001
1000
2002
,
0003
0001
0000
0100
,
0000
0000
0100
0010
,
0100
0002
3000
0100
,
0000
0000
0100
0010
,
0100
0010
0100
0010
,
0100
0010
0100
0010
,
0103
0002
0023
0230
,
2300
3010
1000
0110
,
0110
1010
1010
0101
,
0101
1000
0100
2002
,
3003
0000
0000
0000
0200
0000
0000
0300
0001
0000
0000
0000
0010
0000
0000
0000
,
0001
0100
0010
0002
,
0003
0011
0011
1100
,
1100
0001
0100
2002
,
3003
0000
0000
0000
0200
0000
0000
0300
1000
0000
0000
0000
0010
0000
0000
0000
,
1000
0010
0100
2000
,
0000
3100
0010
0010
,
0010
0000
1000
0200
,
0300
0100
0010
0010
,
0010
0000
0001
0200
,
0300
0100
0010
0010
,
0010
0000
1000
0200
,
0300
0100
0010
0010
,
0010
0000
0001
0200
,
0300
1001
0001
0010
,
0001
0100
0001
2002
,
3003
0020
0130
0001
,
0010
0001
1000
2002
,
3003
1001
0001
0010
,
0001
0100
0001
2002
,
3003
0020
0130
0001
,
0010
0001
1000
2002
,
0000
0000
3003
0000
;

//--------------- dance-single - Ettenra ----------------
#NOTEDATA:;
#STEPSTYPE:dance-single;
#DESCRIPTION:Ettenra;
#DIFFICULTY:Medium;
#METER:5;
#RADARVALUES:0,0,0,0,0;
#NOTES:
0000
0000
0000
0000
,
0000
0000
0000
0000
,
0000
0000
0200
0300
0010
0010
0010
0010
,
0010
0000
0000
0000
1000
0001
0200
0000
,
0300
0000
0200
0300
0010
0010
0010
0010
,
0010
0000
0000
0000
0001
1000
0200
0000
,
0300
0000
0200
0300
0010
0010
0010
0010
,
0010
0000
0000
0000
1000
0001
0200
0000
,
0300
0000
1001
0000
0001
0010
0001
0000
,
0001
0100
0001
0000
1000
0000
2002
3003
,
0000
0000
0020
0030
0100
0001
1000
0000
,
0010
1000
0001
0000
1000
0000
2002
0000
,
3003
0000
1001
0000
0001
0010
0001
0000
,
0001
0100
0001
0000
1000
0000
2002
3003
,
0000
0000
0020
0030
0100
0001
1000
0000
,
0010
1000
0001
0000
1000
0000
2002
0000
,
0003
0000
0001
0001
0000
0000
0100
0100
,
0000
0000
0100
0010
,
0100
0000
0001
0002
3000
0000
0100
0100
,
0000
0000
0100
0010
,
0100
0000
0010
0000
0100
0000
0020
0030
,
0200
0300
0020
0030
0200
0300
0020
0030
,
0200
0303
0001
0001
0010
0010
0100
0100
,
1000
1000
0010
1000
0001
0000
0220
0330
,
0220
0330
1010
0000
0101
0000
0011
0000
,
1100
0000
1000
0010
0100
0000
2002
0000
,
3003
0000
0000
0000
0200
0000
0000
0300
0001
0000
0010
0000
0001
0000
0010
0000
,
0001
0000
0000
1000
0100
0010
0002
0003
,
0010
0011
1100
1010
,
0101
0000
0001
0010
0100
1000
2002
0000
,
3003
0000
0000
0000
0200
0000
0000
0300
1000
0000
0010
0000
1000
0000
0010
0000
,
1000
0000
0001
0010
0100
0010
0002
0000
,
0000
0000
0203
0300
0010
0010
0010
0010
,
0010
0000
0000
0000
1000
0001
0200
0000
,
0300
0000
0200
0300
0010
0010
0010
0010
,
0010
0000
0000
0000
0001
1000
0200
0300
,
0010
0000
0200
0300
0010
0010
0010
0010
,
0010
0000
0000
0000
1000
0001
0200
0000
,
0300
0000
0200
0300
0010
0010
0010
0010
,
0010
0000
0000
0000
0001
1000
0200
0300
,
0010
0000
1001
0000
0001
0010
0001
0000
,
0001
0100
0001
0000
1000
0000
2002
3003
,
0000
0000
0010
0000
0100
0001
1000
0000
,
0010
1000
0001
0000
1000
0000
2002
3003
,
0010
0000
1001
0000
0001
0010
0001
0000
,
0001
0100
0001
0000
1000
0000
2002
3003
,
0000
0000
0010
0000
0100
0001
1000
0000
,
0010
1000
0001
0000
1000
0000
2002
0000
,
0000
0000
3003
0000
;

//--------------- dance-single - Ettenra ----------------
#NOTEDATA:;
#STEPSTYPE:dance-single;
#DESCRIPTION:Ettenra;
#DIFFICULTY:Hard;
#METER:7;
#RADARVALUES:0,0,0,0,0;
#NOTES:
0000
0000
0000
0000
,
0000
0000
0000
0000
,
0000
0000
0000
0000
0100
0000
0000
0001
0010
0000
0010
0000
0010
0000
0010
0000
,
0010
0001
0010
0001
1000
0001
0200
0000
,
0300
0000
0000
0000
0100
0000
0000
1000
0010
0000
0010
0000
0010
0000
0010
0000
,
0010
1000
0010
1000
0001
1000
0200
0000
,
0300
0000
0000
0000
0100
0000
0000
0001
0010
0000
0010
0000
0010
0000
0010
0000
,
0010
0001
0010
0001
1000
0001
0200
0000
,
0300
0010
1001
0000
0001
0010
0001
1000
,
0001
0100
0001
1000
0001
1000
2002
3003
,
0000
0000
0000
0000
0010
0000
0000
1000
0100
0000
1000
0000
0001
0000
1000
0000
,
0010
1000
0001
1000
0001
1000
2002
0000
,
3003
0010
1001
0000
0001
0010
0001
1000
,
0001
0100
0001
1000
0001
1000
2002
3003
,
0000
0000
0000
0000
0010
0000
0000
1000
0100
0000
1000
0000
0001
0000
1000
0000
,
0010
1000
0001
1000
0001
1000
2002
0000
,
0003
0000
0001
0001
0000
0000
0100
0100
,
0000
0000
0000
0000
0100
0001
0010
0000
,
0100
0000
0001
0002
3000
0000
0100
0100
,
0000
0000
0000
0000
0100
1000
0010
0000
,
0100
0000
0010
0000
0100
0000
0020
0030
,
0200
0300
0020
0030
0200
0300
0020
0030
,
0200
0303
0001
0001
0010
0010
0100
0100
,
1000
0001
1000
0001
0010
0000
0001
0000
1000
0000
0010
0000
0220
0000
0330
0000
,
0220
0330
1010
0000
0101
0000
0011
0000
,
1100
0000
1000
0010
0100
0001
2002
0000
,
3003
0000
0000
0000
0200
0000
0000
1300
0001
0000
0010
0000
0001
0000
0010
0000
,
0001
0100
0010
1000
0100
0010
0002
0003
,
0110
0011
1100
1010
,
0101
0000
0001
0010
0100
1000
2002
0000
,
3003
0000
0000
0000
0200
0000
0000
0301
1000
0000
0010
0000
1000
0000
0010
0000
,
1000
0100
0010
0001
0100
0010
2000
0000
,
0000
0000
0000
0000
3100
0000
0000
0001
0010
0000
0010
0000
0010
0000
0010
0000
,
0010
0001
0010
0001
1000
0001
0200
0000
,
0300
0000
0000
0000
0100
0000
0000
1000
0010
0000
0010
0000
0010
0000
0010
0000
,
0010
1000
0010
1000
0001
1000
0200
0300
,
0110
0000
0000
0000
0100
0000
0000
0001
0010
0000
0010
0000
0010
0000
0010
0000
,
0010
0001
0010
0001
1000
0001
0200
0000
,
0300
0000
0000
0000
0100
0000
0000
1000
0010
0000
0010
0000
0010
0000
0010
0000
,
0010
1000
0010
1000
0001
1000
0200
0300
,
0110
0010
1001
0000
0001
0010
0001
1000
,
0001
0100
0001
1000
0001
1000
2002
3003
,
0000
0000
0000
0000
0010
0000
0000
1000
0100
0000
1000
0000
0001
0000
1000
0000
,
0010
1000
0001
1000
0001
1000
2002
3003
,
0110
0010
1001
0000
0001
0010
0001
1000
,
0001
0100
0001
1000
0001
1000
2002
3003
,
0000
0000
0000
0000
0010
0000
0000
1000
0100
0000
1000
0000
0001
0000
1000
0000
,
0010
1000
0001
1000
0001
1000
2002
0000
,
0000
0000
3003
0000
;
