#VERSION:0.83;
#TITLE:FIESTA;
#SUBTITLE:;
#ARTIST:IZ*ONE;
#TITLETRANSLIT:;
#SUBTITLETRANSLIT:;
#ARTISTTRANSLIT:;
#GENRE:;
#CREDIT:;
#MUSIC:FIESTA.mp3;
#BANNER:FIESTA.png;
#BACKGROUND:Background.png;
#CDTITLE:;
#SAMPLESTART:63.793;
#SAMPLELENGTH:10.000;
#SELECTABLE:YES;
#OFFSET:-0.134;
#BPMS:0.000=123.000;
#STOPS:;
#BGCHANGES:-0.400=Fiesta.mp4=1.000=0=0=1,
99999.000=-nosongbg-=1.000=0=0=0=StretchNoLoop====
;
#FGCHANGES:;

//--------------- dance-single - Ettenra ----------------
#NOTEDATA:;
#STEPSTYPE:dance-single;
#DESCRIPTION:Ettenra;
#DIFFICULTY:Beginner;
#METER:2;
#RADARVALUES:0,0,0,0,0;
#NOTES:
0000
0000
0000
0000
,
0000
0000
0000
0000
,
0000
0000
1000
0000
,
0001
0000
1000
0000
,
0001
0000
0000
1001
,
0000
0000
0001
0000
,
1000
0000
0001
0000
,
1000
0000
0000
0000
,
0000
0010
0000
0100
,
0000
0010
0000
0100
,
0000
0000
0000
1000
,
1000
0000
0001
0001
,
0000
0000
0110
0000
,
0001
0000
0010
0000
,
0001
0000
0100
0000
,
0010
0010
0010
0000
,
0000
0100
0100
0100
,
0000
0010
0000
0001
,
0000
0100
0000
0010
,
0000
1000
0000
0010
,
0000
0000
0000
0010
,
0000
1000
0000
0001
,
0000
0010
0010
0000
,
0100
0100
0000
0010
,
0000
0000
0000
2002
,
3003
0000
0000
0220
,
0330
0000
1001
1001
,
0000
0000
0001
0000
,
1000
0000
0000
1000
,
0000
1000
0000
0001
,
0000
0001
0000
0100
,
0000
0010
0000
0000
,
2002
0000
3003
0000
,
0000
0000
1001
1001
,
0000
1000
0000
0001
,
0000
1000
0000
0001
,
0000
0100
0000
0010
,
0000
0100
0000
0000
,
0110
0000
0000
0001
,
0001
0001
0000
0100
,
0100
0000
0100
0000
,
0000
0000
0000
0001
,
0000
0000
0000
0010
,
0000
0000
0000
0100
,
0000
0000
0000
1000
,
0000
0000
0000
1000
,
0000
0001
0000
1000
,
0000
0100
0100
0000
,
0110
0000
0010
0010
,
0000
0000
2002
0000
,
0000
3003
0000
0100
,
0000
0000
1000
0000
,
1001
1001
0000
1000
,
1000
0000
0100
0100
,
0000
0100
0000
1000
,
0000
0001
0000
0000
,
1001
0000
0000
0100
,
0100
0100
0000
1000
,
0000
0001
0000
1000
,
0000
0001
0000
1001
,
0000
0000
2000
0000
,
0002
3003
0000
0010
,
0000
0100
0000
0010
,
0000
1000
0000
1000
,
0000
0010
0010
0000
,
0100
0100
0000
0100
,
0000
0010
0000
0010
,
0000
0000
0100
0000
;

//--------------- dance-single - Ettenra ----------------
#NOTEDATA:;
#STEPSTYPE:dance-single;
#DESCRIPTION:Ettenra;
#DIFFICULTY:Easy;
#METER:3;
#RADARVALUES:0,0,0,0,0;
#NOTES:
0000
0000
0000
0000
,
0000
0000
0000
0000
,
0000
0000
0000
0000
,
0001
0000
0010
0000
,
0100
1000
0100
1100
,
0000
0000
0001
0000
,
0010
0000
0100
0000
,
1000
0000
0000
0001
,
0000
0000
0010
0000
0001
0000
0200
0300
,
0000
1000
0001
2000
,
3000
0100
0000
0001
,
0010
1000
0001
0010
,
0010
1000
2200
3300
,
0001
0000
0010
0000
,
0001
0010
0100
2000
,
3010
0010
0010
0000
,
0000
0100
0100
0100
,
0000
0010
0001
0010
,
0000
0100
0001
0000
,
0010
1000
0000
0000
,
0000
0110
0001
0010
,
0100
1000
0001
0000
,
0000
0010
0010
0000
,
0100
0100
0000
0010
,
0000
0000
0000
2002
,
0000
3003
0000
0220
,
0000
0330
1000
1001
,
0001
0000
0001
0000
,
1000
0000
1000
1001
,
0010
1001
0100
0110
,
0010
0110
0000
0100
,
0001
0010
0001
0000
,
2002
0000
3003
0000
,
0000
0000
1000
1001
,
0001
1001
0010
1001
,
0010
1000
0010
0000
,
0001
0110
1000
0110
,
0020
1030
0000
0100
,
0110
0010
0000
0001
,
1001
1000
0000
0100
,
0100
0000
0010
0000
,
0000
0000
0100
0001
,
0000
0001
1000
0000
,
0010
1000
0000
0010
,
2000
0000
3000
0010
,
0002
0100
0010
1003
,
0100
0000
0000
0000
0010
0000
0000
0000
0002
0000
0000
0000
0000
0000
0000
0003
,
0000
1001
1001
0000
,
0110
0002
0203
0300
,
0000
0000
2002
0000
,
0000
3003
0000
0100
,
0000
0000
1000
0000
,
1001
1001
0010
1000
,
1001
0001
0100
0100
,
1000
0101
0010
0000
,
1000
0002
0003
0010
,
2002
0000
0000
3003
0000
0000
0010
0000
,
0100
0200
0300
1000
,
0001
1000
0200
0000
,
0300
0001
0000
1001
,
0000
0000
2000
0000
,
3002
0000
2003
3000
,
0002
0003
0000
0100
,
0010
0000
0000
0000
1002
0000
0000
0000
0000
0000
0000
0003
2000
0000
0000
0000
,
3000
0020
0030
0000
,
0100
2200
3300
0022
,
0033
0010
0000
0010
,
0000
0000
0100
0000
;

//--------------- dance-single - Ettenra ----------------
#NOTEDATA:;
#STEPSTYPE:dance-single;
#DESCRIPTION:Ettenra;
#DIFFICULTY:Medium;
#METER:5;
#RADARVALUES:0,0,0,0,0;
#NOTES:
0000
0000
0000
0000
,
0000
0000
0000
2000
3000
0002
0003
0000
,
0000
0000
0000
0200
0300
0020
0030
0000
,
0000
0000
0000
2000
3000
0020
0030
0000
,
0000
0000
1000
0100
0010
0001
0000
0000
,
0000
0000
0000
0200
0300
2000
3000
0000
,
0000
0000
0000
0020
0030
0200
0300
0000
,
0000
0000
0000
0002
0003
2000
3001
0000
,
0000
0001
0010
0000
0000
1000
0200
0300
,
0000
0100
1000
0001
1000
0020
0030
2000
,
3000
1000
0100
0000
0000
0000
0002
0003
,
0020
0000
0030
2000
0000
0000
3000
0000
0001
0000
0100
0000
0010
0000
0000
0000
,
0010
0100
1000
0000
2200
0000
3300
0010
,
0001
1000
0000
0000
0010
1000
0000
0000
,
0001
0010
0100
0000
0000
0100
1000
0000
,
0010
0001
0010
0001
0010
0200
0300
2000
,
3000
0100
1000
0000
1100
0000
1010
0000
,
0000
1000
0010
0100
0001
0000
0000
0000
,
0000
0100
0001
0000
0010
0001
0010
0000
,
0100
1000
0100
0000
0010
0001
0010
0000
,
0000
0000
0110
0000
0001
0010
0100
1000
,
0000
0000
0001
0000
0010
0000
0100
0000
1000
0000
0000
1000
0000
0000
1000
0000
,
0000
0100
0010
0001
0010
0100
0000
1000
,
0010
0000
1000
0000
0000
0000
1010
0000
0000
0000
0100
0000
0020
0000
0000
0030
,
0000
2000
0000
3000
0000
0000
1001
0000
,
0000
1001
0000
1000
0100
0010
0220
0000
,
0000
0000
0330
0001
1000
0001
1001
0000
,
0000
0000
0000
1000
0002
0000
0003
0000
,
1000
0020
0000
0030
0000
0000
1001
0000
,
0010
1001
0100
0110
,
0001
0000
0110
0000
0000
1000
0100
0000
,
0001
0000
0000
0000
0010
0000
0000
0000
0001
0000
0200
0000
0000
0300
0002
0000
,
2000
0000
0000
3003
0000
1000
0100
0000
,
0000
0001
0000
0001
1000
0000
1001
0000
,
0001
1001
0010
1001
,
0001
1000
0001
0000
0000
0000
0110
0000
,
0001
0110
1000
0110
,
1000
0000
2000
0000
3000
0000
0100
0010
,
0100
0000
0001
1000
0001
0000
0010
0100
,
0010
0000
0000
0000
0000
0100
1000
0100
,
1000
0100
0000
0100
0010
0001
0000
0002
,
0020
0003
0200
0030
0000
0300
0000
0000
2000
0000
0000
0000
3000
0000
0200
0000
,
0000
0300
0010
0000
0001
0000
0010
0000
0001
0000
0010
0000
0000
0000
0000
0000
,
0010
0002
0000
0000
1003
0001
0010
0100
,
1000
0200
0000
0300
0000
1000
0010
0100
,
0002
0000
0000
0003
0100
0000
0100
0000
0010
0000
2000
0000
0000
0000
0000
3000
,
0000
0000
0010
0000
0010
0000
0100
0000
0002
0000
0000
0000
0000
0000
0000
0003
,
0000
1000
0100
1000
0100
1000
0000
0010
,
0020
0000
0030
0000
0002
0000
0020
0003
0200
0030
2000
0300
0000
3000
2000
0000
,
0000
3001
0000
0100
0220
0330
2002
0000
,
0000
0000
3003
0000
0000
1000
0100
0000
,
0000
0000
0002
0000
0000
0000
0000
0003
1000
0000
0000
0010
0000
0000
0000
0000
,
1001
1001
0000
0000
,
0001
1000
0001
0000
0100
0010
0100
0000
,
1000
0000
0101
0000
0010
0000
0000
0010
,
1000
0000
0002
0000
0003
0000
0010
0100
,
2002
0000
0000
3003
0000
0010
0001
0010
,
0100
0000
0100
0000
0000
0200
0000
0300
0000
0000
0010
0000
1000
0000
0001
0000
,
1000
0100
0000
0001
0100
0002
0000
0000
,
0003
1000
0001
0000
0000
0100
1001
0000
,
0000
0000
0000
0000
0000
0000
0000
0000
0010
0000
2000
0000
0000
0000
0001
3000
,
0200
0000
0000
0000
0000
0300
0000
0000
2000
0000
3020
0000
0030
0000
0010
0000
,
0002
0200
0303
0101
0000
0001
0100
0000
,
0010
0000
0000
0000
1002
0000
0000
0000
0000
0000
1000
0003
2000
0000
0020
0000
,
3000
0030
0020
0000
0030
0010
0000
0100
,
0100
0000
1000
0000
2200
0000
3300
0000
0000
0000
0022
0000
0000
0000
0000
0033
,
0000
0001
0010
0000
0000
0100
0010
0000
,
0000
0000
0100
0000
;

//--------------- dance-single - Ettenra ----------------
#NOTEDATA:;
#STEPSTYPE:dance-single;
#DESCRIPTION:Ettenra;
#DIFFICULTY:Hard;
#METER:7;
#RADARVALUES:0,0,0,0,0;
#NOTES:
0000
0000
0000
0000
,
0000
0000
0000
2000
3000
0002
0003
0000
,
0000
0000
0000
0200
0300
0020
0030
0000
,
0000
0000
0000
2000
3000
0020
0030
0000
,
0000
0000
1000
0100
0010
0001
0011
0000
,
0000
0000
0000
0200
0300
2000
3000
0000
,
0000
0000
0000
0020
0030
0200
0300
0000
,
0000
0000
0000
0002
0003
2000
3001
0000
,
0000
0000
0001
0000
0010
0000
0000
0100
0000
0000
1000
0000
0100
2000
0000
3000
,
0000
0100
1000
0001
1000
0020
0030
2000
,
3000
0000
1000
0000
0100
0000
0000
0010
0000
0000
0001
0000
0001
0000
0010
0000
,
0010
0000
0000
2000
0000
0000
3000
0000
0001
0000
0100
0000
0010
0000
1000
0000
,
0010
0000
1000
0200
0000
0300
0000
0000
2200
0000
0000
0000
3300
0000
0010
0000
,
0001
0000
1000
0100
0000
0002
0000
0000
0010
0000
1003
0000
0000
0000
0000
0000
,
0001
0000
0010
0000
0100
0000
0000
2000
0000
3000
0200
0000
2300
0000
3000
0000
,
0001
0000
0010
0000
0001
0000
0010
0000
0001
0000
2000
0000
0000
3000
0200
0000
,
0300
1000
0100
0000
1100
0000
1010
1000
,
0000
0000
1000
0000
0010
0000
0100
0000
0001
0000
0000
0010
0000
0100
0010
0000
,
0000
0000
0100
0000
0100
0000
0000
0000
0001
0000
0001
0100
0000
0000
0010
0000
,
0010
0000
0010
0100
0000
0000
1000
0000
2000
0000
0000
3000
0000
0000
0100
0000
,
0000
0010
0110
0000
0001
0010
0100
1000
,
0000
0000
0001
0000
0010
0000
0100
0000
1000
0000
0100
0010
0000
0100
0020
0000
,
0030
0100
0010
0001
0010
0100
0000
1000
,
0010
0000
1000
0000
0000
0000
1010
0000
0000
0000
0100
0000
0010
0000
0000
0001
,
0000
0000
0002
0000
0000
0000
0013
0000
0100
0000
1000
0000
2002
0000
0000
3003
,
0000
0000
2002
0000
0000
3003
1000
0000
0100
0000
0010
0000
0220
0000
0000
0000
,
0330
0000
0000
0220
0000
0330
0001
0000
1000
0000
0001
0000
1001
0000
0000
0000
,
1000
0000
0000
0000
0000
0000
0100
0000
0000
0010
0000
0000
0000
0000
0000
0000
0000
0000
1000
0000
0000
0000
0000
0000
0001
0000
0000
0000
0000
0000
0100
0000
0000
0001
0000
0000
0000
0000
0000
0000
0100
0000
0000
0000
0000
0000
0000
0000
,
1000
0000
0000
0000
0000
0000
0100
0000
0000
1000
0000
0000
0000
0000
0000
0000
0100
0000
0000
0000
0000
0000
0000
0000
2000
0000
0000
0000
0000
0000
3000
0000
0000
0000
0000
0000
1001
0000
0000
0000
0000
0000
0000
0000
0000
0000
0000
0000
,
0010
1001
0100
0110
,
0001
0000
0110
0000
0000
1000
0100
0000
,
0001
0000
0000
0000
0010
0000
0000
0000
0001
0000
0200
0000
0000
0300
0002
0000
,
2000
0000
0000
0000
0000
0000
0000
0000
3003
0000
1000
0000
0100
0000
0000
0010
,
0000
0000
0002
0000
0000
0003
0001
0000
1000
0000
0001
0020
0000
0000
0000
0030
,
0001
0100
0000
0002
0000
0003
0000
0000
0010
0001
0000
0010
0000
0000
0010
0000
,
0001
0000
1000
0000
0001
0000
0100
0000
0010
0000
0001
1000
0000
0000
0000
0000
,
1000
0001
0000
2000
0000
0000
0000
0000
0001
0000
0000
0002
3000
0000
2000
0003
,
0020
0000
3000
0000
0230
0000
0000
0300
0000
0000
0000
0000
0100
0000
0010
0000
,
0100
0000
0000
0000
0000
0001
0001
0001
,
1000
0000
1000
0000
0000
2002
0000
0000
3003
0000
0100
0000
1000
0000
0010
0000
,
0100
0001
0000
0010
0100
1000
0000
0002
,
0020
0003
0200
0030
0000
0300
0000
0000
0100
1000
0000
0100
0000
0000
0200
0000
,
0000
0300
0010
0000
0001
0000
0010
0000
1000
0000
0010
0000
0000
0100
0000
0000
,
0010
0002
0000
0000
1003
0001
0010
0100
,
1000
0000
1100
0000
0000
0110
0000
0011
0000
0000
1000
0000
0010
0000
0100
0000
,
0002
0000
0000
0003
0100
0000
0100
0000
0010
0000
2000
0100
0000
0000
0100
3000
,
0000
0000
0010
0000
0010
0000
0100
0000
0002
0010
0000
0010
0000
0000
0010
0003
,
0000
0100
0001
0100
0010
0100
0000
0110
,
0220
0000
0330
0000
0002
0000
0020
0003
0200
0030
2000
0300
0000
3000
2000
0000
,
0000
3001
0000
0100
0220
0330
2002
0000
,
0000
0000
0000
0000
3003
0000
0000
0000
0000
0000
1000
0000
0100
0000
0000
0010
,
0000
0000
0000
0000
0000
0000
0002
0000
0000
0000
0000
0000
0000
0000
0000
0000
1000
0000
0000
0000
0000
0003
0000
0000
1000
0000
0000
0000
0000
0000
0100
0000
0000
0010
0000
0000
0000
0000
0000
0000
0000
0000
0000
0000
0000
0000
0000
0000
,
1001
0000
0000
0000
1001
0000
0000
0000
0001
0010
0000
0100
0000
1000
0000
0000
,
0001
0000
1000
0000
0001
0000
0010
0000
0100
0000
0010
0100
0000
0000
0000
0000
,
2000
3000
0000
2020
0000
3030
0000
0000
0020
0030
0000
0200
0000
0000
0010
0000
,
0310
0000
0000
0000
0001
0000
0100
0000
0000
1000
0000
0000
0010
0000
0100
0000
,
1001
0000
0020
0000
0030
0200
0000
0000
0300
0000
0010
0000
0010
0000
0010
0000
,
0100
0000
0100
0000
0000
0202
0000
0303
0000
0000
0010
0000
1000
0000
0001
0000
,
1000
0100
0000
0001
0100
0002
0000
0000
,
0003
0000
1000
0000
0001
0000
0000
0010
0000
0000
0100
0000
1001
0000
0000
0000
,
0000
0000
0000
0000
0000
0000
0000
0000
0010
0000
2000
0000
0000
0000
0001
3000
,
0200
0000
0000
0000
0000
0300
0000
0000
2000
0000
3020
0000
0030
0000
0010
0000
,
0002
0200
0303
0101
0000
0001
0100
0000
,
0010
0000
0000
0000
1002
0000
0000
1000
0000
0000
1000
0003
2000
0000
0010
0000
,
3000
0001
0000
0000
0010
0000
0000
1000
0000
0000
0010
0000
0000
0000
0100
0000
,
0100
0000
1000
0000
1000
0000
0000
1001
0000
0000
0002
0000
0000
0000
0000
0003
,
0000
0000
0001
0000
0010
0000
0000
1000
0000
0000
0100
0000
0010
0000
0000
0000
,
0000
0000
0100
0000
;

//--------------- dance-single - Ettenra ----------------
#NOTEDATA:;
#STEPSTYPE:dance-single;
#DESCRIPTION:Ettenra;
#DIFFICULTY:Challenge;
#METER:8;
#RADARVALUES:0,0,0,0,0;
#NOTES:
0000
0000
0000
0000
,
0000
0000
0000
2000
3000
0002
0003
0100
,
0010
0000
0010
0000
0100
0010
0200
0000
0300
0000
0020
0000
0030
0000
0100
0000
,
0001
0000
0001
0000
0100
0001
2000
0000
3000
0000
0020
0000
0030
0000
0001
0000
,
1000
0000
1000
0000
1000
0100
0010
0001
1000
0100
0010
0001
0011
0000
0100
0000
,
0010
0000
0010
0000
0100
0010
0200
0000
0300
0000
2000
0000
3000
0000
0010
0000
,
1000
0000
1000
0000
0010
1000
0020
0000
0030
0000
0200
0000
0300
0000
0001
0000
,
0010
0000
0010
0000
0001
0010
0002
0000
0003
0000
2000
0000
3001
0000
0000
0001
,
0000
0000
0001
0000
0010
0000
0000
0100
0000
0000
1000
0000
0100
2000
0000
3000
,
0000
0100
1000
0001
1000
0020
0030
2000
,
3000
0000
1000
0000
0100
0000
0000
0010
0000
0000
0001
0000
0001
0000
0010
0000
,
0010
0100
0000
2000
0000
0000
3000
0000
0001
0000
0100
0000
0010
0000
1000
0000
,
0010
0000
1000
0100
0000
0200
0300
0000
2200
0000
0000
0000
3300
0000
0010
0000
,
0001
0000
1000
0100
0000
0002
0000
0000
0010
0000
1003
0000
0000
0000
0000
0000
,
0001
0000
0010
0000
0100
0000
0000
2000
0000
3000
0200
0000
2300
0000
3000
0000
,
0001
0000
0010
0000
0001
0000
0010
0000
0001
0000
2000
0000
0000
3000
0200
0000
,
0300
0000
1000
0000
0100
0000
0000
0000
0001
0100
0010
1000
0000
0000
1000
0000
,
0000
0000
1000
0000
0010
0000
0100
0000
0001
0000
0001
0010
0000
0010
0100
0000
,
0000
0000
0100
0000
1100
0000
0000
0000
0001
0000
0001
0100
0000
0000
0010
0000
,
0010
0000
0010
0100
0000
0000
1000
0000
1000
0000
0100
0020
0000
0000
0130
0000
,
0000
0000
0010
0000
0110
0000
0000
0000
0001
0010
0100
2000
0000
3000
1000
0000
,
0000
0000
0010
0000
0100
0000
1000
0000
0001
0000
0100
0010
0000
0100
0020
0000
,
0030
1000
0010
0100
0010
1000
0000
0100
,
1000
0000
0100
0000
0000
0000
1100
0000
0000
0000
0100
0000
0010
0000
0000
0001
,
0000
0000
0002
0000
0000
0000
0013
0000
0100
0000
1000
0000
2002
0000
0000
3003
,
0000
0000
1001
0000
0000
0000
1000
0000
0100
0000
0010
0000
0220
0300
0000
0000
,
0100
0000
0000
0200
0000
0330
0001
0000
1000
0000
0001
0000
1001
0000
0000
0000
,
1000
0000
0000
0000
0000
0000
0100
0000
0000
0010
0000
0000
0000
0000
0000
0000
0000
0000
1000
0000
0000
0000
0000
0000
0001
0000
0000
0000
0000
0000
0100
0000
0000
0001
0000
0000
0000
0000
0000
0000
0101
0000
0000
0000
0000
0000
0000
0000
,
1000
0000
0000
0000
0000
0000
0100
0000
0000
1000
0000
0000
0000
0000
0000
0000
1100
0000
0000
0000
0000
0000
0000
0000
1000
0000
0000
0010
0000
0000
0000
0000
0000
0000
0000
0000
1001
0000
0000
0000
0000
0000
0001
0000
0000
1000
0000
0000
,
0000
0200
0000
0300
1001
0000
0000
0000
0100
0020
0000
0030
0110
0000
0001
0100
,
0000
1000
0000
2020
0000
0000
0000
3030
0000
0000
1000
0000
0100
0000
0000
0000
,
0001
0000
0000
0000
0010
0000
0000
0000
0001
0000
0200
0000
0000
0300
0004
0000
,
4000
0000
0000
0000
0000
0000
0000
0000
3003
0000
1000
0000
0100
0000
0000
0010
,
0000
0000
0002
0000
0000
0003
0001
0000
1000
0000
0001
0020
0000
0000
0000
0030
,
0001
0100
0000
0002
0000
0003
0000
0000
0010
0001
0000
0010
0000
0000
0010
0000
,
0001
0000
1000
0000
0001
0000
0100
0000
0010
0000
0001
1000
0000
0000
0000
0000
,
1000
0001
0000
2000
0000
0000
0000
0000
0001
0001
0000
0002
3000
0000
2000
0003
,
0020
0000
3000
0000
1030
0100
0010
0001
0000
0002
0000
0000
0100
0003
0010
0000
,
0100
0000
0100
0010
0000
0002
0000
0003
0000
0000
0001
0010
0001
0000
0001
0000
,
1000
0000
1000
0001
0000
2002
0000
0000
3003
0000
0100
0000
1000
0000
0010
0000
,
0100
0001
0000
0010
0100
1000
0000
0002
,
0020
0003
0200
0030
0000
0300
0000
0000
0100
1000
0000
0100
0000
0000
0200
0000
,
0000
0300
0010
0000
0001
0000
0010
0000
1000
0000
0010
0000
0000
0100
0000
0000
,
0010
0002
0000
0000
1003
0001
0010
0100
,
1000
0000
1100
0000
0000
0110
0000
0011
0000
0000
1000
0000
0010
0000
0100
0000
,
0002
0000
0000
0003
0100
0000
0100
0000
0010
0000
2000
0100
0000
0000
0100
3000
,
0000
0000
0010
0000
0010
0000
0100
0000
0002
0010
0000
0010
0000
0000
0010
0003
,
0000
0000
0100
0000
0001
0000
0100
0000
1000
0000
0100
0010
0000
0000
0110
0000
,
0220
0000
0330
0000
0002
0000
0020
0003
0200
0030
2000
0300
0000
3000
2000
0000
,
0000
3001
0000
0100
0220
0330
2002
0000
,
0000
0000
0000
0000
3003
0000
0000
0000
0000
0000
1000
0000
0100
0000
0000
0010
,
0000
0000
0000
0000
0000
0000
0002
0000
0000
0000
0000
0000
0000
0000
0000
0000
1000
0000
0000
0000
0000
0003
0000
0000
1000
0000
0000
0000
0000
0000
0100
0000
0000
0010
0000
0000
0000
0000
0000
0000
0000
0000
0000
0000
0000
0000
0000
0000
,
1001
0000
0000
0000
1001
0000
0000
0000
0001
0010
0000
0100
0000
1000
0000
0000
,
0001
0000
1000
0000
0001
0000
0010
0000
0100
0000
0010
0100
0000
0000
0000
0000
,
1000
0010
0000
2020
0000
3030
0000
0000
0010
1000
0000
0200
0000
0000
0010
0000
,
1300
0000
0000
0000
0001
0010
0100
1000
0000
1000
0000
0000
0010
0000
0100
0000
,
1001
0000
0010
0100
0000
0200
0000
0000
0300
0000
1000
0001
1000
0000
0001
0000
,
0100
0000
0001
0100
0000
0202
0000
0303
0000
0000
0010
0000
1000
0000
0001
0000
,
1000
0100
0000
0001
0100
0002
0000
0000
,
0003
0000
1000
0000
0001
0000
0000
0010
0000
0000
0100
0000
1001
0000
0001
0010
,
0100
0000
0100
0010
0000
0001
0000
0000
0000
0000
0000
0000
0000
0000
0001
0010
,
0100
0000
0100
0010
0000
0001
0000
0000
2000
0000
3020
0000
0030
0000
0010
0000
,
0002
0200
0303
0101
0000
0001
0100
0000
,
0010
0000
0000
0000
1002
0000
0000
1000
0000
0000
1000
0003
2000
0000
0010
0000
,
3000
0001
0000
0000
0010
0000
0000
1000
0000
0000
0010
0000
0000
0000
0100
0000
,
0100
0000
1000
0000
1000
0000
0000
1001
0000
0000
0002
0000
0000
0000
0000
0003
,
0000
0000
0001
0000
0010
0000
0000
1000
0000
0000
0100
0000
0010
0000
0001
0010
,
0100
0000
0100
0010
0000
0001
0000
0000
0100
0000
0000
0000
0000
0000
0000
0000
;
