#VERSION:0.83;
#TITLE:Drama;
#SUBTITLE:;
#ARTIST:aespa;
#TITLETRANSLIT:;
#SUBTITLETRANSLIT:;
#ARTISTTRANSLIT:;
#GENRE:;
#CREDIT:;
#MUSIC:Drama.ogg;
#BANNER:Banner.png;
#BACKGROUND:Background.png;
#CDTITLE:;
#SAMPLESTART:0.000;
#SAMPLELENGTH:0.000;
#SELECTABLE:YES;
#OFFSET:-0.010;
#BPMS:0.000=130.945;
#STOPS:;
#BGCHANGES:-0.100=Drama.mp4=1.000=0=0=1,
99999.000=-nosongbg-=1.000=0=0=0=StretchNoLoop====
;
#FGCHANGES:;

//--------------- dance-single - Ettenra ----------------
#NOTEDATA:;
#STEPSTYPE:dance-single;
#DESCRIPTION:Ettenra;
#DIFFICULTY:Beginner;
#METER:2;
#RADARVALUES:0,0,0,0,0;
#NOTES:
0000
0000
0000
0000
,
0000
0000
0002
0003
,
0002
0003
0000
0000
,
0000
0220
0000
0330
,
0000
1000
0000
0100
,
0000
0001
0000
0100
,
0000
1000
0000
0010
,
0000
0001
0000
0100
,
0000
1100
0000
0011
,
0000
1100
0000
0011
,
0000
0110
0000
1000
,
0000
1000
0000
1100
,
0000
0000
0000
0000
0010
0000
0000
0000
0000
0000
0000
0000
0020
0000
0000
0030
,
0000
0100
0000
0010
,
0000
0000
0000
0000
0001
0000
0000
0000
0000
0000
0000
0000
0020
0000
0000
0030
,
0000
1000
0000
1000
,
0000
1001
0000
0100
,
0000
1000
0000
1000
,
0000
0010
0000
0010
,
0000
0000
0010
0000
0000
0000
0002
0003
,
0000
0000
0000
0000
0020
0000
0000
0030
0000
0000
0000
0000
0000
0000
0000
0000
,
0200
0000
0300
0001
,
0000
0010
0000
0100
,
0000
0010
0000
0100
,
0000
0000
0000
0000
0002
0000
0000
0000
0000
0003
0000
0000
0000
0000
0000
0000
,
2000
0000
0000
3000
0000
0000
0010
0000
,
0000
0010
0000
1000
,
0000
0002
0000
2000
,
0000
3003
0000
0000
,
0000
0110
0000
0100
,
0000
0110
0000
0100
,
0000
0022
0033
0000
,
2020
0000
3030
0000
0000
0000
0200
0300
,
0000
0110
0000
0100
,
0000
0110
0000
0100
,
0000
0022
0033
0000
,
0000
0000
0000
0000
,
0000
1100
0000
0100
,
0000
0011
0000
0100
,
0000
0202
0303
0000
,
2200
3300
0000
0000
,
0000
1100
0000
0100
,
0000
0011
0000
0100
,
0000
0202
0303
0000
,
0100
0000
0001
0000
,
0000
0000
0000
0000
,
0000
0002
0003
0020
,
0030
0002
0003
0200
,
0300
2000
0000
0000
,
0000
0000
3000
0010
,
0000
2002
0000
0000
,
0000
0000
0000
0000
0000
0000
0000
0000
0000
0000
0000
0000
0000
0000
0000
0000
0000
3003
0000
0000
0000
0000
0000
0000
0000
0000
0000
0000
0000
0000
0000
0000
0000
0000
0000
0000
0000
0000
0000
0000
0000
0000
0000
0000
0000
0000
0000
0000
0002
0000
0000
0000
0000
0000
0000
0000
0003
0000
0000
0000
0000
0000
0000
0000
,
0000
1000
0000
0010
,
0000
0000
0000
0000
0020
0000
0000
0030
0000
0000
0000
0000
0001
0000
0000
0000
,
0000
0020
0000
0000
,
0000
0000
0030
1000
,
0000
0100
0000
1010
,
0000
0101
0000
2000
,
0000
3000
0000
0000
,
0000
0000
0002
0000
0000
0003
0000
0000
,
0000
2000
0000
0000
,
0000
3000
0000
0000
0000
0000
2002
0000
,
0000
3003
0000
0000
,
0000
0110
0000
0100
,
0000
0110
0000
0100
,
0000
0022
0033
0000
,
2020
3030
0000
0000
,
0000
0110
0000
0100
,
0000
0110
0000
0100
,
0000
0011
0000
0010
,
0000
0010
0000
0200
,
0300
0000
0000
0000
0020
0030
0000
0000
,
0020
0030
0000
0000
1000
0000
0000
0000
,
0220
0330
0100
0000
,
0022
0033
0000
0000
,
0000
0022
0000
0000
,
0000
0000
0000
0000
0000
0000
0000
0000
0000
0000
0000
0000
0000
0000
0000
0000
0000
0000
0000
0000
0000
0000
0000
0000
0000
0000
0000
0000
0000
0033
0000
0000
0000
0000
0000
0000
0000
0000
0000
0000
0000
0000
0000
0000
0000
0000
0000
0000
0000
0000
0000
0000
0000
0000
0000
0000
0000
0000
0000
0000
0000
0000
0000
0000
0000
0000
0000
0000
0000
0000
0000
0000
0000
0000
0000
0000
0000
0000
0000
0000
0000
0000
0000
0000
0000
0000
0000
0000
0000
0000
0000
0000
0000
0000
0000
0000
,
0000
2002
0000
0000
,
0000
3003
0000
0200
,
0300
0000
0000
0000
,
0010
0000
0000
0000
,
0010
0000
0000
0000
,
0002
0003
0000
0200
,
0000
0300
0000
0000
0000
0000
0000
0000
;

//--------------- dance-single - Ettenra ----------------
#NOTEDATA:;
#STEPSTYPE:dance-single;
#DESCRIPTION:Ettenra;
#DIFFICULTY:Easy;
#METER:4;
#RADARVALUES:0,0,0,0,0;
#NOTES:
0000
0100
0010
0000
,
0010
0100
0002
0003
,
0002
1003
0100
0000
,
0000
0110
0220
0000
,
0330
1000
0010
0100
,
0100
0001
0010
0100
,
0100
1000
0100
0010
,
0010
0001
0010
0100
,
1000
1100
0010
0012
,
1003
0000
0000
0000
1100
0000
0000
0000
0010
0000
0000
0000
0012
0000
0000
0003
,
1000
0110
0010
1000
,
0110
1000
0100
1100
,
0010
0000
0000
0000
0010
0000
0000
0000
0100
0000
0000
0000
0020
0000
0000
0030
,
0100
0100
1000
0010
,
0001
0000
0000
0000
0001
0000
0000
0000
0100
0000
0000
0000
0020
0000
0000
0030
,
1000
1000
0100
1000
,
0000
1001
0000
0100
,
0000
1000
0001
1000
,
0020
0030
1000
0010
,
0010
0000
0001
0000
1000
0000
0002
0003
,
0200
0000
0000
0300
0020
0000
0000
0030
0000
0000
0000
0000
0001
0000
0000
0000
,
0200
0000
0300
0001
,
0001
0010
0100
0010
,
0100
0010
0000
0010
,
0000
0000
0000
0000
0002
0000
0000
0000
0000
0003
0000
0000
0100
0000
0000
0000
,
2000
0000
0000
0000
0000
0000
0000
0000
0000
3000
0000
0000
0010
0000
0000
0000
,
0001
0010
0100
1000
,
0010
0002
0000
2000
,
0000
3003
0010
1000
,
0100
0110
1000
0100
,
0100
0110
0001
0010
,
0010
0000
0022
0033
0001
0000
0001
0000
,
2020
3030
1000
0000
1000
0000
0200
0000
,
0300
0110
0001
0100
,
0100
0110
1000
0010
,
0010
0000
0022
0033
0001
0000
0001
0000
,
0100
0010
0001
0200
,
0300
0101
0001
0100
,
0010
1010
1000
0100
,
0100
0000
0202
0303
0001
0000
0001
0000
,
2200
3300
1000
0000
1000
0000
0000
0000
,
0000
0101
0001
0100
,
0010
1010
1000
0100
,
0100
0000
0202
0303
0001
0000
0001
0000
,
0100
0010
0001
0200
,
0300
0000
0000
0000
,
0000
0002
0003
0020
,
0030
0002
0003
0200
,
0300
0000
2000
0000
3000
0000
0000
0020
,
0000
0030
0000
0000
0000
0000
0010
0000
,
0100
2002
0000
0000
,
0000
0000
0000
0000
0000
0000
0000
0000
0000
0000
0000
0000
0000
0000
0000
0000
0000
3003
0000
0000
0000
0000
0000
0000
0000
0000
0000
0000
0000
0000
0000
0000
0000
0000
0000
0000
0000
0000
0000
0000
0000
0000
0000
0000
0000
0000
0000
0000
0002
0000
0000
0000
0000
0000
0000
0000
0003
0000
0000
0000
0000
0000
0000
0000
,
0000
1000
0000
0010
,
0000
0000
0000
0000
0020
0000
0000
0030
0000
0000
0000
0000
0001
0000
0000
0000
,
1000
0020
0000
0000
,
0000
0000
0030
1000
,
0010
2200
3300
1010
,
0110
0000
0202
0000
0000
0303
2000
3000
,
2000
3000
0000
0000
0010
0000
0002
0003
,
0000
0000
2002
0000
0000
3003
0000
0000
,
0100
2000
0000
0000
,
0000
0000
3000
2002
,
0000
3003
0010
1000
,
0100
0110
1000
0100
,
0100
0110
0001
0010
,
0010
0000
0022
0033
0001
0000
0001
0000
,
2020
3030
1000
0000
1000
0000
0200
0000
,
0300
0110
0001
0100
,
0100
0000
0000
0000
0220
0330
0000
0000
1000
0000
0000
0000
0010
0000
0000
0000
,
0010
0000
0022
0033
0001
0000
0001
0000
,
0100
0010
0001
0200
,
0300
0000
1100
0000
0020
0000
0001
0030
,
0020
0000
0000
0000
0001
0030
0000
0000
1000
0000
0000
0000
0100
0000
0000
0000
,
0200
0300
0000
0000
0220
0330
0000
0000
0100
0000
0000
0000
0010
0000
0000
0000
,
0020
0030
0000
0000
0022
0033
0000
0000
0100
0000
0000
0000
0010
0000
0000
0000
,
0001
0011
0012
1000
,
1000
0003
0000
0000
0100
0000
0000
0000
0010
0000
0000
0000
0002
0000
0003
0000
,
0001
0000
0000
0000
2002
3003
0000
0000
0210
0000
0000
0000
0001
0000
0000
0000
,
0001
0300
0000
0000
1000
0000
0000
0000
1000
0000
0000
0000
0200
0000
0000
0000
,
0300
1000
0010
0000
,
0010
0100
0010
0000
,
0010
1000
0100
0000
,
0002
0003
0000
0000
2000
3000
0000
0000
0002
0003
0000
0000
0200
0000
0000
0000
,
0000
0300
0000
0000
0000
0000
0000
0000
;

//--------------- dance-single - Ettenra ----------------
#NOTEDATA:;
#STEPSTYPE:dance-single;
#DESCRIPTION:Ettenra;
#DIFFICULTY:Medium;
#METER:7;
#RADARVALUES:0,0,0,0,0;
#NOTES:
0000
0000
0100
0000
0010
0100
0000
1000
,
0010
1000
0100
0000
0002
0000
0003
0000
,
0002
0000
1003
0000
0100
0010
0000
0000
,
0000
0000
0110
0000
0220
0000
0000
0330
,
0110
0000
1000
0100
0010
0010
0001
0000
,
0100
0010
0001
0010
0100
0100
1000
0000
,
0100
0010
0001
0001
0100
0100
0020
0030
,
0010
0000
0000
0000
0001
0000
0001
0000
0020
0000
0200
0030
2000
0300
0000
3000
,
1000
0000
1100
0000
0010
0000
0022
0030
,
1003
0000
0000
0000
1100
0000
0000
0000
0010
0000
0000
0000
0022
0000
0030
0003
,
2000
3000
0000
0000
0110
0000
0000
0000
0010
0000
0100
0000
1000
0000
0000
0000
,
0110
0000
1000
0010
0100
0000
0101
0000
,
0010
0000
0010
0000
0010
0000
0000
0000
0100
0000
0001
0000
0020
0000
0000
0030
,
0100
0100
0100
0000
0100
1000
0010
0100
,
0001
0000
0001
0000
0001
0000
0000
0000
0001
0000
0100
0000
0020
0000
0000
0030
,
1000
1000
1000
0000
0100
1000
0100
0000
,
0000
0000
1000
0000
1001
0000
0000
0000
0000
0000
0001
0000
0100
0000
0000
0001
,
0000
0000
0000
0000
1000
0000
0001
0000
1000
0000
1000
0000
0010
0000
0000
0020
,
0000
0130
0001
0010
0001
0010
0010
0010
,
0010
0100
0001
0100
0001
1000
0002
0003
,
0200
0000
0000
0300
0020
0000
0000
0030
0000
0000
1000
0000
0001
0000
0010
0000
,
0200
0000
0000
0000
0300
0000
0001
0100
,
0001
0100
0010
0000
0100
0001
0010
0000
,
0100
1000
0010
0010
0000
0100
0010
0010
,
0000
0000
0001
0000
0002
0000
0000
0000
0000
0003
0020
0000
0130
0000
0200
0000
,
2000
0000
0300
0000
0000
0000
0000
0000
0000
3000
0010
0000
0010
0000
0100
0000
,
0001
0100
0010
0000
0100
0010
1000
0000
,
0010
1000
0002
0000
0000
0000
2000
0000
,
0000
0000
3003
0000
0010
0001
1000
0100
,
0100
0000
0010
0000
0220
0330
0000
0000
1000
0000
1000
0000
0100
0000
0000
0000
,
0100
0000
0010
0000
0220
0330
0000
0000
0010
0000
0010
0000
0100
0000
0000
0000
,
0010
0001
0022
0033
0010
0001
0010
0000
,
2020
3030
0010
1000
0010
0000
0100
0200
,
0000
0000
0300
0000
0220
0330
0000
0000
0001
0000
0001
0000
0100
0000
0000
0000
,
0100
0000
0010
0000
0220
0330
0000
0000
0010
0000
0010
0000
0100
0000
0000
0000
,
0010
1000
2020
3030
0010
1000
0010
0000
,
0100
1000
0010
0100
0001
0010
0100
0200
,
0000
0000
0300
0000
2200
3300
0000
0000
0001
0000
1000
0000
0100
0000
0000
0000
,
0010
0000
0001
0000
0022
0033
0000
0000
1000
0000
0001
0000
0100
0000
0000
0000
,
0100
0010
0202
0303
0100
0001
0100
0000
,
2200
0000
0000
3300
0000
0000
0100
0000
0000
1000
0000
0000
0100
0000
0000
0000
0000
0200
0000
0000
0000
0000
0000
0000
,
0300
0000
0000
0000
2200
3300
0000
0000
0001
0000
1000
0000
0100
0000
0000
0000
,
0010
0000
0001
0000
0022
0033
0000
0000
1000
0000
0001
0000
0100
0000
0000
0000
,
0100
0010
0202
0303
0001
0010
0001
0000
,
0100
1000
0010
0100
0001
0010
0100
0200
,
0000
0300
0000
0000
0000
0000
0001
0010
,
0100
0000
1000
0000
0002
0000
0003
2000
0000
3000
0000
0000
0010
0000
0000
0200
,
0000
0000
0300
0000
0002
0000
0000
2000
0003
0000
0000
3000
0100
0000
0000
0200
,
0000
0300
0000
0000
2000
0000
0000
0000
0000
0000
0000
0000
0000
0000
3002
0000
,
0000
0000
0003
0020
,
0100
0030
2002
0000
0000
0000
0000
0000
,
0000
0000
0000
0000
0000
0000
0000
0000
0000
0000
0000
0000
0000
0000
0000
0000
0000
3003
0000
0000
0000
0000
0000
0000
0000
0000
0000
0000
0000
0000
0000
0000
0000
0000
0000
0000
0000
0000
0000
0000
0000
0000
0000
0000
0000
0000
0000
0000
0002
0000
0000
0000
0000
0000
0000
0000
0003
0000
0000
0000
0000
0000
0000
0000
,
0000
0001
1000
0000
0000
0100
0010
0000
,
0000
0000
0002
0000
0020
0000
0000
0033
0000
0000
0100
0000
1000
0000
0001
0000
,
1000
0001
0020
0000
0030
0000
0000
0020
,
0000
0000
0000
0030
0000
0000
1000
0100
,
0010
0000
0000
0000
2200
0000
0000
0000
3300
0000
0000
0000
2020
3030
0000
0000
,
0220
0330
0000
0000
0202
0000
0000
0000
0000
0000
0303
0000
2000
0000
3020
0000
,
2030
3200
0300
0000
0100
0010
0002
0003
,
0000
0000
0002
0000
2000
0000
0000
0000
0000
0000
0000
3003
0000
0000
0010
0000
,
0100
0010
2000
0000
0000
0000
0000
0000
,
0000
0020
0000
0000
3030
0000
2002
0000
,
0000
0000
3003
0000
0010
0001
1000
0100
,
0100
0000
0010
0000
0220
0330
0000
0000
1000
0000
1000
0000
0100
0000
0000
0000
,
0100
0000
0010
0000
0220
0330
0000
0000
0010
0000
0010
0000
0100
0000
0000
0000
,
0010
0001
0022
0033
0010
0001
0010
0000
,
2020
3030
0010
1000
0010
0000
0100
0200
,
0000
0000
0300
0000
0220
0330
0000
0000
0001
0000
0001
0000
0100
0000
0000
0000
,
0100
0000
0010
0000
0220
0330
0000
0000
0010
0000
0010
0000
0100
0000
0000
0000
,
0010
1000
2020
3030
0010
1000
0010
0000
,
0100
1000
0010
0100
0001
0010
0100
0200
,
0000
0300
1100
0000
0020
0000
0001
0030
,
0020
0000
0000
0000
0001
0030
0000
0000
0100
0000
1000
0000
0100
0000
0010
0000
,
0200
0300
0000
0000
0220
0330
0000
0000
0010
0000
0100
0000
0010
0000
0001
0000
,
0020
0030
0000
0000
0022
0033
0000
0000
1000
0000
0100
0000
0010
0000
0001
0000
,
0010
0001
0011
0000
0012
0000
1000
1000
,
1000
0003
1000
0000
0100
0000
0010
0000
0001
0000
1000
0000
0002
0000
0003
0000
,
0001
0000
1000
0000
2002
3003
0000
0000
0210
0000
0000
0000
0001
0000
0001
0000
,
0001
0300
0001
0000
1000
0000
0010
0000
1000
0000
0001
0000
0100
0000
0200
0000
,
0000
0300
0000
0000
1000
0000
0000
0000
0010
0000
0100
0000
0000
0000
1000
0000
,
0010
1000
0100
0000
0010
0001
0000
0100
,
0010
0100
0001
0000
0100
0010
0000
1000
,
0001
0010
0100
0010
0001
0010
0100
0200
,
0000
0300
0000
0000
;

//--------------- dance-single - Ettenra ----------------
#NOTEDATA:;
#STEPSTYPE:dance-single;
#DESCRIPTION:Ettenra;
#DIFFICULTY:Hard;
#METER:8;
#RADARVALUES:0,0,0,0,0;
#NOTES:
0000
0000
0000
0000
0100
0000
0000
0001
0010
0000
0100
0000
0000
0000
1000
0000
,
0010
1000
0100
0000
0002
0000
0003
0000
,
0002
0000
0000
0000
1003
0000
0000
0010
0100
0000
0010
0000
0000
0000
0000
1000
,
0000
0010
0110
0000
0220
0000
0000
0330
,
0110
0000
0000
0000
1000
0100
1000
0000
0010
0000
0010
0000
0011
0000
0000
0000
,
0100
0010
0100
0000
0001
0010
0001
0000
0100
0000
0100
0000
1100
0000
0000
0000
,
0100
0010
0001
0000
1001
0000
0001
1000
0100
0000
0100
0000
0020
0000
0030
0000
,
0010
0000
0000
0010
0001
0000
0001
0000
0020
0000
0200
0030
2000
0300
0000
3000
,
1000
0100
0000
0000
1100
0000
0000
0000
0010
0001
0000
0000
0022
0000
0030
0000
,
1003
0100
0000
0000
1100
0000
0000
0000
0010
0001
0000
0000
0022
0000
0030
0003
,
1000
0000
0000
0000
0001
0000
0000
0000
1000
0000
0000
0000
0010
0000
0000
0000
0000
0000
0000
0000
0000
0000
0000
0000
0001
0000
0000
0010
0000
0000
0100
0000
0000
0000
0000
0000
1000
0000
0000
0000
0000
0000
0100
0000
0000
0000
0000
0000
,
0110
0000
0000
0000
1000
0010
1000
0000
0100
0000
1000
0000
1100
0000
0001
0000
,
0010
0000
0010
0000
0010
0000
0000
0000
0100
0000
0001
0000
0020
0000
0000
0030
,
0100
0100
0100
0000
0100
1000
0010
0100
,
0001
0000
0001
0000
0001
0000
0000
0000
0001
0000
0100
0000
0020
0000
0000
0030
,
1000
0000
1000
0000
1000
0000
0000
0000
0100
0000
1000
0000
0100
0000
0002
0003
,
0002
0000
0000
0003
0000
0000
1000
0000
0000
0000
0000
0000
1001
0000
0000
0000
0000
0000
0000
0000
0000
0000
0000
0000
0000
0000
0000
0000
0000
0000
0001
0000
0010
0000
0000
0000
0100
0000
0000
0000
0000
0000
0000
0000
0000
0001
0000
0000
,
0000
0000
0000
0000
1000
0001
1000
0000
0001
0000
1000
0100
0010
0001
0000
0020
,
0000
0130
0001
0010
0001
0010
0010
0010
,
0010
0100
0001
0100
0001
1000
0002
0003
,
0200
0000
0000
0300
0020
0000
0000
0030
0000
0000
1000
0000
0001
0000
0010
0000
,
0100
0000
0200
0000
0000
0000
0000
0000
0000
0300
0000
0000
0001
0000
0100
0000
,
0001
0100
0010
0000
0100
0001
0010
0000
,
0100
0000
1000
0000
0010
0000
0010
0000
0000
0000
0100
0000
0010
1000
0010
0000
,
0000
0000
0001
0100
0002
0000
0000
0000
0000
0003
0020
0000
0130
0000
0200
0000
,
2000
0000
0300
0000
0000
0000
0000
0001
0000
3000
0010
0000
0010
0000
0100
0000
,
0001
0100
0010
0000
0100
0010
1000
0000
,
0010
1000
0002
0000
0000
0000
2000
0000
,
0000
0000
3003
0000
0010
0001
1000
0100
,
0100
0000
0010
0000
0220
0330
0000
0100
1000
0000
1000
0000
0100
0000
0000
0000
,
0100
0000
0010
0000
0220
0330
0000
0001
0010
0000
0010
0000
0100
0000
0000
0000
,
0010
0001
0022
0033
0010
0001
0010
0000
,
2020
3030
0010
1000
0010
0000
0100
0200
,
0000
0000
0300
0000
0220
0330
0000
0100
0001
0000
0001
0000
0100
0000
0000
0000
,
0100
0000
0010
0000
0220
0330
0000
0001
0010
0000
0010
0000
0100
0000
0000
0000
,
0010
0001
0022
0033
0010
0001
0010
0000
,
0100
1000
0010
0100
0001
0010
0100
0200
,
0000
0000
0300
0000
2200
3300
0000
1000
0001
0000
1000
0000
0100
0000
0000
0000
,
0010
0000
0001
0000
0022
0033
0000
0001
1000
0000
0001
0000
0100
0000
0000
0000
,
0100
0010
0202
0303
0100
0001
0100
0000
,
2200
0000
0000
3300
0000
0000
0100
0000
0000
1000
0000
0000
0100
0000
0000
0000
0000
0200
0000
0000
0320
0000
0000
0000
,
0000
0000
0030
0000
2200
3300
0000
1000
0001
0000
1000
0000
0100
0000
0000
0000
,
0010
0000
0001
0000
0022
0033
0000
0001
1000
0000
0001
0000
0100
0000
0000
0000
,
0100
0010
0202
0303
0001
0010
0001
0000
,
0100
1000
0010
0100
0001
0010
0100
0200
,
0000
0300
0000
0000
0000
0000
0001
0010
,
0100
0000
1000
0000
0002
0000
0003
2000
0000
3000
0100
0000
0010
0000
0000
0200
,
0000
0000
0300
0000
0002
0000
0000
2000
0003
0000
0020
3000
0100
0000
0000
0200
,
0000
0000
0000
0330
0000
0000
0000
0000
0000
0000
0000
0000
1000
0000
0000
0000
0000
0000
0000
0000
0000
0000
0100
0000
0000
0000
0000
0000
0000
0000
0000
0000
1100
0000
0000
0000
0000
0000
0000
0000
0000
0000
0010
0000
0000
0000
0000
0000
,
0000
0001
0000
0000
0000
0000
0000
0011
0000
0000
0000
0000
0000
0000
0000
0000
0000
0000
0020
0000
0000
0000
0000
0000
,
0100
0000
0030
0000
2002
0000
0000
0000
0000
0000
0000
0000
0000
0000
0000
3003
,
0000
2000
0000
0000
3200
0000
0000
0000
0320
0000
0000
0000
0031
0000
0000
0010
,
0000
0000
0001
0000
1001
0000
0000
1000
0000
0000
0100
0000
0010
0000
0000
0110
,
0000
0000
0002
0000
0020
0000
0000
0033
0000
0000
0100
0000
1000
0000
0001
0000
,
1000
0001
0020
0000
0030
0000
0000
0020
,
0000
0000
0000
0030
0000
0200
0000
0000
0000
0300
0000
0000
1000
0000
0100
0000
,
0010
0000
0000
0000
0000
0000
0100
0000
0000
0000
0000
0000
2200
0000
0000
3300
0000
0000
0000
0000
0000
0000
0000
0000
0000
0000
0220
0000
0000
0000
0330
0000
0000
0000
0000
0000
2020
0000
0000
3030
0000
0000
0000
0000
0000
0000
0000
0000
,
0220
0330
0000
0000
0202
0000
0000
0000
0000
0000
0303
0000
2000
0000
3020
0000
,
2030
0000
3200
0000
0300
0000
0000
0000
0100
0000
0010
0000
0001
0000
0000
1000
,
0000
0000
0002
0000
2000
0000
0000
0000
0000
0000
0000
3003
0000
0000
0010
0000
,
0100
0010
2000
0000
0000
0000
0000
0000
,
0000
0020
0000
0000
3030
0000
2002
0000
,
0000
0000
3003
0000
0010
0001
1000
0100
,
0100
0000
0010
0000
0220
0330
0000
0100
1000
0000
1000
0000
0100
0000
0000
0000
,
0100
0000
0010
0000
0220
0330
0000
0001
0010
0000
0010
0000
0100
0000
0000
0000
,
0010
0001
0022
0033
0010
0001
0010
0000
,
2020
3030
0010
1000
0010
0000
0100
0200
,
0000
0000
0300
0000
0220
0330
0000
0100
0001
0000
0001
0000
0100
0000
0000
0000
,
0100
0000
0010
0000
0220
0330
0000
0001
0010
0000
0010
0000
0100
0000
0000
0000
,
0010
0001
0022
0033
0010
0001
0010
0000
,
0100
1000
0010
0100
0001
0010
0100
0200
,
0000
0300
1100
0000
0020
0000
0100
0031
,
0020
0000
0000
0000
0001
0030
0000
0000
0100
0000
1000
0000
0100
0000
0010
0000
,
0200
0300
0000
0000
0220
0330
0000
0000
0010
0000
0001
0000
0010
0000
1000
0000
,
0020
0030
0000
0000
0022
0033
0000
0000
1000
0000
0100
0000
0010
0000
0001
0000
,
0010
0001
0011
0000
0012
0000
1000
1000
,
1000
0003
1000
0000
0100
0000
0010
0000
0001
0000
1000
0000
0002
0000
0003
0000
,
0001
0000
1000
0000
2002
3003
0000
0000
0210
0000
0000
0000
0001
0000
0001
0000
,
0001
0300
0001
0000
1000
0000
0010
0000
1000
0000
0001
0000
0100
0000
0200
0000
,
0000
0300
0000
0000
1000
0000
0000
0001
0010
0000
0100
0000
0000
0000
1000
0000
,
0010
0000
1000
0000
0100
0000
0000
0100
0010
0000
0001
0000
0000
0000
0100
0000
,
0010
0000
0100
0000
0001
0000
0000
0010
0100
0000
0010
0000
0000
0000
1000
0000
,
0002
0003
0020
0030
2000
3000
0020
0030
0002
0003
0020
0030
0100
0000
0200
0000
,
0000
0300
0000
0000
;

//--------------- dance-single - Ettenra ----------------
#NOTEDATA:;
#STEPSTYPE:dance-single;
#DESCRIPTION:Ettenra;
#DIFFICULTY:Challenge;
#METER:9;
#RADARVALUES:0,0,0,0,0;
#NOTES:
0000
0000
0000
0000
0100
0000
0000
0001
0010
0000
0100
0000
0000
0000
1000
0000
,
0010
1000
0100
0000
0002
0000
0003
0000
,
0002
0000
0000
0000
1003
0000
0000
0010
0100
0000
0010
0000
0000
0000
0000
1000
,
0000
0010
0110
0000
0220
0000
0000
0330
,
0110
0000
0000
0000
1000
0100
1000
0100
0010
0000
0010
0000
0011
0000
0000
0000
,
0100
0010
0100
0000
0001
0010
0001
0010
0100
0000
0100
0000
1100
0000
0000
0000
,
0100
0010
0001
0000
1001
0000
0001
1000
0100
0000
0100
0000
0020
0000
0030
0000
,
0010
0000
0000
0010
0001
0010
0001
0000
0020
0000
0200
0030
2000
0300
0000
3000
,
1000
0100
0000
0000
1100
0000
0000
0000
0010
0001
0000
0000
0022
0000
0030
0000
,
1003
0100
0000
0000
1100
0000
0000
0000
0010
0001
0000
0000
0022
0000
0030
0003
,
1000
0000
0000
0000
0001
0000
0000
0000
1000
0000
0000
0000
0010
0000
0000
0000
0000
0000
0000
0000
0000
0100
0000
0000
0001
0000
0000
0010
0000
0000
0100
0000
0000
1000
0000
0000
0100
0000
0000
0000
0000
0000
0100
0000
0000
0000
0000
0000
,
0110
0000
0000
0000
1000
0010
1000
0000
0100
0000
1000
0000
1100
0000
0001
0000
,
0010
0000
0000
0000
0000
0000
0010
0000
0000
0000
0000
0000
0010
0000
0000
0000
0000
0000
0000
0000
0000
0000
0001
0000
0100
0000
0000
0000
0000
0000
0001
0000
0000
0000
0000
0000
0020
0000
0000
0000
0000
0000
0000
0000
0000
0030
0000
0000
,
0100
0000
0000
0100
0000
0000
0100
0000
0000
0000
0000
1000
0100
0000
0000
1000
0000
0000
0010
0000
0000
0100
0000
0000
,
0001
0000
0000
0000
0000
0000
0001
0000
0000
0000
0000
0000
0001
0000
0000
0000
0000
0000
0000
0000
0000
0000
0010
0000
0001
0000
0000
0000
0000
0000
0100
0000
0000
0000
0000
0000
0020
0000
0000
0000
0000
0000
0000
0000
0000
0030
0000
0000
,
1000
0000
0000
0000
0000
0000
1000
0000
0000
0000
0000
0000
1000
0000
0000
0000
0000
0000
0000
0000
0000
0000
1000
0000
0100
0000
0000
0000
0000
0000
1000
0000
0000
0000
0000
0000
0100
0000
0000
0000
0000
0000
0002
0000
0000
0003
0000
0000
,
0002
0000
0000
0003
0000
0000
1000
0000
0000
0000
0000
0000
1001
0000
0000
0000
0000
0000
0000
0000
0000
0000
0000
0000
0000
0000
0000
0000
0000
0000
0001
0000
0010
0000
0000
0000
0100
0000
0000
1000
0000
0000
0000
0000
0000
0001
0000
0000
,
0000
0000
0000
0000
1000
0001
1000
0000
0001
0000
1000
0100
0010
0001
0000
0020
,
0000
0130
0001
0010
0001
0010
0010
0010
,
0010
0100
0001
0100
0001
1000
0002
0003
,
0200
0000
0000
0300
0020
0000
0000
0030
0000
0000
1000
0000
0001
0000
0010
0000
,
0100
0000
0200
0000
0000
0000
0000
0000
0000
0300
0000
0000
0001
0000
0100
0000
,
0001
0100
0010
0000
0100
0001
0010
0000
,
0100
0000
1000
0000
0010
0000
0010
0000
0000
0000
0100
0000
0010
1000
0010
0000
,
0000
0000
0001
0100
0002
0000
0000
0000
0000
0003
0020
0000
0130
0000
0200
0000
,
2000
0000
0300
0000
0000
0000
0000
0001
0000
3000
0010
0000
0010
0000
0100
0000
,
0001
0100
0010
0000
0100
0010
1000
0000
,
0010
1000
0002
0000
0000
0000
2000
0000
,
0000
0000
3003
0000
0010
0001
1000
0100
,
0100
0000
0010
0000
0220
0330
0000
0100
1000
0000
1000
0000
0100
0000
0000
0000
,
0100
0000
0010
0000
0220
0330
0000
0001
0010
0000
0010
0000
0100
0000
0000
0000
,
0010
0001
0022
0033
0010
0001
0010
0000
,
2020
3030
0010
1000
0010
0000
0100
0200
,
0000
0000
0300
0000
0220
0330
0000
0100
0001
0000
0001
0000
0100
0000
0000
0000
,
0100
0000
0010
0000
0220
0330
0000
0001
0010
0000
0010
0000
0100
0000
0000
0000
,
0010
0001
0022
0033
0010
0001
0010
0000
,
0100
0000
0000
0000
0000
0000
1000
0000
0000
0000
0000
0000
0010
0000
0000
0000
0000
0000
0100
0000
0000
0000
0000
0000
0001
0000
0000
0000
0000
0000
0010
0000
0000
0000
0000
0000
0100
0000
0000
0000
0000
0000
0200
0000
0000
0000
0000
1000
,
0000
0000
0000
0000
0000
1000
0300
0000
0000
0000
0000
0000
2200
0000
0000
3300
0000
0000
0000
0000
0000
1000
0000
0000
0001
0000
0000
0000
0000
0000
1000
0000
0000
0000
0000
0000
0100
0000
0000
0000
0000
0000
0000
0000
0000
0000
0000
0000
,
0010
0000
0001
0000
0022
0033
0000
0001
1000
0000
0001
0000
0100
0000
0000
0000
,
0100
0010
0202
0303
0100
0001
0100
0000
,
2200
0000
0000
0000
0000
0000
3300
0000
0000
0000
0000
0000
0100
0000
0000
0000
0000
0000
1000
0000
0000
0000
0000
0000
0100
0000
0000
0000
0000
0000
0000
0000
0000
0000
0200
0000
0000
0000
0000
0000
0320
0000
0000
0000
0000
0000
0000
0001
,
0000
0000
0000
0000
0000
0001
0030
0000
0000
0000
0000
0000
2200
0000
0000
3300
0000
0000
0000
0000
0000
1000
0000
0000
0001
0000
0000
0000
0000
0000
1000
0000
0000
0000
0000
0000
0100
0000
0000
0000
0000
0000
0000
0000
0000
0000
0000
0000
,
0010
0000
0001
0000
0022
0033
0000
0001
1000
0000
0001
0000
0100
0000
0000
0000
,
0100
0010
0202
0303
0001
0010
0001
0000
,
0100
1000
0010
0100
0001
0010
0100
0200
,
0000
0000
0300
0000
0000
0000
0000
0000
0000
0000
0000
0000
0001
0010
0100
1000
,
0001
0010
0100
1000
0002
0000
0003
2000
0000
3000
0100
0000
0010
0000
0000
0200
,
0000
0000
0300
0000
0002
0000
0000
2000
0003
0000
0020
3000
0100
0000
0000
0200
,
0000
0000
0000
0330
0000
0000
0000
0000
0000
0000
0000
0000
1000
0000
0000
0000
0000
0000
0000
0000
0000
0000
0100
0000
0000
0000
0000
0000
0000
0000
0000
0000
1100
0000
0000
0000
0000
0000
0000
0000
0000
0000
0010
0000
0000
0000
0000
0000
,
0000
0001
0000
0000
0000
0000
0000
0011
0000
0000
0000
0000
0000
0000
0000
0000
0000
0000
0020
0000
0000
0000
0000
0000
,
0100
0000
0030
0000
2002
0000
0000
0000
0000
0000
0000
0000
0000
0000
0000
3003
,
0000
2000
0000
0000
3200
0000
0000
0000
0320
0000
0000
0000
0031
0000
0000
0010
,
0000
0000
0001
0000
1001
0000
0000
1000
0000
0000
0100
0000
0010
0000
0000
0110
,
0000
0000
0002
0000
0020
0000
0000
0033
0000
0000
0100
0000
1000
0000
0001
0000
,
1000
0000
0001
0000
0020
0000
0000
0000
0030
0000
0000
0000
0000
0000
0020
0030
,
0000
1000
0001
1000
0000
0200
0000
0000
0000
0300
0000
0000
1000
0000
0100
0000
,
0010
0000
0000
0000
0000
0000
0100
0000
0000
0000
0000
0000
2200
0000
0000
3300
0000
0000
0000
0000
0000
1000
0000
0000
0000
0000
0010
0000
0000
0000
0000
0000
0000
0000
0000
0000
2020
0000
0000
3030
0000
0000
0000
0000
0000
0000
0000
0000
,
0220
0330
0000
0000
0202
0000
0000
0000
0000
0000
0303
0000
2000
0000
3020
0000
,
2030
0000
3200
0000
0300
0000
0000
0000
0100
0000
0010
0000
0001
0000
0000
1000
,
0000
0000
0002
0000
2000
0000
0000
0000
0000
0000
0000
3003
0000
0000
0010
0000
,
0100
0010
2000
0000
0000
0000
0000
0000
,
0000
0020
0000
0000
3030
0000
2002
0000
,
0000
0000
3003
0000
0010
0001
1000
0100
,
0100
0000
0010
0000
0220
0330
0000
0100
1000
0000
1000
0000
0100
0000
0000
0000
,
0100
0000
0010
0000
0220
0330
0000
0001
0010
0000
0010
0000
0100
0000
0000
0000
,
0010
0001
0022
0033
0010
0001
0010
0000
,
2020
3030
0010
1000
0010
0000
0100
0200
,
0000
0000
0300
0000
0220
0330
0000
0100
0001
0000
0001
0000
0100
0000
0000
0000
,
0100
0000
0010
0000
0220
0330
0000
0001
0010
0000
0010
0000
0100
0000
0000
0000
,
0010
0001
0022
0033
0010
0001
0010
0000
,
0100
0000
0000
0000
0000
0000
1000
0000
0000
0000
0000
0000
0010
0000
0000
0000
0000
0000
0100
0000
0000
0000
0000
0000
0001
0000
0000
0000
0000
0000
0010
0000
0000
0000
0000
0000
0100
0000
0000
0000
0000
0000
0200
0000
0000
0000
0000
1000
,
0000
0000
0000
0000
0000
1000
0300
0000
0000
0000
0000
0000
1100
0000
0000
0000
0000
0000
0000
0000
0000
0000
0000
0000
0020
0000
0000
0000
0000
0000
0000
0000
0000
0000
0000
0000
0100
0000
0000
0000
0000
0000
0031
0000
0000
0000
0000
0000
,
0020
0000
0000
0000
0001
0030
0000
0000
0100
0000
1000
0000
0100
0000
0010
0000
,
0200
0300
0000
0000
0220
0330
0000
0000
0010
0000
0001
0000
0010
0000
1000
0000
,
0020
0030
0000
0000
0022
0033
0000
0000
1000
0000
0100
0000
0010
0000
0001
0000
,
0010
0001
0011
0000
0012
0000
1000
1000
,
1000
0003
1000
0000
0100
0000
0010
0000
0001
0000
1000
0000
0002
0000
0003
0000
,
0001
0000
1000
0000
2002
3003
0000
0000
0210
0000
0000
0000
0001
0000
0001
0000
,
0001
0300
0001
0000
1000
0000
0010
0000
1000
0000
0001
0000
0100
0000
0200
0000
,
0000
0300
0000
0000
1000
0000
0000
0001
0010
0000
0100
0000
0000
0000
1000
0000
,
0010
0000
1000
0000
0100
0000
0000
0100
0010
0000
0001
0000
0000
0000
0100
0000
,
0010
0000
0100
0000
0001
0000
0000
0010
0100
0000
0010
0000
0000
0000
1000
0000
,
0002
0003
0020
0030
2000
3000
0020
0030
0002
0003
0020
0030
0100
0000
0200
0000
,
0000
0300
0000
0000
;
