#VERSION:0.83;
#TITLE:DASH;
#SUBTITLE:;
#ARTIST:NMIXX;
#TITLETRANSLIT:;
#SUBTITLETRANSLIT:;
#ARTISTTRANSLIT:;
#GENRE:;
#CREDIT:;
#MUSIC:DASH.ogg;
#BANNER:Banner.png;
#BACKGROUND:Background.png;
#CDTITLE:;
#SAMPLESTART:0.000;
#SAMPLELENGTH:0.000;
#SELECTABLE:YES;
#OFFSET:0.051;
#BPMS:0.000=179.955
,237.000=89.978
,273.000=179.955
;
#STOPS:;
#BGCHANGES:0.000=DASH.mp4=1.000=0=0=1,
99999.000=-nosongbg-=1.000=0=0=0=StretchNoLoop====
;
#FGCHANGES:;

//--------------- dance-single - Ettenra ----------------
#NOTEDATA:;
#STEPSTYPE:dance-single;
#DESCRIPTION:Ettenra;
#DIFFICULTY:Beginner;
#METER:3;
#RADARVALUES:0,0,0,0,0;
#NOTES:
0000
0100
0000
1000
,
1000
0000
0001
0001
,
0000
0100
0000
1000
,
1000
0000
0001
0001
,
0000
0100
0000
1000
,
1000
0000
0001
0001
,
0000
0100
0200
0000
,
0300
0000
0000
0100
,
0000
0001
0001
0000
,
1000
1000
0000
0010
,
0000
2000
3000
0000
,
1000
1000
0000
0010
,
0010
0000
0002
0003
,
0000
0100
0000
1000
,
2000
0000
3000
0000
,
0110
0110
1001
1001
,
0000
0010
0010
0000
,
0100
0000
0001
0001
,
0000
1000
0000
0100
,
0200
0300
0000
0010
,
0010
0020
0030
0000
,
0220
0330
0000
0100
,
0100
0200
0000
0000
,
0300
0000
0000
0000
,
0010
0020
0030
0000
,
0001
0002
0003
0000
,
1000
2000
3000
0000
,
0010
0020
0030
0000
,
0000
1000
0000
0001
,
0000
0010
0000
0100
,
0100
0000
0010
0010
,
0000
0000
0000
0000
,
0010
0020
0030
0000
,
1000
2000
3000
0000
,
0001
0002
0003
0010
,
0020
0030
0000
0001
,
0001
0000
0010
0010
,
0000
1000
0000
1001
,
0000
0002
0003
0002
,
0003
0002
0003
0000
,
0010
0010
0000
0001
,
0001
0000
1000
1000
,
0000
0100
0000
1000
,
0000
0001
0000
1000
,
0000
0100
0000
0001
,
0000
1000
0000
0001
,
0000
0100
0000
0010
,
0000
0001
0000
1000
,
0000
0100
0000
0001
,
0000
1000
0000
0010
,
0000
0100
0000
0000
,
0001
0001
0000
1000
,
0000
0200
0300
0000
,
0010
0020
0000
0030
,
0000
0001
0001
0000
,
0100
0100
0000
0001
,
0000
1000
0000
1000
,
1000
1000
0000
0001
,
0000
0010
0000
0001
,
0000
0000
0000
0000
2002
0000
3003
0000
0000
0000
0000
1000
0000
0000
0000
0000
,
0000
0000
0000
0000
0011
0000
0000
0000
0000
0000
0000
0100
0000
0000
0000
0000
,
0000
0000
0000
2000
0000
0000
0000
3000
0000
0000
0000
2000
0000
0000
0000
3000
,
0000
0001
1000
0200
,
0300
0000
0010
0001
,
0020
0030
0001
1000
,
0001
0000
0000
0100
0100
0000
0000
0010
,
0010
0000
0002
0003
0000
0200
0300
0000
,
0000
0000
0200
0300
0100
0000
0001
0000
,
1000
0100
0000
1000
,
1000
0000
0001
0001
,
0000
0100
0000
1000
,
1000
0000
0001
0000
,
1000
0000
0100
0000
,
0001
0000
1000
0000
,
0000
0110
0000
0110
,
0000
0110
0000
0001
,
0000
1000
0000
0001
,
0001
0000
1000
0000
,
0001
0000
0000
0000
;

//--------------- dance-single - Ettenra ----------------
#NOTEDATA:;
#STEPSTYPE:dance-single;
#DESCRIPTION:Ettenra;
#DIFFICULTY:Easy;
#METER:5;
#RADARVALUES:0,0,0,0,0;
#NOTES:
0000
0100
0000
1000
,
0002
0003
1000
0001
,
1000
0100
0000
0001
,
2000
3000
0001
1000
,
0001
0100
0000
0001
,
2000
0000
3000
0001
,
1000
0001
0200
0300
,
0020
0030
0000
0100
,
0100
0001
0002
0003
,
1000
1000
0001
0010
,
0100
2000
3000
0000
,
1000
1000
0000
0010
,
0010
0001
0002
0003
,
0000
0100
0100
2000
,
0002
0000
0000
3003
0000
0000
0000
0000
,
0110
0110
1001
1001
,
0000
0010
0010
0100
,
0100
0000
0001
0001
,
1000
1000
0100
0000
,
0200
0000
0000
0300
0000
0000
0010
0000
,
0010
0002
0000
0003
,
0220
0000
0000
0330
0000
0000
1000
0000
,
1000
0200
0000
0000
,
0300
0000
0000
0010
,
0000
0000
0000
0000
0020
0000
0000
0000
0000
0030
0000
0000
0100
0000
0000
0000
,
0000
0000
0000
0000
0002
0000
0000
0000
0000
0003
0000
0000
0100
0000
0000
0000
,
0000
1000
0100
0100
,
1000
0020
0030
0000
,
1000
1001
0001
1001
,
0100
0110
0010
0110
,
2000
0000
0100
0010
,
0002
0000
3003
0010
,
0100
0000
0000
0000
0020
0000
0000
0000
0000
0030
0000
0000
1000
0000
0000
0000
,
0001
0000
0000
0000
2000
0000
0000
0000
0000
3000
0000
0000
0100
0000
0000
0000
,
0000
0002
0000
0003
,
0020
0000
0030
0001
,
0001
0100
0010
0100
,
1000
1000
0000
1001
,
0000
0002
0003
0002
,
0003
0002
0003
0100
,
0010
0010
0000
0001
,
0001
0000
1000
1000
,
0000
0100
0000
1000
,
0001
0000
0001
1000
,
0001
0100
0000
0001
,
1000
0001
1000
0001
,
0100
0100
2000
3010
,
0020
0030
0001
1000
,
0001
0100
0000
0001
,
1000
0000
1000
0010
,
0100
0010
0000
1000
,
0001
0001
1000
1000
,
0010
0020
2030
3002
,
0103
0020
0000
0200
,
0330
0001
0001
0010
,
0100
0100
0001
0001
,
1000
1000
0010
1000
,
1000
2200
3300
0022
,
0033
0020
0030
0002
,
0003
0000
0000
0000
2002
0000
3003
0000
0010
0000
0000
2000
0000
3200
0000
0320
,
0000
0030
0000
0000
0011
0000
0000
0002
0000
0023
0000
0230
0000
0300
0000
0000
,
0100
0000
0000
2000
0000
3020
0000
0030
0000
0000
0000
2000
0000
3020
0000
0030
,
0000
0000
0000
0000
0010
0000
0100
0000
0001
0000
0000
0200
0000
0300
0020
0000
,
0000
0000
0000
0030
0000
0000
0001
0000
0010
0000
0000
0000
0001
0000
0100
0000
,
0020
0000
0030
0000
1000
0001
1000
0000
,
0000
0010
0000
0100
0000
0100
0000
0010
,
0000
0000
0000
0000
0002
0000
0000
0020
0000
0003
0200
0000
0030
2000
0000
0300
,
0002
3003
0200
0300
0010
0000
0001
0000
,
1000
0100
0000
0001
,
2000
3000
0001
1000
,
0001
0100
0000
0001
,
2000
0000
3000
0001
,
1000
0001
0200
0300
,
0000
0000
1000
0001
,
0010
0011
0000
0110
,
0000
1100
0000
0001
,
1000
0001
0000
1000
,
0002
0003
1000
0001
,
1000
0000
0000
0000
;

//--------------- dance-single - Ettenra ----------------
#NOTEDATA:;
#STEPSTYPE:dance-single;
#DESCRIPTION:Ettenra;
#DIFFICULTY:Medium;
#METER:6;
#RADARVALUES:0,0,0,0,0;
#NOTES:
0000
0000
1001
0000
0000
0000
0001
1000
,
0002
0000
0003
0000
0000
1000
0001
1000
,
0000
0000
1001
0000
0000
0000
1000
0001
,
2000
0000
3000
0000
0000
0001
1000
0001
,
0000
0000
1001
0000
0000
0000
1000
0100
,
2000
0000
0000
0000
3000
0000
1000
0001
,
1000
0001
1000
0000
0200
0000
0300
0000
,
0020
0130
0000
0000
0000
0100
0010
0000
,
0010
0001
0000
0002
0000
0000
0003
0000
,
1000
0000
1000
0000
0001
0010
0200
0000
,
0300
2000
0000
0200
0000
3300
0000
0000
,
1000
0000
1000
0000
0000
0000
0010
0100
,
0010
0000
0000
0002
0000
0003
0000
0000
,
0000
0000
0100
0000
0100
0001
2000
0000
,
3001
2000
0000
0000
0000
0000
3000
0000
,
0110
1001
0110
1001
,
0000
0002
0000
0000
0010
0000
0103
0000
,
0100
0020
0030
0100
0001
0000
0001
0000
,
1000
0000
1000
0000
0000
0100
0000
0000
,
0200
0000
0000
0300
0000
0000
0010
0001
,
0010
0002
0000
0003
,
0220
0000
0000
0330
0000
0000
1000
0100
,
1000
0000
0200
0000
0000
0300
0000
0020
,
0000
0200
0000
0000
0330
0000
0010
0000
,
0000
0000
0001
0000
0020
0000
0000
0000
0000
0030
0000
0000
0100
0000
0000
0000
,
0000
0000
0010
0000
0002
0000
0000
0000
0000
0003
0000
0000
0100
0000
0000
0000
,
0000
0010
1000
0000
0100
0000
0100
0000
,
1000
0020
0030
0000
,
1000
1001
0001
0101
,
0100
0110
0010
1010
,
2000
0000
0100
0010
,
0002
0000
3003
0100
,
0000
0000
1000
0000
0020
0000
0000
0000
0000
0030
0000
0000
0100
0000
0000
0000
,
0000
0000
0010
0000
2000
0000
0000
0000
0000
3000
0000
0000
0100
0000
0000
0000
,
0000
0010
0002
0003
0000
0002
0003
0000
,
0020
0030
0000
0200
0300
0000
1000
0100
,
1000
0010
0000
0000
0010
0000
0100
0000
,
0001
0100
0000
0000
0010
0000
1001
0000
,
0000
0000
0001
0200
0300
0000
0001
0200
,
0300
0000
0001
0200
0300
0000
0100
0000
,
0010
1000
0010
0000
0000
0000
0100
0010
,
0100
0000
0000
0000
0001
1000
0001
0000
,
0000
0000
1001
0000
0000
0000
1000
0001
,
1000
0000
0000
0000
0000
0001
1000
0001
,
0000
0000
1001
0000
0000
0000
0001
1000
,
0001
0000
0000
0001
1000
0001
0000
0000
,
0100
0010
0100
0000
2000
3000
0010
0000
,
0020
0130
0000
0000
0000
0001
1000
0001
,
0000
0000
1001
0000
0000
0000
0001
1000
,
0001
0000
0000
0100
0001
0100
0000
0000
,
0000
0020
0030
0020
0030
0000
1000
0000
,
0001
0010
0001
0000
1000
0001
1000
0000
,
0010
0100
0020
0000
2030
0000
3002
0000
,
0103
0020
0000
0200
,
0330
0000
0001
0010
0001
0000
0010
0000
,
0100
0001
0100
0000
0001
1000
0001
0000
,
1000
0010
1000
0000
0010
0000
1000
0000
,
1000
2200
3300
0022
,
0033
0020
0030
0002
,
0003
0000
0000
0000
2002
0000
3003
0000
0010
0000
0000
2000
0000
3200
0000
0320
,
0000
0030
0000
0000
0011
0000
0000
0002
0000
0023
0000
0230
0000
0300
0000
0000
,
0100
0000
0000
2000
0000
0020
3000
0000
0030
0000
0000
2000
0000
0020
0000
3000
,
0000
0030
0000
0000
0010
0000
0100
0000
0001
0000
0000
0200
0300
0000
0010
0000
,
0010
0020
0030
0001
0010
0000
0001
0100
,
0020
0000
0030
0000
1000
0001
1000
0000
,
0000
0010
0000
0100
0000
0100
0000
0010
,
0000
0000
0000
0000
0002
0000
0000
0020
0000
0003
0200
0000
0030
2000
0000
0300
,
0002
3003
0200
0310
0100
0100
0001
1000
,
0001
1000
1001
0000
0000
0000
1000
0001
,
2000
0000
3000
0000
0000
0001
1000
0001
,
0000
0000
1001
0000
0000
0000
1000
0100
,
2000
0000
0000
0000
3000
0000
1000
0001
,
1000
0001
1000
0000
0200
0000
0300
0000
,
0000
0000
0000
0010
1000
0001
1000
0000
,
0010
0011
0000
0110
,
0000
0000
1100
0000
0000
0000
0001
1000
,
0001
1000
0001
0000
0000
0000
0001
1000
,
0002
0000
0003
0000
0000
1000
0001
1000
;

//--------------- dance-single - Ettenra ----------------
#NOTEDATA:;
#STEPSTYPE:dance-single;
#DESCRIPTION:Ettenra;
#DIFFICULTY:Hard;
#METER:8;
#RADARVALUES:0,0,0,0,0;
#NOTES:
0000
0000
1001
0000
0000
1000
0001
1000
,
0002
0000
0003
1000
0001
1000
0001
1000
,
0020
0130
1001
0000
0000
0001
1000
0001
,
2000
0000
3000
0001
1000
0001
1000
0001
,
0020
0130
1001
0000
0000
0100
1000
0100
,
2000
0000
0000
0000
3000
0000
1000
0001
,
1000
0001
1000
0000
0200
0000
1300
0000
,
0020
0130
0000
0000
0000
0010
0100
0000
,
0100
0001
0000
0002
0000
0000
0003
0000
,
1010
0000
0101
0100
0001
0010
0200
0000
,
1300
0002
0000
0200
0000
0303
0000
0000
,
0011
0000
1100
0000
0000
0100
0010
0100
,
0010
0001
0100
0002
0000
0003
0000
0000
,
0001
0001
0100
0010
0100
0001
2000
0000
,
3001
2000
0000
0000
0000
0000
3000
0000
,
0110
1001
0110
1001
,
0000
0002
0000
0000
0010
0000
1003
0000
,
0100
0020
0030
0100
0001
1000
0001
1000
,
0020
0030
1000
0000
0001
0100
0000
0001
,
0200
0000
0000
0300
0000
0001
0010
0001
,
0010
0000
0001
0000
0010
0000
0000
0200
0000
0000
0000
0000
0300
0000
0000
0000
,
0220
0000
0000
0330
0000
0100
1000
0100
,
1000
0000
0100
0000
1000
0000
0000
0020
0000
0000
0000
0030
0000
0000
0020
0000
,
0000
0000
0230
0000
0000
0000
0302
0000
0200
0000
0303
0000
0010
0000
0000
0100
,
0000
0000
0001
0000
0020
0000
0000
0200
0000
0330
0000
0000
1000
0000
0000
0100
,
0000
0000
0010
0000
0002
0000
0000
2000
0000
3003
0000
0000
0100
0000
0000
1000
,
0000
0000
0010
0000
1000
0000
0000
0000
0100
0000
0000
0000
0100
0000
0000
1000
,
0000
0000
0100
0000
0020
0000
0000
0200
0030
0000
0000
0300
0000
0000
0000
0000
,
1000
1001
0001
0101
,
0100
0110
0010
1010
,
2000
0000
0100
0010
,
0002
0000
0000
0000
0000
0000
0000
0000
3003
0000
0000
0000
0100
0000
0000
0010
,
0000
0000
1000
0000
0020
0000
0200
0000
0000
0330
0000
0000
0001
0000
0000
0100
,
0000
0000
0010
0000
2000
0000
0002
0000
0000
3003
0000
0000
0100
0000
0000
0001
,
0000
0010
0002
0003
0000
0002
0003
0000
,
0020
0030
0000
0200
0300
0000
1000
0100
,
1000
0010
0000
1000
0010
0000
0100
0000
,
0001
0100
0000
0010
1000
0000
1001
0000
,
0010
1000
0001
0200
0300
0000
0001
0200
,
0300
0000
0001
0200
0300
0000
0010
1000
,
0100
1000
0100
0000
0000
0010
0001
0010
,
0001
0000
0000
1000
0001
1000
0001
1000
,
0020
0130
1001
0000
0000
0001
1000
0001
,
1000
0000
0000
0001
1000
0001
1000
0001
,
0020
0130
1001
0000
0000
1000
0001
1000
,
0001
0000
0000
0001
1000
0001
0010
0001
,
0100
0001
1000
0000
2000
3000
0010
0000
,
0020
0130
0000
0010
1000
0001
1000
0001
,
0020
0130
1001
0000
0000
1000
0001
1000
,
0001
0000
0000
0100
0001
0100
0000
0000
,
0000
0020
0030
0020
0030
0100
0001
0000
,
0001
0010
0001
0000
1000
0001
1000
0000
,
0010
0100
0020
0000
2030
0000
3002
0000
,
0103
0010
0020
0000
0000
0000
0200
0000
,
0330
0100
0001
0010
0001
0100
0010
0000
,
0100
0001
0100
0000
0001
1000
0001
0000
,
1000
0010
1000
0000
0010
0000
1000
0000
,
1000
0100
2200
0000
3300
0000
0022
0000
,
0033
0000
0000
0000
0010
0000
0000
0100
0000
0000
0000
0000
0001
0000
0000
1000
,
0000
0000
0000
0000
2002
0000
3003
0000
0010
0000
0000
2000
0000
3200
0000
0320
,
0000
0030
0000
0000
0011
0000
0000
0002
0000
0023
0000
0230
0000
0300
0000
0000
,
0100
0010
0000
1000
0000
0010
0000
0000
1001
0000
0000
1000
0000
0010
0000
0000
,
1001
0000
0100
0001
0000
0100
0001
0000
1000
0000
1000
0200
0300
0000
0010
0000
,
0010
0000
0020
0030
0000
0001
0001
0000
0010
0000
0000
0000
0001
0000
0100
0000
,
0020
0000
0000
0000
0030
0000
0000
1000
1000
0000
0001
0000
0000
0000
1000
0000
,
0002
0000
0013
0100
0000
0010
0100
0000
1000
0000
0100
0010
0000
0100
0010
0000
,
0001
0000
0010
0000
0001
0002
0000
0010
0020
0003
0100
0200
0030
1000
2000
0300
,
0001
0002
3003
0000
0200
0000
0310
0000
0100
0000
0100
0000
0001
0000
1000
0000
,
0001
1000
1001
0000
0000
0001
1000
0001
,
1000
0000
0000
0001
1000
0001
1000
0001
,
0020
0130
1001
0000
0000
1000
0001
1000
,
0001
0000
0000
0001
1000
0001
0010
0001
,
0100
0001
1000
0000
2000
3000
0010
0000
,
0020
0130
0000
0010
1000
0001
1000
0001
,
0010
0011
0100
0110
,
1001
0000
1100
0000
0000
0000
0001
1000
,
0001
1000
0001
0000
0000
1000
0001
1000
,
0002
0000
0003
1000
0001
1000
0001
1000
,
0020
0130
0000
0000
0000
0000
0000
0000
;

//--------------- dance-single - Ettenra ----------------
#NOTEDATA:;
#STEPSTYPE:dance-single;
#DESCRIPTION:Ettenra;
#DIFFICULTY:Challenge;
#METER:9;
#RADARVALUES:0,0,0,0,0;
#NOTES:
0000
0000
1001
0000
0000
1000
0001
1000
,
0002
0000
0003
1000
0001
1000
0001
1000
,
0020
0130
1001
0000
0000
0001
1000
0001
,
2000
0000
3000
0001
1000
0001
1000
0001
,
0020
0130
1001
0000
0000
0100
1000
0100
,
2000
0000
0000
0000
0000
0000
0001
0000
3000
0000
1000
0001
1000
0000
0001
0000
,
1000
0001
1000
0000
0200
0000
1300
0000
,
0020
0130
0000
0000
0000
0010
0100
0000
,
0100
0001
0000
0002
0000
0000
0003
0000
,
1010
0000
0101
0100
0001
0010
0200
0000
,
1300
0002
0000
0200
0000
0303
0000
0000
,
0011
0000
1100
0000
0000
0100
0010
0100
,
0010
0001
0100
0002
0000
0003
0000
0000
,
0001
0001
0100
0010
0100
0001
2000
0000
,
3001
2000
0000
0000
0000
0000
3000
0000
,
0110
1001
0110
1001
,
0000
0002
0000
0000
0010
0000
1003
0000
,
0100
0020
0030
0100
0001
1000
0001
1000
,
0020
0030
1000
0000
0001
0100
0000
0001
,
0200
0000
0000
0300
0000
0001
0010
0001
,
0010
0000
0001
0000
0010
0000
0000
0200
0000
0000
0000
0000
0300
0000
0000
0000
,
0220
0000
0000
0330
0000
0100
1000
0100
,
1000
0000
0100
0000
1000
0000
0000
0020
0000
0000
0000
0030
0000
0000
0020
0000
,
0000
0000
0230
0000
0000
0000
0302
0000
0200
0000
0303
0000
0010
0000
0000
0100
,
0000
0000
0001
0000
0020
0000
0000
0200
0000
0330
0000
0000
1000
0000
0000
0100
,
0000
0000
0010
0000
0002
0000
0000
2000
0000
3003
0000
0000
0100
0000
0000
1000
,
0000
0000
0010
0000
1000
0000
0000
0000
0100
0000
0000
0000
0100
0000
0000
1000
,
0000
0000
0100
0000
0020
0000
0000
0200
0030
0000
0000
0300
0000
0000
0000
0000
,
1000
1001
0001
0101
,
0100
0110
0010
1010
,
2000
0000
0100
0010
,
0002
0000
0000
0000
0000
0000
0000
0000
3003
0000
0000
0000
0100
0000
0000
0010
,
0000
0000
1000
0000
0020
0000
0200
0000
0000
0330
0000
0000
0001
0000
0000
0100
,
0000
0000
0010
0000
2000
0000
0002
0000
0000
3003
0000
0000
0100
0000
0000
0001
,
0000
0010
0002
0003
0000
0002
0003
0000
,
0020
0030
0000
0200
0300
0000
1000
0100
,
1000
0010
0000
1000
0010
0000
0100
0000
,
0001
0100
0000
0010
1000
0000
1001
0000
,
0010
1000
0001
0200
0300
0000
0001
0200
,
0300
0000
0001
0200
0300
0000
0010
1000
,
0100
1000
0100
0000
0000
0010
0001
0010
,
0001
0000
0000
1000
0001
1000
0001
1000
,
0020
0130
1001
0000
0000
0001
1000
0001
,
1000
0000
0000
0001
1000
0001
1000
0001
,
0020
0130
1001
0000
0000
1000
0001
1000
,
0001
0000
0000
0001
1000
0001
0010
0001
,
0100
0001
1000
0000
2000
3000
0010
0000
,
0020
0130
0000
0010
1000
0001
1000
0001
,
0020
0130
1001
0000
0000
1000
0001
1000
,
0001
0000
0000
0100
0001
0100
0010
1000
,
0001
0020
0030
0020
0030
0100
1000
0000
,
0001
0010
0001
0000
1000
0001
1000
0000
,
0010
0100
0020
0000
2030
0000
3002
0000
,
0103
0010
0020
0000
0000
0000
0200
0000
,
0330
0100
0001
0010
0001
0100
0010
0000
,
0100
0001
0100
0000
0001
1000
0001
0000
,
1000
0010
1000
0000
0010
0000
1000
0000
,
1000
0100
2200
0000
3300
0000
0022
0000
,
0033
0000
0000
0000
0010
0000
0000
0100
0000
0000
0000
0000
0001
0000
0000
1000
,
0000
0000
0000
0000
2002
0000
3003
0000
0010
0000
1000
0001
0000
0200
0000
0302
,
0000
0020
0033
0000
0011
0000
1000
0001
0000
2000
0000
0200
0000
3300
0000
0000
,
0100
0010
0000
1000
0001
0010
0000
0000
1001
0000
0000
1000
0001
0010
0100
0000
,
1001
0000
0100
0001
0000
0100
0001
0000
1000
0010
1000
0200
0300
0000
0100
0000
,
0100
0000
0100
0010
0000
0001
1000
0001
0010
0001
1000
0001
0100
0001
1000
0001
,
0020
0000
0000
0000
0030
0000
0100
1000
0010
1000
0001
1000
0010
1000
0100
1000
,
0002
0000
0013
0100
0000
0010
0100
0000
1000
0000
0100
0010
0000
0100
0010
0000
,
0001
0000
0010
0000
0001
0002
0000
0010
0020
0003
0100
0200
0030
1000
2000
0300
,
0001
0002
3003
0000
0200
0000
0310
1000
0001
0000
0001
1000
0010
0100
0001
0000
,
1000
0001
1001
0000
0000
0001
1000
0001
,
1000
0000
0000
0001
1000
0001
1000
0001
,
0020
0130
1001
0000
0000
1000
0001
1000
,
0001
0000
0000
0001
1000
0001
0010
0001
,
0100
0001
1000
0000
2000
3000
0010
0000
,
0020
0130
0000
0010
1000
0001
1000
0001
,
0020
0030
0011
0000
1000
0001
0110
0000
,
1001
0000
1100
1000
0100
1000
0001
1000
,
0001
1000
0001
0000
0000
1000
0001
1000
,
0002
0000
0003
1000
0001
1000
0001
1000
,
0020
0130
0000
0000
0000
0000
0000
0000
;
