#VERSION:0.83;
#TITLE:CRAZY;
#SUBTITLE:;
#ARTIST:LE SSERAFIM;
#TITLETRANSLIT:;
#SUBTITLETRANSLIT:;
#ARTISTTRANSLIT:;
#GENRE:;
#CREDIT:;
#MUSIC:CRAZY.ogg;
#BANNER:Banner.png;
#BACKGROUND:Background.png;
#CDTITLE:;
#SAMPLESTART:72.281;
#SAMPLELENGTH:16.385;
#SELECTABLE:YES;
#OFFSET:0.176;
#BPMS:0.000=130.000;
#STOPS:97.500=0.115
,97.750=0.115
,98.000=0.115
,98.250=0.115
,104.500=0.115
,104.750=0.115
,105.000=0.115
,105.250=0.115
,111.500=0.115
,111.750=0.115
,112.000=0.115
,112.250=0.115
;
#BGCHANGES:0.176=Crazy.mp4=1.000=0=0=1,
99999.000=-nosongbg-=1.000=0=0=0=StretchNoLoop====
;
#FGCHANGES:;

//--------------- dance-single - Ettenra ----------------
#NOTEDATA:;
#STEPSTYPE:dance-single;
#DESCRIPTION:Ettenra;
#DIFFICULTY:Beginner;
#METER:2;
#RADARVALUES:0,0,0,0,0;
#NOTES:
0000
0000
0000
0000
,
0000
0000
0000
0000
,
0000
0000
0000
0000
,
0000
1000
0000
0001
,
0000
0000
0000
0100
,
0100
0000
0000
0010
,
0010
0000
0000
0100
,
0100
0000
0000
0220
,
0330
0000
0000
0002
,
0003
0000
1000
2000
,
3000
1000
0000
0002
,
0003
0001
0000
1000
,
0000
1001
0000
0002
,
0003
0000
1000
2000
,
3000
1000
0000
0200
,
0300
0000
0000
0000
,
0000
0110
0110
0000
,
0000
1001
1001
0000
,
1000
0000
0100
0000
,
0001
0000
0010
0000
,
1000
0000
1000
0000
,
0100
0000
0100
0000
,
1000
0000
0010
0010
,
0000
0100
0100
0000
,
1000
0000
2000
0000
0000
3000
0000
0000
,
0001
0000
0100
0000
,
0002
0000
0000
0003
0000
0000
0010
0000
,
0000
0100
0000
0020
,
0000
0030
0000
0000
0001
0000
0000
0000
,
0010
0000
0100
0000
,
1000
0000
0010
0000
,
0001
0000
0000
0001
,
0000
0010
0000
1001
,
0000
0110
0000
1001
,
0000
0000
1000
0000
,
0001
0000
0110
0000
,
0002
0003
0000
1000
,
2000
3000
1000
0000
,
0002
0003
0001
0000
,
1000
0000
1001
0000
,
0002
0003
0000
1000
,
2000
3000
1000
0000
,
0200
0300
0000
0100
,
0200
0300
0000
0000
,
0100
0100
0000
0000
,
0010
0010
0000
0000
,
0100
0100
0000
0000
,
0220
0330
0000
0000
,
1000
1000
0000
0000
,
0001
0001
0000
0000
,
1000
1000
0000
0000
,
2002
3003
0000
0000
;

//--------------- dance-single - Ettenra ----------------
#NOTEDATA:;
#STEPSTYPE:dance-single;
#DESCRIPTION:Ettenra;
#DIFFICULTY:Easy;
#METER:3;
#RADARVALUES:0,0,0,0,0;
#NOTES:
0000
0000
0000
0000
,
0000
0000
0000
0000
,
0000
0000
0000
0000
,
0000
1000
0100
0010
,
0001
0000
0000
0000
0020
0000
0000
0000
0130
0000
0000
0000
0002
0000
0000
0003
,
2000
0000
0000
3000
0020
0000
0000
0000
0130
0000
0000
0000
2000
0000
0000
3000
,
0002
0000
0000
0003
0020
0000
0000
0000
0130
0000
0000
0000
0002
0000
0000
0003
,
2000
0000
0000
3000
0020
0000
0000
0000
0130
0000
0000
0000
0220
0000
0000
0000
,
0330
1001
0000
0002
,
0003
0000
0000
0000
2000
3000
0002
0000
,
0003
0000
0002
0003
0000
0000
0002
0000
,
0003
1000
0100
0010
,
0001
0011
0000
0002
,
0003
0000
0000
0000
2000
3000
0002
0000
,
0003
0000
0002
0003
0000
0000
0200
0000
,
0300
0000
0000
0001
,
0010
0011
0011
1000
,
0100
1100
1100
1000
,
1000
0010
0100
0001
,
0001
0200
0310
1000
,
1001
0000
0000
0000
1000
0000
0002
0003
,
0200
0300
0000
0000
0100
0000
0020
0030
,
2000
3000
0000
0000
0010
0000
0010
0000
,
0100
0001
0100
1000
,
0100
0000
0000
2000
0000
3000
0000
0000
,
0010
0001
0100
0001
,
0000
0002
0000
0003
0000
0000
0010
0000
,
1000
0000
0100
0000
1000
0000
0000
0020
,
0000
0030
0100
0000
0001
0000
0010
0000
,
0001
0010
0000
0000
,
1000
0010
1000
0000
,
1000
0010
0100
0001
,
1000
0010
1000
1001
,
0100
0110
0001
1001
,
0010
0110
1000
0100
,
0010
0001
0011
0000
,
0202
0303
0000
1000
,
2002
3003
0011
0000
,
0202
0303
1000
0100
,
0010
0001
1010
0000
,
2200
3300
0000
0001
,
2002
3003
1010
0000
,
2200
3300
0000
1000
,
2002
3003
0020
0130
,
0002
0000
0000
0003
2000
0000
0000
3000
0020
0000
0000
0000
0130
0000
0000
0000
,
2000
0000
0000
3000
0002
0000
0000
0003
0020
0000
0000
0000
0130
0000
0000
0000
,
0002
0000
0000
0003
2000
0000
0000
3000
0020
0000
0000
0000
0130
0000
0000
0000
,
0220
0330
0020
0130
,
2000
3002
0023
0130
,
0002
2003
3020
0130
,
2000
3002
0023
0130
,
0220
0330
0000
0000
;

//--------------- dance-single - Ettenra ----------------
#NOTEDATA:;
#STEPSTYPE:dance-single;
#DESCRIPTION:Ettenra;
#DIFFICULTY:Medium;
#METER:5;
#RADARVALUES:0,0,0,0,0;
#NOTES:
0000
0000
0001
0000
0000
0010
0002
0000
,
0003
0000
0000
0010
1000
0000
0002
0000
,
0003
0100
0001
0000
0000
0010
0002
0000
,
0003
0000
1000
0100
0010
0000
0010
0100
,
1000
0000
0000
0000
0020
0000
0000
0000
0130
0000
0000
0000
0002
0000
0100
0003
,
2000
0000
0100
3000
0020
0000
0000
0000
0130
0000
0000
0000
2000
0000
0100
3000
,
0002
0000
0100
0003
0020
0000
0000
0000
0130
0000
0000
0000
0002
0000
0100
0003
,
2000
0000
0100
3000
0020
0000
0000
0000
0130
0000
0000
0000
0220
0000
0000
0000
,
0330
0000
1001
0000
0000
0010
0002
0000
,
0003
0000
0000
0020
2030
3000
0002
0000
,
0003
0100
0002
0003
0000
0010
0002
0000
,
0003
0000
1000
0100
0010
0000
0010
0100
,
1000
0000
0011
0000
0000
0010
0002
0000
,
0003
0000
0000
0020
2030
3000
0002
0000
,
0003
0100
0002
0003
0000
0010
0002
0000
,
0000
0200
0000
0000
0303
0000
0001
0010
,
0001
0000
0011
0000
0011
0000
1000
0100
,
1000
0000
1100
0000
1100
0000
1000
0010
,
1000
0000
0010
1000
0100
0000
0001
0100
,
0001
0200
0310
1000
,
1001
0000
0000
1000
0000
0000
0002
0003
,
0200
0300
0000
0010
0000
0000
0020
0030
,
2000
3000
0000
0100
0010
0100
0010
0000
,
0100
0001
0100
1000
,
0100
0000
0000
2000
0000
3000
0000
0000
,
0010
1000
0001
0000
0100
0001
1000
0000
,
0000
0002
0000
0003
0000
0000
0010
1000
,
0001
0000
0100
0001
1000
0000
0000
0020
,
0000
0030
0100
0000
0001
0000
0010
0000
,
0010
0000
1000
0020
0000
0000
0030
0000
,
1000
0000
0000
0000
0010
0000
0200
0000
0001
0000
0000
0300
0000
0000
0000
0000
,
1000
0001
0010
0001
0100
0000
0001
0000
,
1000
0010
1000
1001
,
0100
0101
1000
1001
,
0100
0000
1100
0000
1000
0100
0010
0000
,
0010
0100
1000
0000
0022
0033
0000
0010
,
0202
0000
0303
0000
0000
0020
2030
3000
,
2002
0000
3003
0100
0022
0033
0000
0010
,
0202
0000
0303
0000
1000
0100
0010
0000
,
0010
0100
1000
0000
2020
3030
0000
0010
,
2200
0000
3300
0000
0000
0020
0032
0003
,
2002
0000
3003
0100
2020
3030
0000
0010
,
2200
0000
3300
0000
0000
0020
2030
3000
,
2002
3003
0020
0130
,
0002
0000
0100
0003
2000
0000
0100
3000
0020
0000
0000
0000
0130
0000
0000
0000
,
2000
0000
0100
3000
0002
0000
0100
0003
0020
0000
0000
0000
0130
0000
0000
0000
,
0002
0000
0100
0003
2000
0000
0100
3000
0020
0000
0000
0000
0130
0000
0000
0000
,
0220
0330
0020
0130
,
2000
0100
3002
0100
0023
0000
0130
0000
,
0002
0100
2003
0100
3020
0000
0130
0000
,
2000
0100
3002
0100
0023
0000
0130
0000
,
0220
0330
0000
1001
0000
0000
0000
0000
;

//--------------- dance-single - Ettenra ----------------
#NOTEDATA:;
#STEPSTYPE:dance-single;
#DESCRIPTION:Ettenra;
#DIFFICULTY:Hard;
#METER:7;
#RADARVALUES:0,0,0,0,0;
#NOTES:
0000
0000
0000
0000
0001
0000
0000
0000
0000
0000
0010
0000
0001
0000
0000
0001
,
0000
0000
0000
0000
0000
0000
0010
0000
1000
0000
0000
0000
0001
0000
0000
0001
,
0000
0000
0100
0000
0001
0000
0000
0000
0000
0000
0010
0000
0001
0000
0000
0001
,
0000
0000
1000
0100
0010
0001
0010
0100
,
1000
0000
0100
0000
0020
0000
0030
0000
0001
0000
0100
0000
0002
0000
0200
0303
,
2000
0000
0200
3300
0020
0000
0030
0000
1000
0000
0100
0000
2000
0000
0200
3300
,
0002
0000
0200
0303
0020
0000
0030
0000
0001
0000
0100
0000
0002
0000
0200
0303
,
2000
0000
0000
0000
0000
0000
0200
0000
0000
3300
0000
0000
0020
0000
0000
0000
0000
0000
0030
0000
0000
0000
0000
0000
2000
0000
0000
0000
3000
0000
0100
0000
0000
0000
0000
0000
0220
0000
0000
0000
0000
0000
0000
0000
0000
0000
0000
0000
,
0030
0000
0301
0000
1001
0000
0000
0000
0000
0000
0010
0000
0001
0000
0000
0002
,
0000
0003
0000
0000
0000
0000
0020
0000
2030
0000
3000
0000
0001
0000
0000
0001
,
0000
0000
0100
0000
0002
0000
0003
0000
0000
0000
0010
0000
0001
0000
0000
0002
,
0000
0003
0000
0000
1000
0000
0100
0000
0010
0000
0001
0000
0010
0000
0100
0000
,
1000
0000
0100
0000
0011
0000
0000
0000
0000
0000
0010
0000
0001
0000
0000
0002
,
0000
0003
0000
0000
0000
0000
0020
0000
2030
0000
3000
0000
0001
0000
0000
0001
,
0000
0000
0100
0000
0002
0000
0003
0000
0000
0000
0010
0000
0001
0000
0000
0001
,
0000
0220
0000
0000
0330
0000
0001
0010
,
0001
0100
0202
0303
0022
0033
1000
0010
,
1000
0100
2200
3300
2020
3030
0010
1000
,
0010
0001
0010
1000
0100
0000
0100
0001
,
0100
1000
0200
0000
0310
0001
2002
3003
,
2002
3003
0000
2000
3020
0230
0302
0023
,
0230
2300
3000
0020
2030
3002
0023
0230
,
2300
3002
0003
0100
0010
0100
0010
0010
,
0100
0100
0001
0001
0100
0100
0001
0100
,
0100
0000
0010
0000
0000
0000
2000
3020
0230
0302
0003
0000
0000
0000
0000
0000
,
0010
0001
1000
0001
0100
0001
2000
0200
,
3300
0000
0002
0023
0230
2300
3020
0000
0030
0000
0000
0000
0010
0000
1000
0000
,
0001
0000
1000
0000
0100
0000
1000
0000
0002
0000
0200
0000
0303
0000
0020
2030
,
3200
0320
0030
0000
0100
0000
0100
0000
0001
0000
0010
0000
0010
0000
0001
0000
,
0010
0000
0010
0000
2100
3000
0020
0000
0000
0000
0000
0000
0030
0000
0010
0000
,
1000
0000
0010
0000
0010
0000
0200
0000
0001
0000
0010
0300
1000
0000
0100
0000
,
0010
0001
0100
0001
0100
0100
0001
0001
,
1000
1000
0010
0010
1000
0001
1001
0010
,
0001
0100
0101
0010
1000
0001
1001
0010
,
1000
0100
1100
0000
1000
0100
0010
0001
,
0010
0100
1000
0100
0022
0033
0000
0010
,
0101
0000
0000
0022
0000
0033
0000
0000
0000
0000
0020
0000
2030
0000
3000
0000
,
1001
0000
0000
1001
0000
0000
0100
0000
0022
0000
0033
0000
0000
0000
0010
0000
,
0101
0000
0000
0022
0000
0033
0000
0000
1000
0000
0100
0000
0010
0000
0001
0000
,
0010
0100
1000
0100
2020
3030
0000
0010
,
1100
0000
0000
2020
0000
3030
0000
0000
0000
0000
0020
0000
0032
0000
0003
0000
,
1001
0000
0000
1001
0000
0000
0100
0000
2020
0000
3030
0000
0000
0000
0010
0000
,
1100
0000
0000
2020
0000
3030
0000
0000
0000
0000
0020
0000
2030
0000
3000
0000
,
1001
0000
0000
1001
0000
0000
0100
0000
0020
0000
0030
0000
0001
0000
0100
0000
,
0002
0000
0000
0100
0003
0000
2000
0000
0000
0100
3000
0000
0020
0000
0000
0030
0000
0000
1000
0000
0000
0100
0000
0000
,
2000
0000
0000
0100
3000
0000
0002
0000
0000
0100
0003
0000
0020
0000
0000
0030
0000
0000
0001
0000
0000
0100
0000
0000
,
0002
0000
0000
0100
0003
0000
2000
0000
0000
0100
3000
0000
0020
0000
0000
0030
0000
0000
2000
0000
3000
0100
0000
0000
,
0220
0000
0030
0301
0020
0030
1000
0100
,
2000
3100
0002
0103
0020
0030
0001
0100
,
0002
0103
2000
3100
0020
0030
1000
0100
,
2000
0000
3100
0000
0002
0000
0103
0000
0020
0000
0030
0000
0002
0003
0100
0000
,
0220
0330
0000
1001
0000
0000
0000
0000
;

//--------------- dance-single - Ettenra ----------------
#NOTEDATA:;
#STEPSTYPE:dance-single;
#DESCRIPTION:Ettenra;
#DIFFICULTY:Challenge;
#METER:8;
#RADARVALUES:0,0,0,0,0;
#NOTES:
0000
0000
0000
0000
0001
0000
0000
0000
0000
0000
0010
0000
0001
0000
0000
0001
,
0000
0000
0000
0000
0000
0000
0010
0000
1000
0000
0000
0000
0001
0000
0000
0001
,
0000
0000
0100
0000
0001
0000
0000
0000
0000
0000
0010
0000
0001
0000
0000
0001
,
0000
0000
0000
0000
1000
0000
0100
0010
0001
0000
0010
0000
0010
0000
0100
0000
,
1000
0000
0100
0000
0020
0000
0030
1000
0001
0000
0100
0000
0002
0000
0200
0303
,
2000
0000
0200
3300
0020
0000
0030
0001
1000
0000
0100
0000
2000
0000
0200
3300
,
0002
0000
0200
0303
0020
0000
0030
1000
0001
0000
0100
0000
0002
0000
0200
0303
,
2000
0000
0000
0000
0000
0000
0200
0000
0000
3300
0000
0000
0020
0000
0000
0000
0000
0000
0030
0000
0000
0001
0000
0000
2000
0000
0000
0000
3000
0000
0100
0000
0000
0000
0000
0000
0220
0000
0000
0000
0000
0000
0000
0000
0000
0000
0000
0000
,
0030
0000
0301
0000
1001
0000
0000
0000
0000
0000
0010
0000
0001
0000
0000
0002
,
0000
0003
0000
0000
0000
0000
0020
0000
2030
0000
3000
0000
0001
0000
0000
0001
,
0000
0000
0100
0000
0002
0000
0003
0000
0000
0000
0010
0000
0001
0000
0000
0002
,
0000
0003
0000
0000
1000
0000
0100
0010
0001
0000
0010
0000
0010
0000
0100
0000
,
1000
0000
0100
0000
0011
0000
0000
0000
1000
0000
0010
0000
0001
0000
0000
0002
,
0000
0003
0000
0000
1000
0000
0020
0000
2030
0000
3000
0000
0001
0000
0000
0001
,
0000
0000
0100
0000
0002
0000
0003
0000
1000
0000
0010
0000
0001
0000
0000
0001
,
0000
0000
2002
0000
0000
0000
0000
0000
3003
0000
0000
0000
0100
0010
0001
0010
,
0001
0000
0100
0000
0202
0000
0303
0000
0022
0000
0033
0000
0100
0001
1000
0001
,
1000
0100
2200
3300
2020
3030
0010
1000
,
0010
0000
0001
0000
0010
0000
1000
0000
0200
0300
0000
0000
0100
0000
0001
0000
,
0100
0000
1000
0000
0200
0000
0000
0000
0310
0000
0001
1000
0001
1000
0001
0000
,
2002
3003
0110
2000
3020
0230
0302
0023
,
0230
2300
3000
0020
2030
3002
0023
0230
,
2300
0000
3002
0000
0003
0000
0100
0000
0010
0000
0100
0000
0010
1000
0010
0000
,
0100
0000
0100
0000
0001
0010
0001
0000
0100
0000
0100
0001
0000
0001
0100
0000
,
0100
0000
0010
0000
0110
0000
2000
3020
0230
0302
0003
0000
0101
0000
0000
0000
,
0010
0001
1000
0001
0100
0001
2000
0200
,
3300
0000
0002
0023
0230
2300
3020
0000
0030
0000
0000
0000
0010
0000
1000
0000
,
0001
0000
1000
0000
0100
0000
1000
0000
0002
0000
0200
0000
0303
0000
0020
2030
,
3200
0320
0030
0000
0100
0000
0100
0000
0001
0000
0010
0000
0010
0000
0001
0000
,
0010
0000
0010
0000
2100
3000
0020
0000
4000
0000
0000
0000
3030
0000
0010
0000
,
1000
0000
0010
0000
0010
0000
0200
0000
0001
0000
0010
0300
1000
0000
0100
0000
,
0010
0001
0100
0001
0100
0100
0001
0001
,
1000
1000
0010
0010
1000
0001
1001
0010
,
0001
0100
0101
0010
1000
0001
1001
0010
,
1000
0000
0010
0000
0001
0000
0010
0000
1000
0000
0100
0010
0001
0000
0010
0000
,
0010
0100
1000
0100
0022
0033
1000
0010
,
0101
0000
0000
0022
0000
0033
0000
0000
1000
0000
0020
0000
2030
0000
3000
0000
,
1001
0000
0000
1001
0000
0000
0100
0000
0022
0000
0033
0000
1000
0000
0010
0000
,
0101
0000
0000
0022
0000
0033
0000
0000
1000
0000
0100
0010
0001
0000
0010
0000
,
0010
0100
1000
0100
2020
3030
0001
0010
,
1100
0000
0000
2020
0000
3030
0000
0000
0001
0000
0020
0000
0032
0000
0003
0000
,
1001
0000
0000
1001
0000
0000
0100
0000
2020
0000
3030
0000
0001
0000
0010
0000
,
1100
0000
0000
2020
0000
3030
0000
0000
1000
0000
0020
0000
2030
0000
3000
0000
,
1001
0000
0000
1001
0000
0000
0100
0000
0020
0000
0030
1000
0001
0000
0100
0000
,
0002
0000
0000
0000
0000
0000
0100
0000
0003
0000
0000
0000
2000
0000
0000
0000
0000
0000
0100
0000
3000
0000
0000
0000
0020
0000
0000
0000
0000
0000
0030
0000
0000
0001
0000
0000
1000
0000
0000
0000
0000
0000
0100
0000
0000
0000
0000
0000
,
2000
0000
0000
0000
0000
0000
0100
0000
3000
0000
0000
0000
0002
0000
0000
0000
0000
0000
0100
0000
0003
0000
0000
0000
0020
0000
0000
0000
0000
0000
0030
0000
0000
1000
0000
0000
0001
0000
0000
0000
0000
0000
0100
0000
0000
0000
0000
0000
,
0002
0000
0000
0000
0000
0000
0100
0000
0003
0000
0000
0000
2000
0000
0000
0000
0000
0000
0100
0000
3000
0000
0000
0000
0020
0000
0000
0000
0000
0000
0030
0000
0000
0001
0000
0000
2000
0000
0000
0000
3000
0000
0100
0000
0000
0000
0000
0000
,
0220
0000
0000
0000
0030
0000
0301
0000
0020
0000
0030
0001
1000
0000
0100
0000
,
2000
0000
3100
0000
0002
0000
0103
0000
0020
0000
0030
1000
0001
0000
0100
0000
,
0002
0000
0103
0000
2000
0000
3100
0000
0020
0000
0030
0001
1000
0000
0100
0000
,
2000
0000
3100
0000
0002
0000
0103
0000
0020
0000
0030
1000
0002
0003
0100
0000
,
0220
0330
0000
1001
0000
0000
0000
0000
;
