#TITLE:The Prophecy;
#SUBTITLE:;
#ARTIST:Randomizor;
#TITLETRANSLIT:;
#SUBTITLETRANSLIT:;
#ARTISTTRANSLIT:;
#GENRE:;
#CREDIT:;
#BANNER:the prophecy-bn.png;
#BACKGROUND:the prophecy-bg.png;
#LYRICSPATH:;
#CDTITLE:;
#MUSIC:The Prophecy.ogg;
#OFFSET:-0.040;
#SAMPLESTART:54.870;
#SAMPLELENGTH:12.000;
#SELECTABLE:YES;
#DISPLAYBPM:140.000;
#BPMS:0.000=140.000,62.000=31.111,62.125=280.000,63.000=140.000,64.000=280.000,66.000=280.000,67.500=140.000,68.000=280.000,70.000=280.000,71.000=31.111,71.125=280.000,72.000=140.000,72.500=280.000,74.000=140.000,74.500=280.000,76.000=280.000,78.000=280.000,79.000=31.111,79.125=280.000,80.000=280.000,82.000=280.000,86.000=280.000,87.000=31.111,87.125=280.000,88.000=140.000,88.500=280.000,90.000=140.000,90.500=280.000,92.000=280.000,94.000=280.000,95.000=31.111,95.125=280.000,96.000=280.000,98.000=280.000,102.000=280.000,103.000=31.111,103.125=280.000,104.000=280.000,106.000=140.000,106.500=280.000,108.000=280.000,111.000=31.111,111.125=280.000,112.000=280.000,114.000=140.000,116.000=280.000,118.000=140.000,120.000=280.000,122.000=140.000,124.000=280.000,126.000=31.111,126.125=280.000,127.000=140.000,190.000=31.111,190.125=280.000,191.000=140.000;
#STOPS:64.000=0.107
,64.500=0.107
,65.000=0.107
,65.500=0.107
,66.000=0.107
,66.500=0.053
,66.750=0.107
,67.250=0.053
,68.000=0.107
,68.500=0.053
,68.750=0.053
,69.000=0.107
,69.500=0.107
,70.000=0.036
,70.167=0.036
,70.333=0.036
,70.500=0.036
,70.667=0.036
,70.833=0.036
,72.500=0.107
,73.000=0.107
,73.500=0.107
,74.500=0.107
,75.000=0.107
,75.500=0.107
,76.000=0.107
,76.500=0.053
,76.750=0.053
,77.000=0.107
,77.500=0.107
,78.000=0.036
,78.167=0.036
,78.333=0.036
,78.500=0.036
,78.667=0.036
,78.833=0.036
,80.000=0.107
,80.500=0.107
,81.000=0.107
,81.500=0.107
,82.000=0.107
,82.500=0.053
,82.750=0.107
,83.250=0.053
,83.500=0.107
,84.000=0.107
,84.500=0.053
,84.750=0.053
,85.000=0.107
,85.500=0.107
,86.000=0.036
,86.167=0.036
,86.333=0.036
,86.500=0.036
,86.667=0.036
,86.833=0.036
,88.500=0.107
,89.000=0.107
,89.500=0.107
,90.500=0.107
,91.000=0.107
,91.500=0.107
,92.000=0.107
,92.500=0.053
,92.750=0.053
,93.000=0.107
,93.500=0.107
,94.000=0.036
,94.167=0.036
,94.333=0.036
,94.500=0.036
,94.667=0.036
,94.833=0.036
,96.000=0.107
,96.500=0.107
,97.000=0.107
,97.500=0.107
,98.000=0.107
,98.500=0.053
,98.750=0.107
,99.250=0.053
,99.500=0.107
,100.000=0.107
,100.500=0.053
,100.750=0.053
,101.000=0.107
,101.500=0.107
,102.000=0.036
,102.167=0.036
,102.333=0.036
,102.500=0.036
,102.667=0.036
,102.833=0.036
,104.000=0.107
,104.500=0.107
,105.000=0.107
,105.500=0.107
,106.500=0.107
,107.000=0.107
,107.500=0.107
,108.000=0.107
,108.500=0.053
,108.750=0.053
,109.000=0.107
,109.500=0.107
,110.000=0.036
,110.167=0.036
,110.333=0.036
,110.500=0.036
,110.667=0.036
,110.833=0.036
,112.000=0.053
,112.250=0.053
,112.500=0.053
,112.750=0.053
,113.000=0.053
,113.250=0.053
,113.500=0.053
,113.750=0.053
,116.000=0.053
,116.250=0.053
,116.500=0.053
,116.750=0.053
,117.000=0.053
,117.250=0.053
,117.500=0.053
,117.750=0.053
,120.000=0.053
,120.250=0.053
,120.500=0.053
,120.750=0.053
,121.000=0.053
,121.250=0.053
,121.500=0.053
,121.750=0.053
,124.000=0.036
,124.167=0.036
,124.333=0.036
,124.500=0.036
,124.667=0.036
,124.833=0.036
,125.000=0.036
,125.167=0.036
,125.333=0.036
,125.500=0.036
,125.667=0.036
,125.833=0.036
;
#BGCHANGES:;
#KEYSOUNDS:;

//---------------dance-single - C.Sanabria----------------
#NOTES:
     dance-single:
     C.Sanabria:
     Challenge:
     11:
     0.699,1.000,0.069,0.800,0.766:
0000
0000
0000
0000
,
0000
0000
0000
0000
,
0000
0000
0000
0000
,
0000
0000
0000
0000
,
0000
0000
0000
0000
,
0000
0000
0000
0000
,
0000
0000
0000
0000
,
0000
0000
0000
0000
,
0200
0000
0000
0000
,
0000
0000
0000
0000
,
0302
0000
0000
0000
,
2003
0000
0000
0000
,
3020
0000
0000
0000
,
0000
0000
0000
0000
,
1030
0100
1000
0010
0100
0001
0010
0001
0100
0010
1000
0100
0010
0001
1000
0001
,
1000
0100
1000
0100
1000
0100
1000
0100
1000
0100
1000
0100
2000
0000
0000
0000
0000
0000
3001
0010
0001
0010
0001
0010
,
0002
0000
2003
0000
3020
0000
0230
0000
0301
0000
0100
0010
0000
0010
1000
0000
,
0100
0000
0000
0000
0000
0000
0010
0000
0000
0001
0000
0000
0010
0000
0000
0000
0000
0000
0100
0000
0000
0000
0000
0000
1000
0000
0001
0000
1000
0000
0001
0000
1000
0000
0001
0000
2000
0000
0000
0000
0000
0000
0000
0000
0000
0000
0000
0000
,
3200
0000
0040
0000
0300
0000
0000
0000
0032
0000
4000
0000
0003
0000
0000
3000
,
0001
0000
0100
0010
1000
0000
1000
0000
0004
0000
0000
0000
0023
0000
0000
0000
,
0230
0000
2300
0000
3002
0000
0203
0000
0310
0000
1000
0100
0000
0100
0010
0000
,
0001
0000
0000
0000
0000
0000
1000
0000
0000
0010
0000
0000
1000
0000
0000
0000
0000
0000
0001
0000
0000
0000
0000
0000
1000
0000
0001
0000
1000
0000
0001
0000
1000
0000
0001
0000
2000
0000
0000
0000
0000
0000
0000
0000
0000
0000
0000
0000
,
3100
0000
0020
0000
0000
0000
0000
0000
0031
0000
4000
0000
0000
0000
0000
3000
,
0001
0000
0100
0010
1000
0000
0001
0000
4000
0000
0000
0000
3020
0000
0000
0000
,
0430
0000
0000
0000
0000
0000
0000
0300
0010
0000
1000
0001
0000
1000
0001
0000
,
0100
0000
0000
0000
0000
0000
0010
0000
0000
1000
0000
0000
0010
0000
0000
0000
0000
0000
0100
0000
0000
0000
0000
0000
0001
0000
1000
0000
0001
0000
1000
0000
0001
0000
1000
0000
0002
0000
0000
0000
0000
0000
0000
0000
0000
0000
0000
0000
,
1003
0000
0200
0000
0320
0000
0032
0000
2003
0000
0004
0000
0000
0000
3000
0003
,
1000
0000
0000
0000
0000
0000
0010
0000
0000
0100
0000
0000
0001
0000
0000
0000
0000
0000
1000
0000
0000
0000
0000
0000
0100
0000
1000
0000
0100
0000
1000
0000
0100
0000
1000
0000
0200
0000
0000
0000
0000
0000
0000
0000
0000
0000
0000
0000
,
0310
0001
1000
0010
0100
0001
1000
0100
0010
0001
1000
0010
0100
0001
1000
0100
,
0010
0100
1000
0001
0010
0100
0010
0001
1000
0100
0010
0001
1000
0010
0100
0001
,
1000
0010
0100
0001
0100
0010
1000
0001
0100
0010
0100
0001
1000
0100
0010
0001
,
1000
0100
1000
0100
1000
0100
1000
0100
1000
0100
1000
0100
2000
0000
0000
0000
0000
0000
3001
0010
0100
1000
0001
0010
,
0002
0003
0100
0000
0010
0000
1000
0000
2200
3300
1000
0000
0010
0000
0100
0000
,
0002
0003
0010
0000
0100
0000
1000
0000
2200
3300
0100
0000
0010
0000
0001
0000
,
0200
0300
0010
0000
1000
0000
0010
0000
0022
0033
0010
0000
1000
0000
0100
0000
,
0020
0030
0001
0000
0100
0000
1000
0000
2200
3300
0100
0000
0001
0000
1000
0000
,
0200
0300
0010
0000
0100
0000
0010
0000
0022
0033
0001
0000
0100
0000
0010
0000
,
2000
3000
0100
0000
1000
0000
0100
0000
0220
0330
0010
0000
0001
0000
0100
0000
,
0020
0030
1000
0000
0010
0000
1000
0000
2020
3030
1000
0000
0010
0000
0100
0000
,
0002
0000
2003
0000
,
3002
0003
0000
0200
0300
0000
0020
0030
0000
2000
3000
0000
0004
0000
0000
0003
,
2000
3000
0000
0200
0300
0000
0020
0030
0000
0002
0003
0000
4000
0000
0000
3000
,
0002
0003
0000
0200
0300
0000
0020
0030
0000
2000
3000
0000
0400
0000
0000
0300
,
2000
3000
0000
0020
0030
0000
0200
0300
0000
0002
0003
0000
0010
0000
0100
1000
,
0001
0100
0001
0100
0001
0100
0001
0100
0010
1000
0010
1000
0010
1000
0010
1000
,
0001
0010
0001
0010
0001
0010
0001
0010
0100
1000
0100
1000
0100
1000
0100
1000
,
0001
0100
0010
1000
0100
1000
0010
0100
0001
1000
0001
1000
0100
0010
0100
0010
,
0001
1000
0001
1000
0001
1000
0001
1000
0001
1000
0001
1000
0002
0000
0000
0000
0000
0000
1003
0010
0100
0001
1000
0100
,
1000
M000
0000
0000
0000
0000
0000
0000
,
0002
0000
0000
0000
0000
0000
0000
0000
0000
0000
0000
0000
0000
0000
0000
0000
0000
0000
0013
0000
0000
0100
0000
0000
2000
0000
0000
0000
0000
0000
0000
0000
0000
0000
0000
0000
3001
0000
0100
0000
0001
0000
1000
0000
0010
0000
1000
0000
,
0002
0000
0000
0000
0000
0000
0000
0000
0000
0000
0000
0000
0000
0000
0000
0023
0000
0000
0130
1000
0001
1000
0100
0010
,
0002
0000
0000
0000
0000
0000
0000
0000
0000
0013
0100
1000
,
0020
0000
0000
0000
0000
0000
0000
0000
0000
0130
0001
1000
,
0200
0000
0000
0000
0000
0000
0000
0000
0000
0000
0000
0000
0000
0000
0000
0000
0000
0000
0310
0000
0000
0100
0000
0000
2000
0000
0000
0000
0000
0000
0000
0000
0000
0000
0000
0000
3001
0000
0100
0000
0001
0000
1000
0000
0010
0000
1000
0000
,
0002
0000
0000
0000
0000
0000
0000
0000
0000
0000
0000
0000
0000
0000
0000
0023
0000
0000
0130
1000
0001
1000
0100
0010
,
0002
0000
0000
0000
0000
0000
0000
0000
0000
0013
0100
1000
,
0002
0000
0000
0000
0000
0000
0000
0000
0000
0103
0010
2000
,
0002
0000
0000
0000
,
0000
0000
0000
0000
,
3003
0000
0000
0000
;

//---------------dance-single - C.Sanabria----------------
#NOTES:
     dance-single:
     C.Sanabria:
     Beginner:
     1:
     0.106,0.141,0.040,0.000,0.000:
0000
0000
0000
0000
,
0000
0000
0000
0000
,
0000
0000
0000
0000
,
0000
0000
0000
0000
,
0000
0000
0000
0000
,
0000
0000
0000
0000
,
0000
0000
0000
0000
,
0000
0000
0000
0000
,
0010
0000
0000
0000
,
0000
0000
0000
0000
,
1000
0000
0000
0000
,
0001
0000
0000
0000
,
0100
0000
0000
0000
,
0000
0000
0000
0000
,
0010
0000
0000
0000
,
1000
0000
0000
0000
,
0001
0000
0000
0000
,
0010
0000
0000
0000
,
0001
0000
0000
0000
,
0100
0000
0000
0000
,
1000
0000
0000
0000
,
0010
0000
0000
0000
,
1000
0000
0000
0000
,
0100
0000
0000
0000
,
0010
0000
0010
0000
,
1001
0000
0001
0000
,
1000
0000
1000
0000
,
0010
0000
0010
0000
,
0100
0000
0100
0000
,
0001
0000
0001
0000
,
1000
0000
1000
0000
,
0100
0000
0010
0000
,
1001
0000
0010
0000
,
0100
0000
0010
0000
,
0001
0000
0010
0000
,
0100
0000
0010
0000
,
1000
0000
0010
0000
,
0100
0000
0010
0000
,
0001
0000
0010
0000
,
0100
0000
0000
0000
,
1000
0000
1000
0000
,
1000
0000
1000
0000
,
0001
0000
0001
0000
,
0001
0000
0001
0000
,
0010
0000
0010
0000
,
0010
0000
0010
0000
,
0100
0000
0100
0000
,
0100
0000
0100
0000
,
1001
0000
0000
0000
,
0010
0000
0000
0000
,
0001
0000
0000
0000
,
1000
0000
0000
0000
,
0010
0000
0000
0000
,
0100
0000
0000
0000
,
0001
0000
0000
0000
,
1000
0000
0000
0000
,
0100
0000
0000
0000
,
1001
0000
0000
0000
;

//---------------dance-single - C.Sanabria----------------
#NOTES:
     dance-single:
     C.Sanabria:
     Hard:
     8:
     0.469,0.583,0.010,0.326,0.301:
0000
0000
0000
0000
,
0000
0000
0000
0000
,
0000
0000
0000
0000
,
0000
0000
0000
0000
,
0000
0000
0000
0000
,
0000
0000
0000
0000
,
0000
0000
0000
0000
,
0000
0000
0000
0000
,
0020
0000
0000
0000
,
0000
0000
0000
0000
,
0032
0000
0000
0000
,
2003
0000
0000
0000
,
3020
0000
0000
0000
,
0000
0000
0000
0000
,
1030
0100
1000
0000
0001
0100
0001
0000
1000
0100
1000
0000
0001
0100
0001
0000
,
4000
0000
0400
0000
0000
0000
0000
0000
0000
0000
0000
0000
0000
0000
0000
0000
0000
0000
3300
0000
0000
0000
0000
0000
0000
0000
0000
0000
0000
0000
0000
0000
0000
0000
0000
0000
0001
0000
0000
0100
0000
0000
0001
0000
0000
0100
0000
0000
,
0001
0000
0010
0000
0100
0000
1000
0000
0001
0000
1000
0100
0000
0100
1000
0000
,
0001
0000
1000
0010
1000
0000
0001
0000
4000
0000
0000
0000
3000
0000
0MM0
0000
,
0001
0100
0010
1000
0002
1000
1000
1003
,
0001
0000
0010
0100
0010
0000
0001
0000
4000
0000
0000
0000
3000
0000
0MM0
0000
,
0001
0000
0100
0000
0010
0000
1000
0000
0100
0000
0010
0001
0000
0001
0010
0000
,
0100
0000
1000
0001
1000
0000
0010
0000
0400
0000
0000
0000
0300
0000
M00M
0000
,
0001
0400
0000
0300
0020
1000
1000
1030
,
0001
0000
0010
0100
0010
0000
0001
0000
4000
0000
0000
0000
3000
0000
0MM0
0000
,
0001
0000
0100
0000
0010
0000
1000
0000
0100
0000
0010
0100
0000
0010
0100
0000
,
1000
0000
0001
0100
0001
0000
1000
0000
0040
0400
0000
0000
0330
0000
0000
0000
,
0001
0000
0400
0000
0000
0000
0300
0000
0020
0000
4000
0000
0000
0030
3000
0000
,
0001
0000
1000
0100
1000
0000
0010
0000
0200
0000
0000
0000
0300
0000
0000
0000
,
0001
0100
0001
0000
1000
0100
1000
0000
0010
0000
0100
0000
0001
0000
1000
0000
,
0001
0010
0001
0000
1000
0010
1000
0000
0001
0000
0100
0000
0010
0000
1000
0000
,
0001
0010
0001
0000
1000
0100
1000
0000
0010
0000
0100
0000
0001
0000
1000
0000
,
0004
0000
0400
0000
0000
0000
0000
0000
0000
0000
0000
0000
0000
0000
0000
0000
0000
0000
0000
0000
0000
0000
0000
0000
0303
0000
0000
0000
0000
0000
0000
0000
0000
0000
0000
0000
1000
0000
0000
0100
0000
0000
1000
0000
0000
0100
0000
0000
,
1000
0100
0010
0002
1003
0001
0010
0100
,
1000
0010
0100
0002
1003
0001
0100
0010
,
1000
0100
0010
0002
0103
0001
0010
0100
,
1000
0010
0100
0002
0013
0001
0100
0010
,
1000
0100
0010
0002
1003
0001
0010
0100
,
1000
0010
0100
0002
1003
0001
0100
0010
,
1000
0100
0010
0002
0103
0001
0010
0100
,
2000
0000
3002
0000
,
1003
0000
0000
1000
0000
0000
0010
0000
0000
0010
0000
0000
0200
0000
0000
0000
,
0301
0000
0000
0001
0000
0000
0010
0000
0000
0010
0000
0000
0200
0000
0000
0000
,
1300
0000
0000
0010
0000
0000
1000
0000
0000
0010
0000
0000
0200
0000
0000
0000
,
0301
0000
0000
0010
0000
0000
0001
0000
0000
0010
0000
0000
0100
0000
1000
0001
,
1000
0000
0010
0000
0100
0000
0001
0000
1000
0100
1000
0000
0001
0000
0100
0000
,
0010
0000
1000
0000
0100
0000
0010
0000
0001
0100
0001
0000
0010
0000
0100
0000
,
1000
0000
0010
0000
0100
0000
0001
0000
0010
0100
0010
0000
0001
0000
0100
0000
,
0004
0000
4000
0000
0000
0000
0000
0000
0000
0000
0000
0000
0000
0000
0000
0000
0000
0000
0000
0000
0000
0000
0000
0000
3003
0000
0000
0000
0000
0000
0000
0000
0000
0000
0000
0000
1000
0000
0000
0001
0000
0000
1000
0000
0000
0001
0000
0000
,
1000
0MM0
0000
0000
0000
0000
0000
0000
,
0002
0000
0000
0000
0000
0000
1003
0100
2000
0000
0000
0000
3001
0100
0001
0100
,
0002
0000
0000
0000
0000
0000
0000
0000
0000
0000
2003
0000
3100
0010
0100
0000
,
2000
0000
0000
0000
0000
0000
0000
0000
0000
3001
0100
0001
,
0200
0000
0000
0000
0000
0000
0000
0000
0000
0310
1000
0010
,
2000
0000
0000
0000
0000
0000
3001
0010
0002
0000
0000
0000
1003
0010
1000
0001
,
2000
0000
0000
0000
0000
0000
0000
0000
0000
0000
3100
0000
0010
0001
1000
0001
,
0200
0000
0000
0000
0000
0000
0000
0000
0000
0310
1000
0001
,
0200
0000
0000
0000
0000
0000
0000
0000
0000
0310
1000
0001
,
2MM2
0000
0000
0000
,
0000
0000
0000
0000
,
3003
0000
0000
0000
;
