#TITLE:The License;
#SUBTITLE:(Part 2);
#ARTIST:Krome Time Ft. Dj 3K;
#TITLETRANSLIT:;
#SUBTITLETRANSLIT:;
#ARTISTTRANSLIT:;
#GENRE:;
#CREDIT:;
#BANNER:the license part2bn.png;
#BACKGROUND:the license part2-bg.png;
#LYRICSPATH:;
#CDTITLE:;
#MUSIC:The License (Pt.2).ogg;
#OFFSET:-0.400;
#SAMPLESTART:30.930;
#SAMPLELENGTH:12.000;
#SELECTABLE:YES;
#DISPLAYBPM:220.000;
#BPMS:0.000=220.001,110.000=220.000,117.000=440.000,119.000=220.000,125.500=440.000,127.000=440.000,128.500=220.000,129.000=440.000,129.500=220.000,133.000=440.000,135.000=220.000,140.000=440.000,142.000=440.000,143.000=220.000,149.000=440.000,151.000=220.000,159.000=440.000,160.000=220.000,165.000=440.000,167.000=220.000,173.000=440.000,176.000=220.000,181.000=440.000,183.000=220.000,191.000=440.000,193.000=220.000,193.500=440.000,195.000=220.000,195.500=440.000,199.000=220.000,204.000=440.000,207.000=440.000,208.000=220.000,209.000=440.000,210.000=220.000,211.000=440.000,212.000=220.000,215.000=440.000,216.000=220.000,217.000=440.000,218.000=220.000,219.000=440.000,220.000=220.000,237.000=440.000,239.000=220.000,271.000=440.000,272.000=220.000,287.000=440.000,288.500=220.000,289.000=440.000,289.500=220.000,293.000=440.000,295.000=220.000,300.000=440.000,303.000=440.000,304.000=220.000,309.000=440.000,311.000=220.000,333.000=440.000,336.000=220.000,341.000=440.000,343.000=220.000,351.000=440.000,353.000=220.000,353.500=440.000,355.000=220.000,355.500=440.000,359.000=220.000,364.000=440.000,366.000=440.000,368.000=220.000,373.000=440.000,375.000=220.000,383.000=440.000,384.000=220.000,389.000=440.000,391.000=220.000,394.000=440.000,395.000=220.000,395.500=440.000,399.000=220.000,429.000=110.000,430.500=55.000;
#STOPS:110.000=0.270
,117.000=0.137
,118.000=0.137
,125.500=0.068
,126.000=0.068
,126.500=0.068
,127.000=0.136
,128.000=0.068
,129.000=0.068
,133.000=0.136
,134.000=0.137
,140.000=0.068
,140.500=0.068
,141.000=0.068
,141.500=0.068
,142.000=0.137
,149.000=0.136
,150.000=0.136
,159.000=0.136
,165.000=0.136
,166.000=0.136
,173.000=0.068
,173.500=0.068
,174.000=0.068
,174.500=0.068
,175.000=0.136
,181.000=0.136
,182.000=0.137
,191.000=0.137
,192.000=0.068
,192.500=0.068
,193.500=0.068
,194.000=0.068
,194.500=0.068
,195.500=0.068
,196.000=0.068
,196.500=0.068
,197.000=0.136
,198.000=0.136
,204.000=0.068
,204.500=0.068
,205.000=0.068
,205.500=0.068
,206.000=0.137
,207.000=0.137
,209.000=0.136
,211.000=0.137
,215.000=0.136
,217.000=0.136
,219.000=0.136
,237.000=0.068
,237.500=0.068
,238.000=0.068
,238.500=0.068
,271.000=0.137
,287.000=0.136
,288.000=0.068
,289.000=0.068
,293.000=0.136
,294.000=0.136
,300.000=0.068
,300.500=0.068
,301.000=0.068
,301.500=0.068
,302.000=0.137
,303.000=0.136
,309.000=0.136
,310.000=0.136
,333.000=0.068
,333.500=0.068
,334.000=0.068
,334.500=0.068
,335.000=0.136
,341.000=0.136
,342.000=0.136
,351.000=0.136
,352.000=0.068
,352.500=0.068
,353.500=0.068
,354.000=0.068
,354.500=0.068
,355.500=0.068
,356.000=0.068
,356.500=0.068
,357.000=0.136
,358.000=0.136
,364.000=0.068
,364.500=0.068
,365.000=0.068
,365.500=0.068
,366.000=0.137
,367.000=0.136
,373.000=0.136
,374.000=0.137
,383.000=0.137
,389.000=0.137
,390.000=0.137
,394.000=0.068
,394.500=0.068
,395.500=0.068
,396.000=0.068
,396.500=0.068
,397.000=0.068
,397.500=0.068
,398.000=0.068
,398.500=0.068
;
#BGCHANGES:;
#KEYSOUNDS:;

//---------------dance-single - C.Sanabria----------------
#NOTES:
     dance-single:
     C.Sanabria:
     Challenge:
     12:
     1.000,1.000,0.435,1.000,0.531:
0000
0000
0000
0000
,
0000
0000
0000
0000
,
0000
0000
0000
0000
,
0000
0000
0000
0000
,
0000
0000
0000
0000
,
0000
0000
0000
0000
,
0000
0000
0000
0000
,
0000
0000
0000
0000
,
0000
0000
0000
0000
,
0000
0000
0000
0000
,
0000
0000
0000
0000
,
0000
0000
0000
0000
,
1001
0000
0000
1000
0100
0000
0010
0000
,
0001
1000
0001
0000
0101
0000
0000
0000
,
1001
0000
0000
0001
0100
0000
0010
0000
,
1000
0001
1000
0000
1100
0000
0000
0000
,
1001
0000
0000
0100
0010
0000
0001
0000
,
0100
0010
1000
0000
1010
0000
0000
0000
,
1001
0000
0000
0100
0010
0000
1000
0000
,
0100
0010
0001
0000
0011
0000
0000
0000
,
1000
0001
1000
0001
,
1000
0000
0001
0000
1000
0000
0001
1000
,
0001
1000
0001
1000
,
0001
0000
1000
0000
0001
0000
1000
0001
,
1000
0100
0010
0001
1000
0001
0100
0010
,
1000
0000
0001
0000
0010
0000
0100
0000
1000
0000
0001
0000
1000
0100
1000
0001
,
0100
0001
1000
0010
1000
0001
0010
0001
1000
0100
1000
0001
0100
0001
1000
0010
,
1000
0001
0010
0001
1000
0100
0010
0001
1000
0000
M000
0000
2002
0000
3003
0000
,
0002
0003
0000
0000
0200
0300
0000
0000
0020
0030
0000
0000
0020
0030
0000
0000
2000
3000
0000
0000
0200
0300
0000
0000
0020
0030
0000
0000
0020
0030
0000
0000
,
0002
0003
0000
0000
0200
0300
0000
0000
0020
0030
0000
0000
0000
0000
0000
0000
00M0
0000
0000
0000
0000
0000
0000
0000
2000
3000
0000
0000
0020
0030
0000
0000
,
2000
3000
0000
0000
0200
0300
0000
0000
2000
3000
0000
0000
0000
0000
0000
0000
0002
0003
0000
0000
0020
0030
0000
0000
0002
0003
0000
0000
0200
0300
0000
0000
,
0002
0003
0000
0000
0020
0030
0000
0000
0200
0300
0000
0000
2000
3000
0000
0000
2000
3000
0000
0000
2000
3000
0000
0000
2MM2
3003
0000
0000
0000
0000
0000
0000
,
00M2
0103
M020
1030
002M
0230
0302
2003
,
3002
0023
0030
00M0
2002
3003
2000
3200
,
0320
0230
2300
3000
0002
0203
0320
0230
,
0302
0003
0000
0000
0002
0003
0000
0000
0002
0003
0000
0000
0002
0003
0000
0000
2MM2
3003
0000
0000
0000
0000
0000
0000
0220
0000
0000
0000
0330
0000
0000
0000
,
2200
3300
0000
0000
1000
0000
0000
0000
0100
0000
0000
0000
0010
0000
0000
0000
0022
0033
0000
0000
0001
0000
0000
0000
0100
0000
0000
0000
0010
0000
0000
0000
,
2020
3030
0000
0000
1000
0000
0000
0000
0001
0000
0000
0000
000M
0000
0000
0000
2MM2
0000
0000
0000
3003
0000
0000
0000
2000
3000
0000
0000
0200
0300
0000
0000
,
0020
0030
0000
0000
0200
0300
0000
0000
2000
3000
0000
0000
0000
0000
0000
0000
0202
0303
0000
0000
0200
0300
0000
0000
0020
0030
0000
0000
2000
3000
0000
0000
,
0002
0003
0000
0000
2000
3000
0000
0000
0200
0300
0000
0000
0020
0030
0000
0000
0002
0003
0000
0000
2000
3000
0000
0000
2MM2
0000
0000
0000
3003
0000
0000
0000
,
0002
0203
0320
0230
0302
2003
3200
0320
,
0230
2300
300M
0000
2MM2
3003
0002
0203
,
0320
2030
3002
0003
2000
3200
0320
0032
,
2003
3002
M103
001M
1M00
00M1
2MM2
3003
,
2000
3000
0000
0000
0002
0003
0000
0000
0200
0300
M00M
0000
0200
0300
0000
0000
2000
3000
0000
0000
0002
0003
0000
0000
0020
0030
M00M
0000
0020
0030
0000
0000
,
2000
3000
0000
0000
0002
0003
0000
0000
000M
0000
0000
0000
0000
0000
0000
0000
2MM2
0000
0000
0000
3003
0000
0000
0000
0002
0003
0000
0000
0200
0300
M00M
0000
,
0200
0300
0000
0000
2000
3000
0000
0000
0002
0003
0000
0000
0000
0000
0000
0000
0002
0003
0000
0000
2000
3000
0000
0000
0200
0300
M00M
0000
0200
0300
0000
0000
,
0002
0003
0000
0000
2000
3000
0000
0000
0200
0300
0000
0000
0020
0030
0000
0000
0200
0300
0000
0000
2000
3000
0000
0000
2MM2
0000
0000
0000
3003
0000
0000
0000
,
0002
0023
M031
0020
0032
2003
3M10
2000
,
3002
0000
0000
0000
2003
0000
0000
0000
30M0
0000
0000
0000
0000
0000
0000
0000
2MM2
0000
0000
0000
3003
0000
0000
0000
0002
0003
0000
0000
0200
0300
0000
0000
,
0020
0030
0000
0000
0200
0300
0000
0000
0002
0003
0000
0000
0000
0000
0000
0000
2000
3000
0000
0000
0200
0300
0000
0000
0020
0030
0000
0000
0200
0300
0000
0000
,
2000
3000
0000
0000
2000
3000
0000
0000
2000
3000
0000
0000
2000
3000
0000
0000
2MM2
3003
0000
0000
0000
0000
0000
0000
0M22
0000
0000
0000
0033
0000
0000
0000
,
0200
0300
0000
0000
2000
3000
0000
0000
22M0
0000
0000
0000
3300
0000
0000
0000
0002
0003
0000
0000
0200
0300
0000
0000
M202
0000
0000
0000
0303
0000
0000
0000
,
2000
3000
0000
0000
0020
0030
0000
0000
0200
0300
0000
0000
0002
0003
0000
0000
2000
3000
0000
0000
0020
0030
0000
0000
202M
0000
0000
0000
3030
0000
0000
0000
,
0200
0300
0000
0000
0002
0003
0000
0000
M202
0000
0000
0000
0303
0000
0000
0000
2000
3000
0000
0000
0200
0300
0000
0000
22M0
0000
0000
0000
3300
0000
0000
0000
,
0002
0000
0000
0000
0000
0000
0003
0000
0000
0000
0000
0000
0000
0000
0000
0000
0000
0000
0000
0000
0000
0000
0000
0000
0020
0000
0000
0000
0000
0000
0030
0000
0000
0000
0000
0000
0000
0000
0000
0000
0000
0000
0000
0000
0000
0000
0000
0000
0200
0000
0000
0000
0000
0000
0300
0000
0000
0000
0000
0000
0000
0000
0000
0000
0000
0000
0000
0000
0000
0000
0000
0000
2000
0000
0000
0000
0000
0000
3000
0000
0000
0000
0000
0000
0000
0000
0000
0000
0000
0000
0000
0000
0000
0000
0000
0000
0002
0000
0000
0000
0000
0000
0003
0000
0000
0000
0000
0000
0000
0000
0000
0000
0000
0000
0000
0000
0000
0000
0000
0000
2000
0000
0000
0000
0000
0000
3000
0000
0000
0000
0000
0000
0000
0000
0000
0000
0000
0000
0000
0000
0000
0000
0000
0000
0001
0000
0000
0000
0000
0000
0000
0000
0000
0000
0000
0000
0000
0000
0000
0000
0100
0000
0000
0000
0000
0000
0000
0000
0000
0000
0000
0000
0000
0000
0000
0000
0001
0000
0000
0000
0000
0000
0000
0000
0000
0000
0000
0000
0000
0000
0000
0000
,
1000
0100
1000
0001
0010
0001
1000
0010
1000
0001
0100
0001
,
1000
0000
0010
0000
1000
0000
0001
0000
0010
0000
0001
0000
1000
0000
0100
0000
1000
0000
0002
0000
0000
0203
0000
0000
,
0320
0230
0302
0003
2000
3200
0320
0230
,
2300
3020
013M
M001
10M0
010M
1001
0000
,
0000
1000
0100
0000
0010
0000
1100
0000
,
0000
0001
0100
0000
0010
0000
0101
0000
,
0000
1000
0010
0000
0100
0000
1010
0000
,
0000
0001
0010
0000
0100
0000
0011
0000
,
0000
1000
0100
0000
1000
0000
0001
0100
,
0010
1001
0000
1010
,
0000
0001
0100
0000
0001
0000
1000
0100
,
0010
0000
1001
0000
0000
0000
2MM2
3003
,
2000
3000
0000
0000
0200
0300
0000
0000
0020
0030
0000
0000
0020
0030
0000
0000
0002
0003
0000
0000
2000
3000
0000
0000
0200
0300
M00M
0000
0200
0300
0000
0000
,
0002
0003
0000
0000
2000
3000
0000
0000
0002
0003
0000
0000
20M0
3000
0000
0000
2M00
3000
0000
0000
2000
3000
0000
0000
0020
0030
0000
0000
0200
0300
0000
0000
,
0002
0003
0000
0000
0200
0300
0000
0000
0020
0030
0000
0000
0000
0000
0000
0000
2000
3000
0000
0000
0200
0300
0000
0000
0020
0030
0000
0000
0200
0300
0000
0000
,
2000
3000
0000
0000
0002
0003
0000
0000
0200
0300
0000
0000
0020
0030
0000
0000
2000
3000
0000
0000
0002
0003
0000
0000
2MM2
0000
0000
0000
3003
0000
0000
0000
,
20M0
3100
002M
0130
2000
3M02
0203
0320
,
0230
0302
0003
000M
2002
3003
2000
3200
,
0320
0230
2300
3000
0002
0203
0320
0230
,
0302
0003
0000
0000
0002
0003
0000
0000
0002
0003
0000
0000
0002
0003
0000
0000
0M20
0000
0000
0000
0030
0000
0000
0000
2MM2
0000
0000
0000
3003
0000
0000
0000
,
2000
3000
0000
0000
0002
0003
0000
0000
0200
0300
M00M
0000
0200
0300
0000
0000
2000
3000
0000
0000
0002
0003
0000
0000
0020
0030
M00M
0000
0020
0030
0000
0000
,
2000
3000
0000
0000
0002
0003
0000
0000
000M
0000
0000
0000
0000
0000
0000
0000
2MM2
0000
0000
0000
3003
0000
0000
0000
0002
0000
0000
0000
0023
0000
0000
0000
,
0230
0320
0032
0003
2000
3200
0320
0230
,
2300
0000
0000
3002
0000
0000
0203
0000
0000
0320
0000
0000
2030
0000
0000
3002
0000
0000
1003
0000
0100
0000
1000
0000
,
0001
0010
0001
1000
0010
1000
0001
0100
0001
1000
0010
1000
,
0100
0010
0001
0100
0001
0010
0100
1000
0001
1000
0100
1000
,
0001
0100
0001
1000
0010
1000
0001
0010
0001
1000
0100
0010
,
0001
0000
1000
0000
0001
0000
10M0
0000
0000
010M
0000
0000
M010
0000
0000
0M01
0000
0000
2MM2
0000
0000
3003
0000
0000
,
2000
3000
0000
0000
0200
0300
0000
0000
0040
0000
0000
0000
0000
0000
0000
0000
0032
0003
0000
0000
0100
0000
0000
0000
0040
0000
0000
0000
0000
0000
0000
0000
,
2030
3000
0000
0000
0200
0300
0000
0000
0020
0030
0000
0000
0000
0000
0000
0000
2MM2
0000
0000
0000
3003
0000
0000
0000
2000
3000
0000
0000
0200
0300
0000
0000
,
0020
0030
0000
0000
0200
0300
0000
0000
2000
3000
0000
0000
0000
0000
0000
0000
0002
0003
0000
0000
0200
0300
0000
0000
0020
0030
0000
0000
0200
0300
0000
0000
,
0002
0003
0000
0000
2000
3000
0000
0000
0200
0300
0000
0000
0020
0030
0000
0000
0002
0003
0000
0000
2000
3000
0000
0000
2MM2
0000
0000
0000
3003
0000
0000
0000
,
0002
0203
M301
2000
302M
2M30
3001
20M0
,
3200
2300
300M
0000
2002
3003
0002
0203
,
0320
0230
2300
3M00
2000
3200
0320
0230
,
0302
0003
0000
0000
0002
0003
0000
0000
0002
0003
0000
0000
0002
0003
0000
0000
0M20
0000
0000
0000
0030
0000
0000
0000
2002
0000
0000
0000
3003
0000
0000
0000
,
2000
3000
0000
0000
0020
0030
0000
0000
0200
0300
0000
0000
0200
0300
0000
0000
0002
0003
0000
0000
0020
0030
0000
0000
0200
0300
0000
0000
0200
0300
0000
0000
,
2000
3000
0000
0000
0020
0030
0000
0000
0000
00M0
0000
0000
0000
0000
0000
0000
2002
0000
0000
0000
3003
0000
0000
0000
2000
3000
0000
0000
0200
0300
0000
0000
,
0020
0030
0000
0000
0200
0300
0000
0000
0002
0003
0000
0000
0M00
0000
0000
0000
0002
0003
0000
0000
0200
0300
0000
0000
0020
0030
0000
0000
0200
0300
0000
0000
,
2000
3000
0000
0000
0002
0003
0000
0000
0200
0300
0000
0000
2000
3000
0000
0000
0200
0300
0000
0000
0002
0003
0000
0000
2002
0000
0000
0000
3003
0000
0000
0000
,
2000
3002
0403
M00M
2300
3002
0043
M00M
,
2030
3002
0M03
0000
2002
3003
2000
3200
,
0320
0230
2300
3000
0002
0203
0310
0200
,
0302
0000
0000
2003
0000
0000
31M0
0000
0000
001M
0000
0000
M001
0000
0000
1M00
0000
0000
0001
0000
0100
0000
0001
0000
,
1000
0010
1000
0001
0100
0001
1000
0010
1000
0001
0100
0001
,
1000
0010
1000
0001
0010
0100
1000
0001
1000
0001
0010
0100
,
1000
0001
1000
0100
0010
0001
1000
0001
1000
0001
0010
0100
,
1000
0001
1000
0001
0100
0010
1000
0001
1000
0001
0010
0001
,
1000
0100
1000
0001
0010
0001
1000
0100
1000
0001
0010
0001
,
1000
0100
1000
0001
0010
0001
1000
0100
1000
0001
0100
0010
,
1000
0001
0010
0100
1000
0001
0100
0010
1000
0001
0010
0100
,
1000
0000
0001
0000
0010
0000
0200
0000
0000
0000
0020
0000
0000
0000
0000
0000
0000
0000
0000
0000
0000
0330
0000
0000
;

//---------------dance-single - C.Sanabria----------------
#NOTES:
     dance-single:
     C.Sanabria:
     Beginner:
     1:
     0.107,0.134,0.000,0.000,0.000:
0000
0000
0000
0000
,
0000
0000
0000
0000
,
0000
0000
0000
0000
,
0000
0000
0000
0000
,
0000
0000
0000
0000
,
0000
0000
0000
0000
,
0000
0000
0000
0000
,
0000
0000
0000
0000
,
0000
0000
0000
0000
,
0000
0000
0000
0000
,
0000
0000
0000
0000
,
0000
0000
0000
0000
,
0010
0000
0000
0000
,
0000
0000
0000
0000
,
0100
0000
0000
0000
,
0000
0000
0000
0000
,
0010
0000
0000
0000
,
0000
0000
0000
0000
,
0100
0000
0000
0000
,
0000
0000
0000
0000
,
1000
0000
0000
0000
,
0000
0000
0000
0000
,
0001
0000
0000
0000
,
0000
0000
0000
0000
,
1000
0000
0000
0000
,
1000
0000
0000
0000
,
0001
0000
0000
0000
,
0001
0000
0000
0000
,
0000
1000
0000
0000
,
0000
1000
0000
0000
,
0000
0001
0000
0000
,
0000
0001
0000
0000
,
0000
0010
0000
0000
,
0000
0010
0000
0000
,
0000
0100
0000
0000
,
0000
0100
0000
0000
,
0000
1000
0000
0000
,
0000
1000
0000
0000
,
0000
0001
0000
0000
,
0000
0001
0000
0000
,
0000
0100
0000
0000
,
0000
0100
0000
0000
,
0000
0010
0000
0000
,
0000
0010
0000
0000
,
0000
1000
0000
0000
,
0000
1000
0000
0000
,
0000
0001
0000
0000
,
0000
0001
0000
0000
,
0000
0010
0000
0000
,
0000
0010
0000
0000
,
0000
0100
0000
0000
,
0000
1000
0000
0000
,
0000
0001
0000
0000
,
0000
1000
0000
0000
,
0000
0010
0000
0000
,
0000
0100
0000
0000
,
0000
0010
0000
0000
,
0000
0010
0000
0000
,
0000
0100
0000
0000
,
0000
0100
0000
1000
,
0000
0000
0000
0010
,
0000
0000
0000
0001
,
0000
0000
0000
0100
,
0000
0000
0000
1000
,
0000
0000
0000
0010
,
0000
0000
0000
0001
,
0000
0000
0000
0100
,
0000
0000
0000
1000
,
0000
0000
0000
1000
,
0000
0000
0000
0010
,
0000
0000
0000
0010
,
0000
0000
0000
0100
,
0000
0000
0000
0100
,
0000
0000
0000
0001
,
0000
0000
0000
0001
,
0000
0000
0000
1000
,
0000
0000
0000
0100
,
0000
0000
0000
0010
,
0000
0000
0000
0001
,
0000
0000
0000
1000
,
0000
0000
0000
0010
,
0000
0000
0000
0100
,
0000
0000
0000
0001
,
0000
0000
0000
1000
,
0000
0000
0000
1000
,
0000
0000
0000
0001
,
0000
0000
0000
0001
,
0000
0000
0000
0010
,
0000
0000
0000
0010
,
0000
0000
0000
0100
,
0000
0000
0000
0100
,
0000
0000
0000
1000
,
0000
0000
0000
1000
,
0000
0000
0000
0001
,
0000
0000
0000
0001
,
0000
0000
0000
0100
,
0000
0000
0000
0010
,
0000
0000
0000
1000
,
0000
0000
0000
0001
,
0000
0000
0000
1000
,
0000
0000
0000
1000
,
0000
0000
0000
1000
,
0000
0000
0000
1000
,
0000
0000
0000
0001
,
0000
0000
0000
0001
,
0000
0000
0000
0001
,
0000
0000
0000
0001
;
