#TITLE:The License;
#SUBTITLE:(Part 1);
#ARTIST:Krome Time Ft. Dj 3K;
#TITLETRANSLIT:;
#SUBTITLETRANSLIT:;
#ARTISTTRANSLIT:;
#GENRE:;
#CREDIT:;
#BANNER:the license (part1)-bn.png;
#BACKGROUND:the license (part1)-bg.png;
#LYRICSPATH:;
#CDTITLE:;
#MUSIC:The License (Pt.1).ogg;
#OFFSET:-0.060;
#SAMPLESTART:37.190;
#SAMPLELENGTH:12.000;
#SELECTABLE:YES;
#DISPLAYBPM:155.000;
#BPMS:0.000=155.002,64.500=145.000,65.000=135.000,65.500=125.000,66.000=115.000,66.500=105.000,67.000=95.000,67.500=85.000,68.000=75.000,68.500=65.000,69.000=55.000,69.500=45.000,70.000=155.000,117.000=310.000,118.000=155.000,148.000=310.000,150.000=155.000,197.000=310.000,198.000=155.000,218.500=310.000,219.000=155.000,226.500=310.000,227.000=155.000,244.000=310.000,245.000=155.000,275.000=310.000,277.000=155.000,309.250=130.000,309.500=110.000,309.750=90.000,310.000=65.000,310.250=30.000;
#STOPS:70.000=1.630
,85.000=0.400
,117.000=0.063
,117.333=0.063
,117.667=0.063
,148.000=0.095
,148.500=0.095
,149.000=0.190
,197.000=0.190
,212.000=0.400
,218.500=0.095
,226.500=0.095
,244.000=0.063
,244.333=0.063
,244.667=0.063
,275.000=0.095
,275.500=0.095
,276.000=0.190
;
#BGCHANGES:;
#KEYSOUNDS:;

//---------------dance-single - C.Sanabria----------------
#NOTES:
     dance-single:
     C.Sanabria:
     Challenge:
     11:
     0.681,0.992,0.088,0.591,0.455:
0000
0000
0000
0000
,
0000
0000
0000
0000
,
0000
0000
0000
0000
,
0000
0000
0000
0000
,
0000
0000
2000
0000
0000
0000
3000
M000
,
0000
0000
0020
0000
0000
0000
0030
00M0
,
0000
0000
0200
0000
0000
0000
0300
0M00
,
0000
0000
0002
0000
0000
0000
0003
000M
,
4000
3400
0340
0430
4300
3400
0340
0430
,
0304
0403
0340
0430
0304
0403
0340
0430
,
4300
3040
0430
0340
4030
3040
0430
0340
,
0034
0043
0430
0340
0034
0043
0430
0340
,
1030
M000
0002
0000
0000
0000
0003
000M
,
0000
0000
0200
0000
0000
0000
0300
0M00
,
0000
0000
0020
0000
0000
0000
0030
00M0
,
0000
0000
2000
0000
0000
0000
3000
M000
,
2002
0000
0000
0000
,
0000
0000
0000
0000
0000
0000
0000
0000
0000
0000
0000
0000
0000
0000
0000
0000
0000
0000
0000
0000
0000
0000
0000
0000
0000
0000
0000
0000
0000
0000
0000
0000
0000
0000
0000
0000
0000
0000
0000
0000
0000
0000
0000
0000
0000
0000
0000
0000
0000
0000
0000
0000
0000
0000
0000
0000
0000
0000
0000
0000
0000
0000
0000
0000
0000
0000
0000
0000
0000
0000
0000
0000
0000
0000
0000
0000
0000
0000
0000
0000
0000
0000
0000
0000
0000
0000
0000
0000
0000
0000
0000
0000
0000
0000
0000
0000
0000
3003
0000
0000
0000
0000
0000
0000
0000
0000
0000
0000
0000
0000
0000
0000
0000
0000
0000
0000
0000
0000
0000
0000
0000
0000
0000
0000
0000
0000
0000
0000
0000
0000
0000
0000
0000
0000
0000
0000
0000
0000
0000
0000
0000
0000
0000
0000
1000
0000
0000
0000
0000
0000
0000
0000
0000
0000
0000
0000
0000
0000
0000
0000
0000
0000
0000
0000
0000
0000
0000
0000
0010
0000
0000
0000
0000
0000
0000
0000
0000
0000
0000
0000
0000
0000
0000
0000
0000
0000
0000
0000
0000
0000
0000
0000
,
1000
0100
0010
0001
0100
0001
0010
0100
,
1000
0010
1000
0100
0010
0001
1000
1000
,
0100
0000
0000
0100
0000
0000
0010
0000
0000
0010
0000
0000
0001
0000
0000
0001
0000
0000
1000
0010
0100
0001
1000
0001
,
1000
0100
0010
0001
1000
0001
1000
0000
0000
0000
0000
0000
0001
0000
0000
0001
0000
0000
0002
0000
0000
0000
0000
0000
,
0013
0010
0020
0000
0130
0100
0200
0000
,
1300
1000
2000
0000
3001
0100
0020
0000
,
1030
0100
0020
0000
0031
1000
0020
0000
,
1030
0001
0020
0000
0430
4300
3040
0430
,
4300
3400
0340
4030
3400
0340
0430
4300
,
3100
0010
0000
0000
0100
0010
0000
0000
0001
1000
0000
0000
0001
1000
0000
0000
0004
0000
0000
0000
0043
0000
0000
0000
0430
0000
0000
0000
0340
0000
0000
0000
,
0034
0403
0340
0034
0043
0430
0304
0043
,
0031
0000
0000
0000
0000
0000
1000
0000
0000
0000
0000
0000
0000
0000
0000
0000
0000
0000
0000
0000
0000
0000
0000
0000
0001
0000
0000
0000
0000
0000
1000
0000
0000
0000
0000
0000
0000
0000
0000
0000
0000
0000
0000
0000
0000
0000
0000
0000
0001
0000
0000
0000
0000
0000
0000
0000
0000
0000
0000
0000
0000
0000
0000
0000
0100
0000
0000
0000
0000
0000
0000
0000
0000
0000
0000
0000
0000
0000
0000
0000
0010
0000
0000
0000
0000
0000
0000
0000
0000
0000
0000
0000
0000
0000
0000
0000
1000
0000
0000
0000
0000
0000
0000
0000
0000
0000
0000
0000
0000
0000
0000
0000
0000
0000
0000
0000
0000
0000
0000
0000
0000
0000
0000
0000
0000
0000
0000
0000
0000
0000
0000
0000
1000
0000
0000
0000
0000
0000
0000
0000
0000
0000
0000
0000
0000
0000
0000
0000
0000
0000
0000
0000
0000
0000
0000
0000
0000
0000
0000
0000
0000
0000
0000
0000
0000
0000
0000
0000
M000
0000
0000
0000
0000
0000
0000
0000
0000
0000
0000
0000
0000
0000
0000
0000
0000
0000
0000
0000
0000
0000
0000
0000
,
0010
0000
0000
0010
0000
0000
00M0
0000
0100
0000
0000
0100
0000
0000
0M00
0000
,
0001
0000
0000
0001
0000
0000
000M
0000
1000
0000
0000
1000
0000
0000
M000
0000
,
0100
0000
0000
0100
0000
0000
0M00
0000
0010
0000
0000
0010
0000
0000
00M0
0000
,
0001
0000
0000
0000
0000
0000
0001
0000
0000
0000
0000
0000
000M
0000
0000
0000
1000
0100
0000
0000
1000
0100
0000
0000
1000
0001
0000
0000
1000
0001
0000
0000
,
1000
0010
0000
0000
1000
0010
0000
0000
1000
0001
0000
0000
1000
0001
0000
0000
4000
0000
0000
0000
3004
0000
0000
0000
0403
0000
0000
0000
0340
0000
0000
0000
,
4030
0000
3040
0000
0430
0000
0304
0000
1003
0000
0010
0000
0100
0000
0001
1000
,
0001
0000
0010
0000
0001
1000
0001
0000
0100
0000
0010
0100
0001
0000
1000
0000
,
0002
0000
0000
0000
0000
0000
0000
0000
0000
0000
0000
0000
0000
0000
0000
0000
0000
0000
0000
0000
0000
0000
0000
0003
0002
0000
0000
0000
0000
0000
0000
0000
0000
0000
0000
0000
0000
0000
0000
0000
0000
0000
0000
0000
0000
0000
0000
0003
0001
0000
0000
0000
0000
0000
0000
0000
0000
0000
0000
0000
0000
0000
0000
0000
0000
0000
0000
0000
0000
0000
0000
0000
000M
0000
0000
0000
0000
0000
0000
0000
0000
0000
0000
0000
0000
0000
0000
0000
0000
0000
0000
0000
0000
0000
0000
0000
2000
0000
0000
0000
0000
0000
0000
0000
0000
0000
0000
0000
0000
0000
0000
0000
0000
0000
0000
0000
0000
0000
0000
0000
0000
0000
0000
0000
0000
0000
0000
0000
0000
0000
0000
0000
0000
0000
0000
0000
0000
0000
0000
0000
0000
0000
0000
0000
0000
0000
0000
0000
0000
0000
0000
0000
0000
0000
0000
0000
0000
0000
0000
0000
0000
0000
0000
0000
0000
0000
0000
0000
0000
0000
0000
0000
0000
0000
0000
0000
0000
0000
0000
0000
0000
0000
0000
0000
0000
0000
0000
0000
0000
0000
0000
0000
,
3020
0000
0230
0000
,
0302
0000
2003
0000
,
3200
0000
0320
0000
,
0032
0000
0000
0000
0000
0000
0000
0000
1003
0000
0000
0100
0010
0000
0001
0000
,
0000
0100
0010
0000
1000
0000
0000
0100
0010
0000
0001
0000
0000
0100
0010
0000
,
1000
0000
0000
0100
0010
0000
0001
0000
1000
0000
0000
0010
0100
0000
0001
0000
,
0000
0010
0100
0000
1000
0000
0000
0010
0100
0000
0001
0000
0000
0010
0100
0000
,
1000
0000
0000
0000
0001
0000
0100
0000
0010
0000
1000
0000
0001
0000
1000
0000
0001
0000
0000
0000
1000
0100
0000
0000
1000
0100
0000
0000
1000
0001
0000
0000
,
1000
0001
0000
0000
1000
0010
0000
0000
1000
0010
0000
0000
1000
0001
0000
0000
2000
0000
0000
0000
3200
0000
0000
0000
0320
0000
0000
0000
0230
0000
0000
0000
,
1300
0000
0000
0000
0010
0000
0000
0000
0100
0000
0000
0000
0001
0000
0000
0000
1000
0000
0000
0000
0001
0100
0000
0000
0001
0100
0000
0000
0001
1000
0000
0000
,
0001
1000
0000
0000
0001
0010
0000
0000
0001
0010
0000
0000
0001
1000
0000
0000
0002
0000
0000
0000
0203
0000
0000
0000
0320
0000
0000
0000
0230
0000
0000
0000
,
0301
1000
1001
0000
1000
0100
1000
0100
,
0010
0001
0010
0001
1000
0010
1000
0010
,
0100
0001
0100
0001
0101
0101
1001
1001
,
1100
0000
0000
1100
0000
0000
1001
0000
0000
1001
0000
0000
0001
0100
0010
1000
0010
0100
0001
1000
0001
0100
0010
1000
,
0001
0000
0100
0010
2000
0000
3100
0010
,
0002
0000
0103
0010
1000
0002
1003
0100
,
0020
0000
0031
0100
0020
0000
1030
0100
,
0020
0000
0031
0100
0010
2000
3001
0010
,
0200
0000
0000
0000
0000
0000
0000
0000
1300
0001
0000
0000
1000
0001
0000
0000
0010
0100
0000
0000
0010
0100
0000
0000
1000
0010
0000
0000
1000
0010
0000
0000
,
1000
0001
0000
0000
1000
0001
0000
0000
2000
0000
0000
0000
3200
0000
0000
0000
0320
0000
0000
0000
0032
0000
0000
0000
2003
0000
0000
0000
3020
0000
0000
0000
,
0230
0000
0000
0000
0302
0000
0000
0000
1003
0100
0000
0000
1000
0100
0000
0000
1000
0001
0000
0000
1000
0001
0000
0000
1000
0010
0000
0000
1000
0010
0000
0000
,
0100
0001
0000
0000
0100
0001
0000
0000
2000
0000
0000
0000
3200
0000
0000
0000
0320
0000
0000
0000
0230
0000
0000
0000
2300
0000
0000
0000
3002
0000
0000
0000
,
0103
0000
0000
0000
0010
0000
0000
0000
1000
0000
0000
0000
0001
0000
0000
0000
0000
0000
0000
0000
0000
0001
0000
0000
0000
0000
0000
0000
0000
0000
0020
0000
0000
0000
0000
0000
0130
0000
0000
0000
0000
0000
0000
0000
0000
0100
0000
0000
,
0000
0000
2000
0000
3010
0000
0000
0010
0000
0000
0200
0000
0301
0000
0000
0001
,
0000
0000
0020
0000
0130
0000
0000
0100
0000
0000
2000
0000
3010
0000
0000
0010
,
0000
0000
0200
0000
0301
0000
0000
0001
0000
0000
2000
0000
3100
0000
0000
0100
,
0000
0020
0034
0403
0340
4030
3040
0430
,
0304
4003
3400
0340
0034
0043
0430
4300
,
3004
0000
0403
0000
0310
0000
1000
0000
0001
0000
1000
0100
1000
0000
0010
0000
,
0100
0000
0000
0000
0000
0000
0000
0000
0000
0000
0000
0000
0001
0000
0000
0000
0000
0000
0000
0000
0000
0000
0000
0000
0100
0000
0000
0000
0000
0000
0000
0000
0000
0000
0000
0000
0000
0000
0000
0000
0000
0000
0000
0000
0000
0000
0000
0000
0010
0000
0000
0000
0000
0000
0000
0000
0000
0000
0000
0000
0000
0000
0000
0000
0000
0000
0000
0000
0000
0000
0000
0000
1000
0000
0000
0000
0000
0000
0000
0000
0000
0000
0000
0000
0001
0000
0000
0000
0000
0000
0000
0000
0000
0000
0000
0000
0010
0000
0000
0000
0000
0000
0000
0000
0000
0000
0000
0000
0000
0000
0000
0000
0000
0000
0000
0000
0000
0000
0000
0000
0100
0000
0000
0000
0000
0000
0000
0000
0000
0000
0000
0000
0000
0000
0000
0000
0000
0000
0000
0000
0000
0000
0000
0000
2000
0000
0000
0000
0000
0000
0000
0000
0000
0000
0000
0000
0000
0000
0000
0000
0000
0000
0000
0000
0000
0000
0000
3000
2000
0000
0000
0000
0000
0000
0000
0000
0000
0000
0000
0000
0000
0000
0000
0000
0000
0000
0000
0000
0000
0000
0000
3000
,
1000
0000
0000
0000
M000
0000
0000
0000
0001
0100
0000
0000
0001
0100
0000
0000
0001
1000
0000
0000
0001
1000
0000
0000
0001
0010
0000
0000
0001
0010
0000
0000
,
0001
1000
0000
0000
0001
1000
0000
0000
0001
0100
0000
0000
0001
0100
0000
0000
0010
1000
0000
0000
0010
1000
0000
0000
0001
1000
0000
0000
0001
1000
0000
0000
,
0100
1000
0000
0000
0100
1000
0000
0000
0004
0000
0000
0000
0043
0000
0000
0000
0430
0000
0000
0000
0340
0000
0000
0000
0034
0000
0000
0000
0403
0000
0000
0000
,
0340
0430
0304
0043
0430
4300
3400
0340
,
0034
4003
3001
0000
2000
0000
0000
0000
,
3000
M000
0000
0000
0020
0000
0000
0000
,
0030
00M0
0000
0000
0200
0000
0000
0000
,
0300
0M00
0000
0000
0002
0000
0000
0000
,
0003
000M
2002
0000
0000
3003
0000
0000
;

//---------------dance-single - C.Sanabria----------------
#NOTES:
     dance-single:
     C.Sanabria:
     Beginner:
     2:
     0.119,0.185,0.016,0.000,0.000:
0000
0000
0000
0000
,
0000
0000
0000
0000
,
0000
0000
0000
0000
,
0000
0000
0000
0000
,
0000
1000
0000
0000
,
0000
0010
0000
0000
,
0000
0100
0000
0000
,
0000
0001
0000
0000
,
1000
0000
0000
0000
,
1000
0000
0000
0000
,
0001
0000
0000
0000
,
0001
0000
0000
0000
,
1000
0000
0000
0000
,
0010
0000
0000
0000
,
0100
0000
0000
0000
,
0001
0000
0000
0000
,
1001
0000
0000
0000
,
0000
0000
0000
1000
,
0000
1000
0000
1000
,
0000
1000
0000
1000
,
0000
1000
0000
1000
,
1000
1000
0001
0000
,
0000
0000
0010
0000
,
0000
0000
1000
0000
,
0000
0000
0100
0000
,
0000
0000
0001
0000
,
0001
0000
1000
0000
,
1000
0000
0001
0000
,
0001
0000
1000
0000
,
1000
0000
0001
0000
,
0010
0000
1000
0000
,
0000
0000
1000
0000
,
0100
0000
0001
0000
,
0000
0000
1000
0000
,
1000
0000
1000
0000
,
1000
0000
0001
0000
,
0001
0000
0001
0000
,
0001
0000
1000
0000
,
0000
0000
0010
0000
,
0000
0000
0001
0000
,
0000
0000
0100
0000
,
0000
0000
1000
0000
,
1000
0000
1000
0000
,
0000
0000
0001
0000
,
0001
0000
0001
0000
,
0000
0000
0010
0000
,
0000
0000
0010
0000
,
0000
0000
0100
0000
,
0000
0000
0100
0000
,
0000
0000
1000
0000
,
1000
0000
1000
0000
,
1000
0000
1000
0000
,
1000
0000
1000
1000
,
1000
0001
0000
0010
,
0000
1000
0000
0000
,
0000
1000
0000
0100
,
0000
0001
0000
0000
,
0000
0010
0000
0000
,
0000
0010
0000
0000
,
0000
0100
0000
0000
,
0000
0100
0000
0000
,
0000
1000
0000
0000
,
0000
0010
0000
0000
,
0000
0001
0000
0000
,
0000
0100
0000
0000
,
0000
1000
0000
1000
,
0000
0001
0000
0001
,
0000
1000
0000
1000
,
0000
0001
0000
0001
,
0000
0010
0000
0000
,
0000
0100
0000
0000
,
0000
1000
0000
0000
,
0000
0001
0000
0000
,
0000
1000
0000
0000
,
0000
0010
0000
0000
,
0000
0100
0000
0000
,
0000
0001
0000
0000
,
0000
1001
0000
0000
;

//---------------dance-single - C.Sanabria----------------
#NOTES:
     dance-single:
     C.Sanabria:
     Hard:
     8:
     0.601,0.651,0.096,0.687,0.132:
0000
0000
0000
0000
,
0000
0000
0000
0000
,
0000
0000
0000
0000
,
0000
0000
0000
0000
,
2000
0000
3010
0M00
,
0200
0000
0000
0301
0020
0000
0030
0000
,
0200
0000
1300
00M0
,
0020
0000
0000
0130
0001
0000
0101
0000
,
1000
0100
1000
0100
1000
0100
1000
0100
,
0010
0100
0010
0100
0010
0100
0010
0100
,
0001
0100
0001
0100
0001
0100
0001
0100
,
1000
0010
1000
0010
0001
0010
0001
0000
,
2000
0000
3100
00M0
,
0002
0000
0000
0103
0101
0000
M000
0000
,
2000
0000
3010
0M00
,
0200
0000
0000
0301
0010
0000
0011
0000
,
2002
0000
0000
0000
,
0000
0000
3003
1000
,
M010
10M0
M010
01M0
,
0M01
0000
010M
0000
0M01
0000
100M
0100
,
1000
0000
0100
0000
0001
0000
0100
0000
0001
0000
0100
0000
1000
0010
1000
0000
,
0001
0100
0001
0000
1000
0000
0000
0000
0001
0000
0100
0000
0002
0000
0000
0000
,
0013
0001
0020
0000
0130
1000
0001
1000
,
0100
0010
0200
0000
1300
0010
2000
0000
,
3001
0010
0002
0000
0103
0001
1000
0100
,
0010
0100
2000
0000
3002
0010
0013
0200
,
1000
1300
0020
1000
1030
0002
0100
0103
,
0010
1000
0100
0001
0200
1000
1300
0002
,
0100
0103
0020
1000
1030
0002
0010
0013
,
0001
0000
0000
0000
0000
0000
1000
0000
0000
0000
0000
0000
0010
0000
0000
0000
0100
0000
0000
0000
0010
0000
0000
0000
0100
0000
0000
0000
0000
0000
0000
0000
0000
0100
0000
0000
0000
0000
0000
0000
0000
0000
0000
0000
0000
0000
0000
0000
,
0001
0000
0000
0001
0000
0000
0000
0000
0010
0000
0000
0010
0000
0000
0000
0000
,
1000
0000
0000
1000
0000
0000
0000
0000
0001
0000
0000
0010
0000
0000
0000
0000
,
1000
0000
0000
0010
0000
0000
0000
0000
0001
0000
0000
0100
0000
0000
0000
0000
,
1000
0000
0000
0100
0000
0000
0000
0000
0002
0000
0100
0000
0103
0000
0020
0000
,
0100
0130
2000
0100
3100
0020
0100
0130
,
0001
0000
0010
0000
1000
0000
0010
0000
0002
0000
0100
0000
0103
0000
0010
0100
,
0020
0000
0130
0000
1000
0100
2000
0000
3100
0000
0010
0100
0020
0000
1030
0000
,
0001
0001
0001
0000
2000
0000
0000
0000
,
3010
0M0M
0000
0000
0200
0000
0000
0301
,
0011
M000
0M00
0000
0200
0000
0000
0000
,
1300
00M0
0000
0000
0002
0000
0000
0103
,
1010
0000
0101
0000
2000
0100
3100
0020
,
0100
0130
0002
0100
0103
0020
0100
0130
,
2000
0001
3001
1000
0002
0100
0103
0020
,
0100
0130
2000
0100
3100
0020
0100
0130
,
0001
0000
1000
0000
0001
0010
0001
1000
0200
0000
0000
0000
0000
0000
0000
0000
,
1300
00M0
000M
0000
0020
0000
0000
0130
,
0101
00M0
M000
0000
0002
0000
0000
0000
,
0013
0M00
M000
0000
0200
0000
0000
1300
,
2010
0000
3001
0000
1000
1000
2000
0010
,
0010
3020
0100
0100
0230
0001
0001
0302
,
1000
1000
2003
0100
0100
3200
0010
0010
,
0320
0000
0001
0000
0001
0000
0031
0000
1000
0010
1000
0000
0001
0100
0001
1000
,
0100
0000
0010
0001
0020
0000
0031
0100
,
0002
0000
1003
0010
1000
1100
0001
1000
,
0020
0000
0130
0001
0200
0000
0301
0010
,
0002
0000
1003
0100
1000
1010
0001
1000
,
0200
0000
1300
0200
0010
1300
0200
0010
,
1300
0200
0010
1300
0200
0010
1300
0002
,
0100
0103
0001
0200
0010
0301
0200
0010
,
0301
0200
0010
0301
0200
0010
0301
1000
,
0100
0000
0000
0000
0010
0000
0000
0000
0100
0000
0000
0000
0010
0000
0000
0000
0000
0000
0000
0000
0000
0001
0000
0000
0000
0000
0000
0000
0000
0000
1000
0000
0000
0000
0000
0000
0010
0000
0000
0000
0000
0000
0000
0000
0000
1000
0000
0000
,
0000
0000
0001
0000
0010
0000
0000
0100
0000
0000
1000
0000
0010
0000
0000
0100
,
0000
0000
0001
0000
1000
0000
0000
0100
0000
0000
0010
0000
0001
0000
0000
0100
,
0000
0000
0010
0000
1000
0000
0000
0100
0000
0000
1000
0000
0001
0000
0000
0100
,
0000
0001
2000
0100
3100
0020
0100
0130
,
0002
0100
0103
0020
0100
0130
1000
0010
,
0100
0000
0001
0000
2000
0000
0100
0000
3100
0000
0010
0100
0010
0000
0200
0000
,
0301
0100
0001
0000
0200
0000
0310
0100
0010
0000
0100
0000
1000
0000
1000
0000
,
1000
0000
0001
0100
0001
0100
0001
0100
,
0001
0100
1000
0100
1000
0100
1000
0100
,
1000
0100
0001
0010
0001
0010
1000
0010
,
1000
0010
0001
0100
0001
0100
1000
0100
,
1000
0100
0001
0000
2000
0000
0000
0000
,
3000
M000
0000
0000
0200
0000
0000
0000
,
0300
0M00
0000
0000
0020
0000
0000
0000
,
0030
00M0
0000
0000
0002
0000
0000
0000
,
0003
000M
2002
0000
0000
3003
0000
0000
;

//---------------dance-double - C.Sanabria----------------
#NOTES:
     dance-double:
     C.Sanabria:
     Challenge:
     10:
     1.000,1.000,1.000,1.000,0.244:
00000000
00000000
00000000
00000000
,
00000000
00000000
00000000
00000000
,
00000000
00000000
00000000
00000000
,
00000000
00000000
00000000
00000000
,
00000000
00200020
00000000
00000000
,
00000000
20302030
00000000
30003000
,
M000M000
00020002
00000000
00000000
,
00000000
02030203
00000000
03000300
,
20200001
00000100
00000001
00000100
00001000
00000100
00001000
00000100
,
00001000
00010000
00001000
00010000
00001000
00000100
30300001
00000010
,
10000022
01000000
10000000
01000000
00010000
01000000
00010000
01000000
,
00010000
00001000
00010000
00001000
00010000
00100000
10000000
01000000
,
00100033
00010000
00200200
00000000
00000000
00000000
00000000
00000000
,
00300300
00M00M00
02000020
00000000
00000000
00000000
00000000
00000000
,
03000030
0M0000M0
20000002
00000000
00000000
00000000
00000000
00000000
,
30000003
M000000M
00022000
00000000
00000000
00000000
00033000
000MM000
,
20022002
00000000
00000000
00000000
,
00000000
00000000
00000000
00000000
00000000
00000000
00000000
00000000
00000000
00000000
00000000
00000000
00000000
00000000
00000000
00000000
00000000
00000000
00000000
00000000
00000000
00000000
00000000
00000000
00000000
00000000
00000000
00000000
00000000
00000000
00000000
00000000
00000000
00000000
00000000
00000000
00000000
00000000
00000000
00000000
00000000
00000000
00000000
00000000
00000000
00000000
00000000
00000000
00000000
00000000
00000000
00000000
00000000
00000000
00000000
00000000
00000000
00000000
00000000
00000000
00000000
00000000
00000000
00000000
00000000
00000000
00000000
00000000
00000000
00000000
00000000
00000000
00000000
00000000
00000000
00000000
00000000
00000000
00000000
00000000
00000000
00000000
00000000
00000000
00000000
00000000
00000000
00000000
00000000
00000000
00000000
00000000
00000000
00000000
00000000
00000000
00000000
30033003
00000000
00000000
00000000
00000000
00000000
00000000
00000000
00000000
00000000
00000000
00000000
00000000
00000000
00000000
00000000
00000000
00000000
00000000
00000000
00000000
00000000
00000000
00000000
00000000
00000000
00000000
00000000
00000000
00000000
00000000
00000000
00000000
00000000
00000000
00000000
00000000
00000000
00000000
00000000
00000000
00000000
00000000
00000000
00000000
00000000
00000000
10000001
00000000
00000000
00000000
00000000
00000000
00000000
00000000
00000000
00000000
00000000
00000000
00000000
00000000
00000000
00000000
00000000
00000000
00000000
00000000
00000000
00000000
00000000
00000000
01000010
00000000
00000000
00000000
00000000
00000000
00000000
00000000
00000000
00000000
00000000
00000000
00000000
00000000
00000000
00000000
00000000
00000000
00000000
00000000
00000000
00000000
00000000
00000000
,
00100100
00011000
01000010
00011000
00100100
01000010
10000001
00100100
,
10000001
01000010
00100100
00011000
10000001
00100100
40000004
00000000
,
34000043
00000000
00000000
00000000
03400430
00000000
00000000
00000000
00344300
00000000
00000000
00000000
00133100
01000010
10000001
00011000
,
10000001
00000000
00000000
00000000
00000000
00000000
00000000
00000000
00000000
00000000
00000000
00000000
01000010
00000000
00000000
00000000
00000000
00000000
00000000
00000000
00000000
00000000
00000000
00000000
00100100
00000000
00000000
00000000
00000000
00000000
00000000
00000000
00000000
00000000
00000000
00000000
00011000
00000000
00000000
00000000
00000000
00000000
00000000
00000000
00000000
00000000
00000000
00000000
02000010
03000000
00000000
00000000
00000000
00000000
00000000
00000000
00000000
00000000
00000000
00000000
00000000
00000000
00000000
00000000
00000000
00000000
00000000
00000000
00000000
00000000
00000000
00000000
0M0000M0
00000000
00000000
00000000
00000000
00000000
00000000
00000000
00000000
00000000
00000000
00000000
00000000
00000000
00000000
00000000
00000000
00000000
00000000
00000000
00000000
00000000
00000000
00000000
20200001
00000000
00000000
00000000
00000000
00000000
00000000
00000000
00000000
00000000
00000000
00000000
00000000
00000000
00000000
00000000
00000000
00000000
00000000
00000000
00000000
00000000
00000000
00000000
00000100
00000000
00000000
00000000
00000000
00000000
00000000
00000000
00000000
00000000
00000000
00000000
00000000
00000000
00000000
00000000
00000000
00000000
00000000
00000000
00000000
00000000
00000000
00000000
00001000
00000000
00000000
00000000
00000000
00000000
00000000
00000000
00000000
00000000
00000000
00000000
00000000
00000000
00000000
00000000
00000000
00000000
00000000
00000000
00000000
00000000
00000000
00000000
00000000
00000000
00000000
00000000
00000000
00000000
00000000
00000000
00000000
00000000
00000000
00000000
00000000
00000000
00000000
00000000
00000000
00000000
00000000
00000000
00000000
00000000
00000000
00000000
,
00000100
00001000
00310000
00000000
02001000
00010000
00100000
00010000
,
00001000
00010000
33000100
00000000
10000022
01000000
00010000
00000000
,
01000000
00010000
00001030
00000000
00010200
00001000
00000010
00001000
,
00010000
00001000
01000303
00000000
00000001
00000100
00000001
00001000
,
00000100
00001000
00000010
00010000
00001000
00100000
00010000
01000000
,
00010000
10000000
01000000
00000000
00000001
00000010
00000001
00001000
,
00000010
00001000
00000100
00010000
00001000
00100000
00010000
10000000
,
01000000
00000000
00000000
00000000
00000000
00000000
00100000
00000000
00000000
00000000
00000000
00000000
00010001
00000000
00000000
00000000
01000100
00000000
00000000
00000000
00100010
00000000
00000000
00000000
10001000
00000000
00000000
00000000
00000000
00000000
00000000
00000000
00000000
10001000
00000000
00000000
00000000
00000000
00000000
00000000
00000000
00000000
10001000
00000000
00000000
00000000
00000000
00000000
,
01000100
00000000
00000000
01000100
00000000
00000000
01000100
00000000
00100010
00000000
00000000
00100010
00000000
00000000
00100010
00000000
,
00010001
00000000
00000000
00010001
00000000
00000000
00010001
00000000
20002000
00000000
00000000
01000100
00000000
00000000
31003100
00000000
,
00200020
00000000
00000000
00010001
00000000
00000000
00310031
00000000
02000200
00000000
00000000
00100010
00000000
00000000
03100310
00000000
,
20002000
00000000
00000000
01000100
00000000
00000000
31003100
00000000
10002000
00000000
01000200
00003000
10002000
00000300
00100200
00003000
,
01000020
00000300
00010002
00000030
00100020
00000003
00001002
00000030
00100200
00000003
00010020
00000300
10000200
00000030
01000020
00000300
,
00102000
00000030
00010200
00003000
00100020
00000300
00010002
00000030
40004003
00000000
00000000
00000000
00000000
00000000
31003010
00100100
,
04000040
00000000
00000000
00000000
03100130
00010001
00400400
00000000
00000000
00000000
00310301
10001000
00040004
00000000
00000000
00000000
,
20032003
32003020
03100130
00000000
10022001
00000000
00000000
00000000
,
01000010
00000000
00000000
00000000
00100100
00000000
00000000
10033001
,
22000022
33000033
20000002
00000000
,
32000023
00000000
00000000
00000000
03200230
00000000
00000000
00311300
,
20011002
00000000
00000000
00000000
31000013
00000000
00000000
00000000
00041000
00000000
00430000
00000010
04300100
00000000
03400001
00000000
,
00340000
00000010
04030100
00000000
03401000
00000000
00340000
00000010
00430100
00000000
04300001
00000000
03040000
00000010
40030100
00000000
,
34001000
00000000
03400000
00000010
00340100
00000000
40030001
00000000
30014000
00000000
00003400
00100000
01000340
00000000
10000430
00000000
,
00004300
00100000
01003040
00000000
00010430
00000000
00004300
00100000
01003400
00000000
10000340
00000000
00004030
00100000
01003400
00000000
,
00010340
00000000
00100034
00000000
01001003
10000000
00010MM0
00100000
00011000
00000000
01000010
00000000
00011000
00000000
01000010
00000000
,
00011000
00000000
00000000
00000000
10000001
00000000
00000000
00000000
00011000
00000000
00000000
00000000
10000001
00000000
00000000
00000000
00011000
00100100
00000000
00000000
00011000
00100100
00000000
00000000
00011000
10000001
00000000
00000000
00011000
10000001
00000000
00000000
,
00011000
01000010
00000000
00000000
00011000
01000010
00000000
00000000
00011000
10000001
00000000
00000000
00011000
10000001
00000000
00000000
00011000
00000000
00000000
00000000
00100100
00000000
00000000
00000000
00011000
00000000
00000000
00000000
00100100
00000000
00000000
00000000
,
01000010
00100100
01000010
00100100
01000010
10000001
01000010
10000001
,
00011000
01000010
01011010
0M0MM0M0
10000001
10000001
20000002
00100100
,
00100100
30200203
01000010
01000010
02300320
00011000
00011000
03022030
,
10000001
10000001
20033002
01000010
01000010
32000023
00100100
00100100
,
03200230
00000000
00000000
00011000
00000000
00000000
00011000
00000000
00000000
00311300
00000000
00000000
10000001
01000100
10000001
01000100
10000001
01000100
10000001
01000100
10000001
01000100
10000001
01000100
,
10000002
00000003
00000000
00000000
00000000
00000000
00000000
00000000
00000000
00000000
00000000
00000000
00000000
00000000
00000000
00000000
00000000
00000000
00000000
00000000
00000000
00000000
00000000
00000000
0000000M
00000000
00000000
00000000
00000000
00000000
00000000
00000000
00000000
00000000
00000000
00000000
00000000
00000000
00000000
00000000
00000000
00000000
00000000
00000000
00000000
00000000
00000000
00000000
10000022
00000000
00000000
00000000
00000000
00000000
00000000
00000000
00000000
00000000
00000000
00000000
00000000
00000000
00000000
00000000
00000000
00000000
00000000
00000000
00000000
00000000
00000000
00000000
01000000
00000000
00000000
00000000
00000000
00000000
00000000
00000000
00000000
00000000
00000000
00000000
00000000
00000000
00000000
00000000
00000000
00000000
00000000
00000000
00000000
00000000
00000000
00000000
00010000
00000000
00000000
00000000
00000000
00000000
00000000
00000000
00000000
00000000
00000000
00000000
00000000
00000000
00000000
00000000
00000000
00000000
00000000
00000000
00000000
00000000
00000000
00000000
00000000
00000000
00000000
00000000
00000000
00000000
00000000
00000000
00000000
00000000
00000000
00000000
00000000
00000000
00000000
00000000
00000000
00000000
00000000
00000000
00000000
00000000
00000000
00000000
01000000
00000000
00000000
00000000
00000000
00000000
00000000
00000000
00000000
00000000
00000000
00000000
00000000
00000000
00000000
00000000
00000000
00000000
00000000
00000000
00000000
00000000
00000000
00000000
00010000
00000000
00000000
00000000
00000000
00000000
00000000
00000000
00000000
00000000
00000000
00000000
00000000
00000000
00000000
00000000
00000000
00000000
00000000
00000000
00000000
00000000
00000000
00000000
,
00001030
00000000
00010200
00001000
00000010
00001000
00M10000
00001000
,
01000303
00000000
20200001
00000100
00001000
00000000
00000100
00001000
,
00310000
00000000
02001000
00010000
00100000
00010000
00001M00
00010000
,
33000100
00000000
10000000
01000000
10000000
00010000
01000000
00010000
,
00100000
00001000
00100000
00001000
00010000
00000100
00001000
00000001
,
00000010
00000001
10000000
00100000
10000000
00010000
00100000
00010000
,
00100000
00001000
00010000
00000100
00001000
00000001
00000010
00000001
,
10001000
00000000
00000000
00000000
01000100
00000000
00000000
00000000
00100010
00000000
00000000
00000000
00010001
00000000
00000000
00000000
00000000
00000000
00000000
00000000
00000000
00010001
00000000
00000000
00000000
00000000
00000000
00000000
00000000
00000000
00010001
00000000
00000000
00000000
00000000
00000000
01000100
00000000
00000000
00000000
00000000
00000000
00000000
00000000
00000000
01000100
00000000
00000000
,
00000000
00000000
01000100
00000000
00100010
00000000
00000000
00100010
00000000
00000000
00100010
00000000
10001000
00000000
00000000
10001000
,
00000000
00000000
10001000
00000000
00020002
00000000
00000000
01000100
00000000
00000000
01030103
00000000
00200020
00000000
00000000
10001000
,
00000000
00000000
10301030
00000000
02000200
00000000
00000000
00100010
00000000
00000000
03100310
00000000
00020002
00000000
00000000
01000100
,
00000000
01030103
00022000
00233200
02300320
23000032
32000023
03200230
,
00322300
00000000
00000000
00000000
20033002
00000000
00000000
00000000
30200203
00000000
00000000
00000000
20300302
00000000
00000000
00000000
30022003
00000000
00000000
00000000
00233200
00000000
00000000
00000000
00311300
01000010
00000000
00000000
00011000
10000001
00000000
00000000
,
00011000
00100100
00000000
00000000
00011000
10000001
00000000
00000000
00011000
00000000
00000000
00000000
00100100
00000000
00000000
00000000
01000010
00000000
00000000
00000000
10000001
00000000
00011000
00000000
10000001
00000000
00000000
00000000
00100100
00000000
00000000
00000000
,
01000010
00011000
01000010
00000000
00100100
00000000
10000001
01000010
10000001
00000000
00011000
00000000
00400400
00000000
00000000
00000000
,
00300300
00M00M00
20200001
00000100
00000001
00000100
00001000
00000100
,
00001000
00000100
00001000
00010000
00001000
00010000
00001000
00000100
,
30300001
00000010
10000022
01000000
10000000
01000000
00010000
01000000
,
00010000
01000000
00010000
00001000
00010000
00001000
00010000
00100000
,
10000000
01000000
00100033
00010000
00200200
00000000
00000000
00000000
,
00000000
00000000
00300300
00M00M00
02000020
00000000
00000000
00000000
,
00000000
00000000
03000030
0M0000M0
20000002
00000000
00000000
00000000
,
00000000
00000000
30000003
M000000M
00022000
00000000
00000000
00000000
,
00033000
000MM000
20022002
00000000
00000000
30033003
00000000
00000000
;
