#TITLE:Tell Me;
#SUBTITLE:(Dj 3k Arrange);
#ARTIST:Vibes & Splash Ft. Moa;
#TITLETRANSLIT:;
#SUBTITLETRANSLIT:;
#ARTISTTRANSLIT:;
#GENRE:;
#CREDIT:;
#BANNER:tell me-bn.png;
#BACKGROUND:tell me-bg.png;
#LYRICSPATH:;
#CDTITLE:;
#MUSIC:Tell Me (Dj 3k Arrange).ogg;
#OFFSET:-0.048;
#SAMPLESTART:94.630;
#SAMPLELENGTH:12.000;
#SELECTABLE:YES;
#BPMS:0.000=170.000,36.000=85.000,120.000=170.000,180.000=85.000,182.000=170.000,342.000=85.000,358.000=170.000;
#STOPS:;
#BGCHANGES:;
#KEYSOUNDS:;

//---------------dance-single - C.Sanabria----------------
#NOTES:
     dance-single:
     C.Sanabria:
     Challenge:
     11:
     0.781,0.926,0.184,0.575,0.759:
0000
0000
0000
0000
,
1000
0100
1000
0100
0010
0100
0010
0100
,
0001
0100
0001
0100
0010
0100
1000
0001
,
0100
0010
1010
1000
0100
0010
0011
0001
,
1000
0010
1010
1000
0001
0010
0011
0001
,
1000
0100
0010
0100
0001
0100
0001
0100
,
1000
0010
0100
0010
0001
0010
0001
0010
,
1000
0100
0010
0100
1000
0001
0100
0010
,
2MM2
0000
0000
0000
0000
0000
3003
M00M
,
2000
0000
0000
0000
0000
0000
0000
0000
0000
0000
3010
0000
0000
0100
0000
0000
0002
0000
0000
0000
0000
0000
0000
0000
0000
0000
0013
0000
0000
0100
0000
0000
,
2000
0000
0000
0000
0000
3001
0000
0100
0020
0000
0130
2000
0000
3200
0000
0302
,
0000
0000
0000
0000
0000
0000
0000
0000
0000
0000
1003
0000
0000
0100
0000
0000
0020
0000
0000
0000
0000
0000
0000
0000
0000
0000
0031
0000
0000
0100
0000
0000
,
0020
0000
0000
0000
0000
1030
0000
0100
0002
0000
0103
0020
0000
0230
0000
2300
,
0000
0000
0000
0000
0000
3010
0000
0100
0002
0000
0000
0000
0000
0013
0000
0100
,
2000
0000
0000
0000
0000
3000
0001
0100
0010
0000
0100
0010
0000
1000
0000
0002
,
0000
0000
0000
0000
0000
0000
0000
0000
0000
0000
1003
0000
0000
0010
0000
0000
0200
0000
0000
0000
0000
0000
0000
0000
0000
0000
0301
0000
0000
0010
0000
0000
,
0200
0000
0000
0000
0000
0000
0000
0000
0000
0000
0310
0000
0000
0100
0000
0000
2000
0000
0000
0000
0000
0000
0000
0000
0002
0000
0000
0000
0000
0000
0000
0000
,
3003
0000
0000
0000
0000
0000
0000
0000
0M00
0000
0000
0000
0000
0000
0000
0000
00M0
0000
0000
0000
0000
0000
0000
0000
1000
0000
0000
0010
0000
0000
0100
0000
,
M1M2
0000
2003
01M0
,
3M01
0000
0000
0000
0100
0000
0010
0000
0000
0000
1000
0000
0000
0000
0002
0000
0000
0000
0023
0000
0000
0000
2030
0000
0M00
0000
3020
000M
0000
0000
M000
0000
,
023M
0000
0000
0000
0000
0000
0000
0000
0000
0000
0000
0000
0000
0000
0000
0000
2300
0000
0000
0000
0000
0000
0000
0000
0M00
0000
0000
00M0
3001
0000
0M00
0000
,
M010
0000
0000
0000
0100
0000
1000
0000
0000
0000
0010
0000
0000
0000
0200
0000
0000
0000
0302
0000
0000
0000
0203
0000
00M0
0000
2300
000M
0000
0000
00M0
0000
,
320M
0000
0000
0000
0302
0000
M000
1M03
,
010M
0000
0000
0000
0010
0000
0001
0000
0000
0000
0100
0000
0000
0000
0020
0000
0000
0000
2030
0000
0000
0000
3002
0000
0000
0000
0203
0000
00M0
0000
0000
000M
,
0320
0000
M000
0000
000M
0000
0000
0000
0000
0000
0000
0000
0000
0000
0000
0000
2030
0000
0000
0000
0000
0000
0000
0000
000M
0000
0000
00M0
3001
0000
0M00
0000
,
M010
0000
0100
1000
0000
0010
0000
2000
0000
3200
0000
0302
0000
0203
0000
0300
,
1001
0000
0000
1000
,
0020
0000
0000
0000
0000
0000
0000
0000
0130
0000
0000
0000
0000
0000
0000
0000
0002
0000
0000
0000
0000
0000
0000
0000
0013
0000
0000
0100
0000
0000
1000
0000
,
0002
0000
0000
0000
0000
0000
0000
0000
0000
0000
0000
0000
0000
0000
0000
0000
1003
0000
0000
0000
0000
0000
0000
0000
0100
0000
0000
0010
0000
0000
0001
0000
,
2000
000M
0M00
30M0
,
M001
0100
0010
0100
0010
1000
0100
0010
0100
0010
0001
1000
0010
0100
0001
1000
,
0001
0010
0001
0010
0100
1000
0100
1000
0010
0100
0001
1000
0100
0010
0001
1000
,
0001
0100
0010
1000
0010
0100
0001
1000
0100
0010
0100
0010
0001
0100
0001
1000
,
0010
0100
0010
0100
0001
1000
0100
0010
0001
1000
0001
0100
0010
1000
0010
1000
,
0001
0010
0100
1000
0100
0010
0001
0100
0010
0100
0010
1000
0100
0010
0100
1000
,
0001
0010
0001
0010
0100
1000
0010
1000
0010
0100
0001
1000
0100
1000
0001
0010
,
0001
0100
0010
1000
0001
0100
0010
1000
0100
1000
0100
0010
0001
0100
0001
0100
,
0010
1000
0010
1000
0100
0010
0100
0010
0001
1000
0010
1000
0001
0100
0001
0100
,
0010
1000
0001
1000
0010
0100
0001
0100
0001
1000
0100
0010
0100
1000
0100
1000
,
0001
0010
0100
0010
0100
1000
0010
1000
0001
0100
0001
0100
0010
1000
0001
1000
,
0001
0010
0100
1000
0010
1000
0010
0100
0001
0010
0001
0010
0100
1000
0010
1000
,
0100
1000
0010
0100
0001
0010
0001
0100
0001
0010
0100
1000
0100
1000
0001
0100
,
0001
0100
0010
1000
0100
0010
0001
0100
0010
1000
0100
0010
0001
0100
0001
0100
,
0010
1000
0001
1000
0100
1000
0100
1000
0001
0010
0001
0100
0001
1000
0010
1000
,
0100
1000
0001
0010
0100
1000
0010
0100
0010
1000
0100
0010
0001
0100
0010
1000
,
1001
0000
0100
0010
0100
1000
0001
0000
1000
0000
0100
0000
1000
0000
0100
0000
,
0010
0100
0001
0100
1000
0100
1000
0100
,
0010
0100
0001
0100
1000
0010
0101
0001
,
0010
0100
1100
1000
0001
0100
0101
0001
,
1000
0100
1100
1000
0001
0100
0001
0100
,
0010
0100
1000
0100
0001
0100
0001
0100
,
0010
0100
1000
0100
0001
0010
1100
1000
,
0001
0100
0101
0001
1000
0010
1010
1000
,
0001
0010
0011
0001
1000
0100
1000
0100
,
0010
0100
0010
0001
1000
0100
0010
0100
,
0001
0100
0010
0100
1000
0010
0101
0001
,
0010
0100
1100
1000
0001
0010
0011
0001
,
0100
0010
1010
1000
0001
0010
0001
0010
,
0100
0010
1000
0010
0001
0100
0010
1000
,
0100
0001
0100
1000
1001
1000
0010
0100
,
0101
0001
0010
0100
1001
00M0
0000
0M00
,
0000
000M
0000
M000
0001
0100
0001
0100
,
0010
1000
0100
1000
0010
0100
0010
0100
,
0001
0010
0100
1000
0001
0100
0001
0100
,
0010
1000
0100
1000
0001
0100
0001
0010
,
0100
1000
0100
1000
0001
0100
0001
0100
,
0010
1000
0100
1000
0001
0010
0100
1000
,
0010
0000
0000
0000
0000
0000
1000
0000
0000
0100
0000
0000
0010
0000
0000
0001
0000
0000
1000
0000
0001
0000
1000
0000
0001
0000
0000
0100
0000
0000
0010
0000
0000
1000
0000
0000
0010
0000
0000
0100
0000
0000
0001
0000
0000
0100
0000
0000
,
0010
0000
0000
1000
0000
0000
0001
0000
0000
1000
0000
0000
0001
0000
0000
0100
0000
0000
0001
0000
1000
0000
0002
0000
2000
0000
0000
0000
0000
0000
0M00
0000
0000
0000
0000
0000
00M0
0000
0000
0000
0000
0000
0M00
0000
0000
0000
0000
0000
,
0000
0000
3003
0000
0010
1000
0100
0001
,
0100
0000
2000
0000
0000
3020
0000
0000
0130
0000
0001
0000
0010
0000
1000
0000
,
0010
0000
0002
0000
0000
0203
0000
0000
0310
0000
1000
0000
0100
0000
0010
0000
,
0001
0000
2000
0000
0000
3010
0000
0000
0101
0000
0001
0000
1000
0000
1200
0000
,
M000
0320
0000
0031
1000
0010
0001
0010
,
0100
0000
0002
0M00
0000
2003
0000
00M0
3100
0000
0010
0000
1000
0000
0010
0000
,
0100
0000
0002
0M00
0000
0203
0000
M000
0310
0000
0001
0000
0100
0000
0010
0000
,
0001
0000
0020
0000
000M
0130
0000
0000
0110
0000
0010
0000
1000
0000
1200
0000
,
0000
0320
0000
0031
0100
0010
1010
1000
,
0100
0010
0011
0001
1000
0010
1010
1000
,
0001
0010
0011
0001
1000
0100
0110
0010
,
0001
1000
0020
0230
0320
0000
1030
0200
,
00M0
0320
000M
0032
1M03
0010
0001
0010
,
0100
0000
0002
00M0
0000
2003
0000
0M00
3001
0000
0010
0000
1000
0000
0010
0000
,
0100
0000
2000
00M0
0000
3002
0000
0M00
1003
0010
0100
0001
1000
0010
0100
0010
,
0100
0001
1000
0100
0010
0001
0010
0100
2000
0000
0000
0000
0000
0000
0000
0000
,
3002
0000
2003
0000
,
3000
0020
0230
0000
,
0302
0000
0000
0000
0000
0000
0000
0000
1003
0000
0000
0100
0000
0000
0010
0000
0002
0000
0000
0000
0000
0000
0000
0000
0000
0000
0000
0000
0000
0000
0000
0000
,
0203
0000
0000
0000
0000
0000
0000
0000
0310
0000
0000
1000
0000
0000
0001
0000
0200
0000
0000
0000
0000
0000
0000
0000
0000
0000
0000
0000
0000
0000
0000
0000
,
0020
0000
0330
0000
1000
0100
1000
0100
,
0010
0100
0010
0100
0001
0100
0010
0100
,
1000
0001
1000
0010
0200
0000
0302
0000
,
2003
3200
0320
0230
0302
0203
0000
2300
,
0000
0000
3002
0000
0203
0000
0320
0000
1030
0100
0010
0100
1000
0100
0010
0100
,
0010
0001
0010
0100
0010
0001
0010
0100
1000
0010
1000
0010
0100
0001
0100
0010
,
1000
0000
0000
0001
0000
0000
1000
0000
0000
0001
0000
0000
1000
0000
0000
0100
0000
0000
0010
0000
0001
0000
1000
0000
0001
0000
0000
0100
0000
0000
0010
0000
0000
1000
0000
0000
0001
0000
0000
1000
0000
0000
0010
0000
0000
0100
0000
0000
,
0001
0000
0000
1000
0000
0000
0100
0000
0000
0010
0000
0000
0001
0000
1000
0000
0001
0000
2000
0000
0000
0000
0000
0000
0002
0000
0000
0000
0000
0000
0000
0000
0000
0000
0000
0000
0000
0000
0000
0000
0000
0000
3003
0000
0000
0000
0000
0000
,
0MM0
0000
0100
0010
0100
0010
1000
0001
1000
0000
0000
M000
0000
0000
0000
0000
;

//---------------dance-single - C.Sanabria----------------
#NOTES:
     dance-single:
     C.Sanabria:
     Beginner:
     2:
     0.161,0.222,0.069,0.000,0.000:
0000
0000
0000
0000
,
1000
0000
0000
0000
,
0010
0000
0000
0000
,
0001
0000
0000
0000
,
1001
0000
0000
0000
,
1000
0000
0000
0000
,
0010
0000
0000
0000
,
0001
0000
0000
0000
,
1001
0000
0000
0000
,
0001
0000
0000
0000
,
1000
0000
0000
0000
,
0010
0000
0000
0000
,
0100
0000
0000
0000
,
0001
0000
0000
0000
,
1000
0000
0000
0000
,
0100
0000
0000
0000
,
0010
0000
0000
0000
,
0010
0000
0000
0000
,
1001
0000
0000
0000
,
0010
0000
0000
0000
,
1001
0000
0000
0000
,
0100
0000
0000
0000
,
0001
0000
0000
0000
,
1000
0000
0000
0000
,
0100
0000
0000
0000
,
0010
0000
0000
0000
,
0001
0000
0000
0000
,
1000
0000
0010
0000
,
0100
0000
0000
0000
,
0001
0000
0000
0000
,
1000
1000
1000
1000
,
1000
1000
1000
1000
,
1000
1000
1000
1000
,
1000
1000
1000
1000
,
1000
1000
1000
1000
,
1000
1000
1000
1000
,
1000
1000
1000
1000
,
1000
1000
1000
0000
,
0001
0001
0001
0001
,
0001
0001
0001
0001
,
0001
0001
0001
0001
,
0001
0001
0001
0001
,
0001
0001
0001
0001
,
0001
0001
0001
0001
,
0001
0001
0001
0000
,
1001
0000
0010
0000
,
0010
0000
0100
0000
,
0100
0000
1000
0000
,
1000
0000
0001
0000
,
0001
0000
0100
0000
,
0100
0000
0010
0000
,
0010
0000
1000
0000
,
1000
0000
0001
0000
,
0001
0000
1000
0000
,
0100
0000
0010
0000
,
0001
0000
1000
0000
,
1000
0000
0001
0000
,
0001
0000
1000
0000
,
0010
0000
0100
0000
,
0001
0000
1000
0000
,
1000
0000
1001
0000
,
0000
0000
0001
0000
,
0010
0000
0001
0000
,
0010
0000
0100
0100
,
0100
0000
0100
0100
,
0100
0000
1000
0000
,
0010
0000
1000
0000
,
0010
0000
0100
0100
,
0100
0100
0100
0000
,
0000
0000
0001
0000
,
0000
0000
0010
0000
,
0000
0000
1000
0000
,
0000
0000
0100
0000
,
0001
0000
1001
0000
,
0000
0000
0001
0000
,
0000
0000
0010
0000
,
0000
0000
1000
0000
,
0001
0000
1001
0000
,
1000
0000
0001
0000
,
1000
0000
0110
0000
,
0001
0000
1000
0000
,
0001
0000
1001
0000
,
1000
0000
0100
0000
,
0100
0000
1001
0000
,
0001
0000
0100
0000
,
0100
0000
0010
0000
,
0000
0000
1000
0000
,
0000
0000
0001
0000
,
0000
0000
0100
0000
,
0000
0000
0010
0000
,
0010
0000
1000
0000
,
1000
0000
0001
0000
,
0001
0000
0010
0000
,
0010
0000
0100
0000
,
0100
0000
1000
0000
,
1000
0000
0001
0000
,
0001
0000
1001
0000
;
