#TITLE:Sun & Moon;
#SUBTITLE:(radio edit);
#ARTIST:Above&Beyond feat. Richard Bedford;
#TITLETRANSLIT:;
#SUBTITLETRANSLIT:;
#ARTISTTRANSLIT:;
#GENRE:;
#CREDIT:;
#BANNER:sun&moon-bn.png;
#BACKGROUND:sun&moon-bg.png;
#LYRICSPATH:;
#CDTITLE:;
#MUSIC:Above and Beyond ft Richard Bedford - Sun and Moon (radio edit).mp3;
#OFFSET:0.099;
#SAMPLESTART:100.310;
#SAMPLELENGTH:12.000;
#SELECTABLE:YES;
#BPMS:0.000=134.000,130.000=67.000,146.000=134.000;
#STOPS:;
#BGCHANGES:;
#KEYSOUNDS:;

//---------------dance-single - C.Sanabria----------------
#NOTES:
     dance-single:
     C.Sanabria:
     Challenge:
     10:
     0.753,0.859,0.000,0.572,0.740:
0000
0000
0000
0000
,
0000
0000
0010
1000
,
0001
0000
0100
0000
0020
0000
0000
2030
,
0000
0000
3002
0000
0203
0000
0000
0320
,
0000
0000
0000
0000
2030
0000
0000
0000
3001
0000
0010
0000
0002
0000
0000
1000
,
0000
0000
0103
0000
0010
0000
0000
0000
1000
0000
0100
0000
2000
0000
0000
0001
,
0000
0000
3010
0000
0100
0000
0000
0000
0001
0000
1000
0100
2000
0000
0000
0010
,
0000
0000
3001
0000
1000
0000
0000
0000
1000
0000
0001
0100
0002
0000
0000
0010
,
0000
1003
0100
0000
0010
0001
0010
0001
,
0010
0100
0010
0100
0010
1000
0010
1000
,
0010
0100
0010
0001
1000
0010
1000
0010
,
0100
0001
0100
0001
1000
0010
0100
0010
,
0001
0010
0100
0010
2000
0000
3100
0020
,
0000
0000
0000
0000
0030
0000
0000
0000
0001
0000
1000
0010
1000
0000
0001
0100
,
0000
0100
0001
0000
2000
0000
3000
0000
1000
0000
0001
0100
0001
0000
1000
0100
,
0000
0100
1000
0000
0002
0000
0003
0000
1000
0000
0100
0010
0100
0000
1000
0010
,
0000
0100
0001
0000
2000
0000
3000
0000
0001
0100
0001
0000
1000
0010
1000
0000
,
0001
1000
0010
0000
0100
0000
0010
0000
1000
0100
1000
0000
0010
1000
0010
0000
,
0100
0001
0100
0000
0010
0000
1000
0000
0001
0010
0001
0000
0100
0001
0100
0000
,
0010
1000
0010
0000
0100
0000
0001
0000
1000
0100
0010
0000
0100
1000
0100
0000
,
0010
0001
1000
0000
0010
0000
0100
0000
0001
0000
1000
0010
2000
0000
3100
0010
,
0000
0100
0010
0000
0002
0000
0003
0000
1000
0000
0001
0010
0002
0000
0103
0010
,
0000
0100
0010
0000
2000
0000
3000
0000
0001
0000
0010
0100
1000
0000
0001
0100
,
0000
0100
0010
0000
1000
0000
0001
0000
1000
0000
0001
0010
0100
0000
1000
0010
,
0000
0010
0100
0000
0002
0000
0003
0000
1000
0100
1000
0000
0010
0100
0010
0000
,
0100
0001
0100
0000
0010
0100
0010
0000
1000
0100
1000
0000
0001
0010
0001
0000
,
0010
0100
0010
0000
0001
0100
0001
0000
1000
0100
0010
0000
0100
1000
0100
0000
,
0010
0001
0010
0000
0001
0100
0001
0000
1000
0010
0100
0000
0001
1000
0001
0000
,
1000
0100
0010
0000
0001
0010
0100
0000
1000
0000
0010
0100
0002
0000
1003
0100
,
0000
0010
0100
0000
2000
0000
3000
0000
0001
0000
0010
0100
2000
0000
3010
0100
,
0000
0001
0100
0000
0002
0000
0003
0000
1000
0000
0010
1000
0100
0000
0010
0001
,
0000
1000
0010
0000
0100
0000
0100
0000
0001
0000
0010
0001
0100
0000
0010
1000
,
0000
0001
0100
0000
0020
0000
0030
0000
2000
0000
0000
0000
0000
0000
0000
0000
,
0000
0000
3002
0000
,
1003
0010
0100
0001
0010
0100
1000
0001
1000
0100
0010
0002
0000
0000
0000
0000
,
1003
0100
0010
0002
0000
0000
0000
0000
1003
0010
0100
0001
0100
0010
1000
0001
,
2000
0000
0000
3000
0002
0003
000M
0002
,
0003
000M
0002
0003
000M
0002
0003
000M
,
0002
0003
000M
0002
2003
3000
M000
2000
,
3000
M000
2000
3000
M000
0020
0030
00M0
,
0020
0030
00M0
0020
0230
0300
0M00
0200
,
0300
0M00
0200
0300
0M00
0200
0300
0M00
,
0200
0300
0M00
0200
0302
0003
000M
0002
,
0003
000M
0002
0003
000M
2000
3000
M000
,
2000
0000
3000
0000
M000
0000
2000
0000
3001
0000
0100
0010
0100
0000
0001
1000
,
0000
0000
1000
0000
0100
0000
0010
0000
0001
0000
0100
0010
0100
0000
0001
1000
,
0000
1000
0100
0000
0020
0000
0030
0000
0001
0000
1000
0100
1000
0000
0010
0100
,
0000
0000
0100
0000
0001
0000
0010
0000
0100
0000
1000
0001
1000
0000
0100
0010
,
0000
0010
0001
0000
2000
0000
3000
0000
0001
0000
1000
0010
1000
0000
0001
0100
,
0000
0000
0100
0000
0010
0000
1000
0000
0100
0000
0010
0001
0010
0000
0100
1000
,
0000
1000
0001
0000
0002
0000
0003
0000
1000
0000
0010
1000
0001
0000
0100
0001
,
0000
0001
1000
0010
0100
0002
0003
01M0
,
0002
0000
0003
0000
01M0
0000
0001
0000
1000
0000
0010
1000
0010
0000
0100
0010
,
0100
0000
0001
0100
0001
0000
0010
0001
0010
0000
0100
0010
0100
0000
1000
0100
,
1000
0000
0010
1000
0010
0000
0100
0001
0100
0000
0010
1000
0001
0000
0100
0000
,
0001
1000
0010
0000
1000
0000
0001
1000
0100
0000
1000
0000
0001
1000
0010
0000
,
0100
0001
0100
0000
0010
1000
0001
1000
0100
0000
1000
0100
1000
0000
0100
0010
,
0100
0000
0010
0001
0010
0000
0001
0100
0001
0000
0100
0010
0100
0000
0010
1000
,
0010
0000
1000
0100
1000
0000
0100
0010
0001
0000
1000
0001
0100
0000
0010
0000
,
0100
0001
1000
0000
0100
0000
1000
0001
0010
0000
0100
0000
0010
0001
1000
0000
,
0010
0100
0001
0000
1000
0001
0010
0001
1000
0000
0100
0010
0100
0000
1000
0010
,
0000
0100
0001
0000
1000
0000
M000
0000
1000
0000
0001
0010
0001
0000
1000
0010
,
0000
0100
0001
0000
1000
0000
0100
0000
0010
0000
0001
1000
0001
0000
0010
0100
,
0000
0100
1000
0000
0001
0000
000M
0000
0001
0000
0010
0100
1000
0000
0010
1000
,
0000
0001
0100
0000
0001
0000
1000
0000
0001
0000
0010
0100
1000
0000
0010
0100
,
0000
0100
0001
0000
0010
0000
00M0
0000
0010
0000
0001
0100
0010
0000
1000
0100
,
0000
0100
1000
0000
0001
0000
0100
0000
0010
0000
1000
0100
1000
0000
0001
0100
,
0000
0100
0010
0000
0100
0000
0M00
0000
0100
0000
0001
1000
0001
0000
0010
0000
,
0001
1000
0001
0000
0100
0000
0010
0000
1000
0100
1000
0100
1000
0100
0010
0001
,
0010
0001
0010
0001
1000
0010
1000
0010
1000
0010
0100
0001
0100
0001
0100
0001
,
1000
0100
0010
0001
1000
0010
0100
0001
1000
0100
1000
0100
1000
0100
0010
0001
,
0010
0001
0010
0001
1000
0010
1000
0010
1000
0010
0100
0001
0100
0001
0100
0001
,
1000
0100
1000
0001
0100
0001
1000
0010
1000
0100
1000
0100
1000
0100
0010
0001
,
0010
0001
0010
0001
1000
0010
1000
0001
0010
0001
1000
0100
1000
0001
0100
0001
,
1000
0100
1000
0100
0010
0001
0010
0001
1000
0010
0100
0001
1000
0010
0100
0001
,
1000
0100
0010
0001
1000
0100
0010
0001
1000
0100
1000
0100
0010
0001
0010
0001
,
0100
0010
0100
0010
1000
0100
0010
0001
1000
0010
1000
0010
1000
0010
0100
0001
,
0100
0001
0100
0001
1000
0100
1000
0100
1000
0100
0010
0001
0010
0001
0010
0001
,
1000
0010
0100
0001
1000
0100
0010
0001
1000
0010
1000
0010
1000
0010
0100
0001
,
0100
0001
0100
0001
1000
0100
1000
0100
1000
0100
0010
0001
0010
0001
0010
0001
,
1000
0010
1000
0001
0010
0001
1000
0100
1000
0010
1000
0010
1000
0010
0100
0001
,
0100
0001
0100
0001
1000
0100
1000
0001
0100
0001
1000
0010
1000
0001
0010
0001
,
1000
0010
1000
0010
0100
0001
0100
0001
1000
0100
0010
0001
1000
0100
0010
0001
,
1000
0010
0100
0001
1000
0010
0100
0001
1000
0010
1000
0010
0100
0001
0100
0001
,
0010
0100
0010
0100
1000
0010
0100
0001
2000
0000
3000
0000
M000
0000
2000
0000
,
3000
M000
2000
3000
M000
2000
3000
M000
,
2000
3000
M000
2000
3002
0003
000M
0002
,
0003
000M
0002
0003
000M
0200
0300
0M00
,
0200
0300
0M00
0200
0320
0030
00M0
0020
,
0030
00M0
0020
0030
00M0
0020
0030
00M0
,
0020
0030
00M0
0020
2030
3000
M000
2000
,
3000
M000
2000
3000
M000
0002
0003
000M
,
0002
0003
000M
0002
2003
3000
0100
2000
,
3000
0100
2000
3000
0100
2000
3000
0100
,
2000
3000
0100
2000
3002
0003
0100
0002
,
0003
0100
0002
0003
0010
0200
0300
0010
,
0200
0300
0010
0200
0320
0030
0001
0020
,
0030
0001
0020
0030
0001
0020
0030
0001
,
0020
0030
0001
0020
0230
0300
0010
0200
,
0300
0010
0200
0300
1000
0002
0003
1000
,
0002
0003
1000
0002
1003
0000
0000
0000
;

//---------------dance-single - C.Sanabria----------------
#NOTES:
     dance-single:
     C.Sanabria:
     Beginner:
     2:
     0.101,0.107,0.005,0.000,0.000:
0000
0000
0000
0000
,
0000
0000
1000
0000
,
1000
0000
1000
0000
,
1000
0000
0001
0000
,
0001
0000
0010
0000
,
0000
0000
0100
0000
,
0000
0000
1000
0000
,
0000
0000
0010
0000
,
0000
0000
0001
0000
,
0001
0000
0001
0000
,
0001
0000
1000
0000
,
1000
0000
1000
0000
,
1000
0000
0100
0000
,
0000
0000
0010
0000
,
0000
0000
0001
0000
,
0000
0000
0100
0000
,
0000
0000
0010
0000
,
0010
0000
1000
0000
,
0000
0000
0010
0000
,
0010
0000
0001
0000
,
0000
0000
0100
0000
,
1000
0000
0100
0000
,
0000
0000
0100
0000
,
0001
0000
0100
0000
,
0000
0000
0010
0000
,
0010
0000
1000
0000
,
0000
0000
0010
0000
,
0010
0000
0001
0000
,
0000
0000
0100
0000
,
1000
0000
0010
0000
,
0000
0000
0100
0000
,
0001
0000
0010
0000
,
0000
0000
0100
0000
,
0000
0000
1000
0000
,
0001
0000
0100
0000
,
0000
0000
0001
0000
,
1000
0000
0100
0000
,
0000
0000
0100
0000
,
0000
0000
0001
0000
,
0000
0000
1000
0000
,
0000
0000
0010
0000
,
0000
0000
0010
0000
,
0000
0000
0001
0000
,
0000
0000
1000
0000
,
0000
0000
0100
0000
,
0100
0000
0100
0000
,
0100
0000
0010
0000
,
0010
0000
0001
0000
,
0001
0000
0100
0000
,
0100
0000
0100
0000
,
0100
0000
0010
0000
,
0010
0000
1000
0000
,
1000
0000
0001
0000
,
0000
0000
0001
0000
,
0000
0000
1000
0000
,
0000
0000
1000
0000
,
0000
0000
0100
0000
,
0100
0000
0000
0000
,
0000
0000
0010
0000
,
0000
0000
0100
0000
,
0000
0000
0001
0000
,
0001
0000
0001
0000
,
0000
0000
1000
0000
,
1000
0000
1000
0000
,
0010
0000
0100
0000
,
0000
0000
0000
0000
,
0000
0000
0010
0000
,
0000
0000
0000
0000
,
0000
0000
0001
0000
,
0001
0000
0100
0000
,
0000
0000
1000
0000
,
1000
0000
0100
0000
,
0000
0000
0010
0000
,
0001
0000
0010
0000
,
0000
0000
0010
0000
,
1000
0000
0010
0000
,
0000
0000
0100
0000
,
0001
0000
0010
0000
,
0000
0000
0100
0000
,
1000
0000
0010
0000
,
0000
0000
0001
0000
,
0100
0000
1000
0000
,
0000
0000
1000
0000
,
0010
0000
0001
0000
,
1000
0000
1001
0000
,
0000
0000
0000
0000
,
0000
0000
0001
0000
,
0000
0000
1000
0000
,
0000
0000
0010
0000
,
0000
0000
0000
0000
,
0000
0000
1000
0000
,
0000
0000
0001
0000
,
0000
0000
0100
0000
,
0000
0000
0000
0000
,
0000
0000
0010
0000
,
0000
0000
1000
0000
,
0000
0000
0100
0000
,
0000
0000
0000
0000
,
0000
0000
0010
0000
,
0000
0000
0001
0000
,
0000
0000
0100
0000
;
