#TITLE:Shaolin Warrior;
#SUBTITLE:;
#ARTIST:F-777;
#TITLETRANSLIT:;
#SUBTITLETRANSLIT:;
#ARTISTTRANSLIT:;
#GENRE:;
#CREDIT:;
#BANNER:shaolin warrior-bn.png;
#BACKGROUND:shaolin warrior-bg.png;
#LYRICSPATH:;
#CDTITLE:;
#MUSIC:Shaolin Warrior.ogg;
#OFFSET:-0.027;
#SAMPLESTART:91.130;
#SAMPLELENGTH:12.000;
#SELECTABLE:YES;
#DISPLAYBPM:150.000;
#BPMS:0.000=150.000,357.000=300.000,357.500=150.000,358.000=300.000,358.500=150.000,359.000=300.000,359.500=150.000,361.000=300.000,361.500=150.000,362.000=300.000,363.000=150.000,365.000=300.000,365.500=150.000,366.000=300.000,366.500=150.000,367.000=300.000,367.500=150.000,369.000=300.000,369.500=150.000,370.000=300.000,372.000=150.000,372.500=300.000,373.500=150.000,374.500=300.000,375.500=150.000,376.000=300.000,377.000=300.000,377.500=150.000,378.000=300.000,379.000=150.000,381.000=300.000,381.500=150.000,382.000=300.000,382.500=150.000,383.000=300.000,383.500=150.000,385.000=300.000,385.500=150.000,388.000=300.000,389.000=300.000,389.500=150.000,391.500=300.000,392.000=300.000,392.500=150.000,393.500=300.000,394.000=300.000,395.000=150.000,396.000=300.000,397.500=150.000,400.000=300.000,400.500=150.000,401.500=300.000,404.000=150.000,404.500=300.000,405.500=150.000,406.500=300.000,407.500=150.000,408.000=300.000,409.000=150.000,410.000=300.000,411.000=150.000,412.000=300.000,412.500=150.000,415.500=300.000,416.500=150.000,417.500=300.000,418.000=150.000,420.000=300.000,420.500=150.000,421.000=300.000,421.500=150.000,422.000=300.000,423.500=150.000,424.000=300.000,424.500=150.000,425.000=300.000,425.500=150.000,426.000=300.000,428.500=150.000,429.000=300.000,429.500=150.000,430.000=300.000,431.500=150.000,432.000=300.000,432.500=150.000,433.000=300.000,433.500=150.000,436.000=300.000,436.500=150.000,437.000=300.000,437.500=150.000,438.000=300.000,439.500=150.000,440.000=300.000,440.500=150.000,441.000=300.000,441.500=150.000,442.000=300.000,444.500=150.000,445.000=300.000,445.500=150.000,446.000=300.000,447.500=150.000,448.000=300.000,448.500=150.000,449.000=300.000,449.500=150.000;
#STOPS:357.000=0.100
,358.000=0.100
,359.000=0.050
,359.250=0.050
,361.000=0.100
,362.000=0.100
,362.500=0.100
,365.000=0.100
,366.000=0.100
,367.000=0.050
,367.250=0.050
,369.000=0.100
,370.000=0.100
,370.500=0.100
,371.000=0.100
,371.500=0.100
,372.500=0.050
,372.750=0.050
,373.000=0.050
,373.250=0.050
,374.500=0.050
,374.750=0.050
,375.000=0.050
,375.250=0.050
,376.000=0.100
,376.500=0.100
,377.000=0.050
,377.250=0.050
,378.000=0.100
,378.500=0.100
,381.000=0.100
,382.000=0.100
,383.000=0.050
,383.250=0.050
,385.000=0.100
,388.000=0.100
,388.500=0.100
,389.000=0.100
,391.500=0.050
,391.750=0.050
,392.000=0.100
,393.500=0.050
,393.750=0.050
,394.000=0.100
,394.500=0.100
,396.000=0.100
,396.500=0.100
,397.000=0.100
,400.000=0.100
,401.500=0.050
,401.750=0.050
,402.000=0.100
,402.500=0.100
,403.000=0.100
,403.500=0.100
,404.500=0.050
,404.750=0.050
,405.000=0.050
,405.250=0.050
,406.500=0.050
,406.750=0.050
,407.000=0.050
,407.250=0.050
,408.000=0.100
,408.500=0.100
,410.000=0.100
,410.500=0.100
,412.000=0.100
,415.500=0.050
,415.750=0.050
,416.000=0.100
,417.500=0.050
,417.750=0.050
,420.000=0.100
,421.000=0.100
,422.000=0.050
,422.250=0.050
,422.500=0.100
,423.000=0.100
,424.000=0.100
,425.000=0.100
,426.000=0.050
,426.250=0.050
,426.500=0.100
,427.000=0.050
,427.250=0.050
,427.500=0.050
,427.750=0.050
,428.000=0.100
,429.000=0.100
,430.000=0.050
,430.250=0.050
,430.500=0.100
,431.000=0.100
,432.000=0.100
,433.000=0.100
,436.000=0.100
,437.000=0.100
,438.000=0.050
,438.250=0.050
,438.500=0.100
,439.000=0.100
,440.000=0.100
,441.000=0.100
,442.000=0.050
,442.250=0.050
,442.500=0.100
,443.000=0.050
,443.250=0.050
,443.500=0.050
,443.750=0.050
,444.000=0.100
,445.000=0.100
,446.000=0.050
,446.250=0.050
,446.500=0.100
,447.000=0.100
,448.000=0.100
,449.000=0.100
;
#BGCHANGES:;
#KEYSOUNDS:;

//---------------dance-single - C.Sanabria----------------
#NOTES:
     dance-single:
     C.Sanabria:
     Challenge:
     11:
     1.000,1.000,0.179,1.000,0.763:
0000
0000
0000
0000
,
0000
0000
0000
0000
,
0000
0000
0000
0000
,
0000
0000
0000
0000
,
1000
0100
0010
0100
0001
0100
0010
0100
,
1000
0100
0010
0100
0001
0100
0010
0100
,
1000
0100
0010
0100
0001
0100
0010
0100
,
1000
0100
0010
0100
0002
0203
2300
3020
,
0031
0010
0100
0010
1000
0010
0100
0010
,
0001
0010
0100
0010
1000
0010
0100
0010
,
0001
0010
0100
0010
1000
0010
0100
0010
,
0001
0000
0010
0000
0100
0000
0010
0000
1000
0000
0100
0100
0001
1000
0100
0100
,
0001
0010
0100
0010
1000
0010
0100
0010
,
0001
0100
0010
0100
1000
0100
0010
0100
,
0001
0010
0100
1000
0001
1000
0100
0010
,
0001
0000
0100
0000
0010
0000
0100
0100
1000
0001
0100
0100
1000
0001
1000
0100
,
2000
3020
0230
0320
0032
0023
0230
0320
,
2030
3200
0320
0230
0302
0203
0320
0230
,
2300
3020
0032
0023
2030
3200
0302
0203
,
2300
0000
3020
0000
0230
0000
0302
0000
1003
0000
0100
0100
0001
1000
0100
0100
,
0002
0203
0320
0230
2300
3200
0320
0230
,
0302
0023
2030
3020
0032
0203
2300
3200
,
0302
0023
0230
0320
2030
3020
0230
0320
,
0032
0000
2003
0000
3001
0000
0100
0100
1000
0001
0010
0010
1000
0001
0100
0100
,
2000
3010
2000
3001
2000
3100
2000
3000
,
2000
3000
2000
3000
2002
3003
0002
0003
,
0002
0000
0103
0000
0002
0000
1003
0000
0002
0000
0013
0100
0020
0000
0030
0000
,
0020
0030
0020
0030
2002
3003
2000
3000
,
0020
000M
0130
0000
0010
0000
0200
M000
0310
0000
0100
0000
0020
000M
0130
0000
,
0002
00M0
1003
0000
0001
0000
2000
0M00
3001
0000
1000
0000
0002
00M0
1003
0000
,
0002
0M00
0013
0000
0200
M000
0310
0000
2000
000M
3010
0000
0002
M000
0103
0000
,
2000
00M0
3100
0000
0200
M000
0301
0000
,
1001
0000
1000
0100
1000
0010
0010
0001
0100
0010
1000
0100
1000
0010
0010
0001
,
1000
0000
0001
0100
0001
0010
0010
1000
0100
0010
0001
0100
0001
0010
0010
1000
,
0001
0000
1000
0100
0100
0001
1000
0010
0010
0001
1000
0100
1000
0010
0100
0001
,
1000
0000
0001
0100
0100
1000
0001
0010
0010
1000
0001
0100
0001
0010
0100
1000
,
0001
0000
1000
0100
1000
0010
0010
0001
0100
0100
1000
0010
0100
0100
1000
0001
,
0010
0000
0001
0100
0001
0010
0010
1000
0100
0100
0001
0010
0100
0100
0001
1000
,
0010
0000
1000
0100
0100
0010
1000
0001
0100
0100
1000
0010
0010
0001
1000
0100
,
1000
0000
0001
0100
0100
0010
0001
1000
0100
0100
0001
0010
0010
1000
0001
0100
,
0002
0013
0200
0320
1030
0020
0230
0310
,
0002
0103
0010
0100
2000
3100
0020
0130
,
0002
0013
0200
0320
1030
0020
0230
0310
,
0001
0000
0100
0000
0010
0000
0100
0000
2000
3000
0200
0300
0002
0003
0020
0030
,
2000
3010
0200
0320
0031
0020
0230
0310
,
2000
3010
0200
0310
0002
0103
2000
3100
,
0002
0103
0020
0230
1300
0200
0320
0130
,
0002
0000
0103
0000
0020
0000
0130
0000
2000
3000
0200
0300
0002
0003
0020
0030
,
1001
0100
1000
0001
1001
0010
1000
0001
,
1001
0100
0001
1000
1001
0010
0001
1000
,
1100
1000
1001
0001
0011
0001
1001
1000
,
1100
0001
1010
1001
0101
1000
0011
1000
,
0101
0001
1001
1000
1010
1000
1001
0001
,
0101
0000
1000
0000
0011
0000
1001
0000
1100
0000
0100
0100
0001
1000
0010
0010
,
0001
0001
0011
1000
1000
1000
1010
0001
,
0001
0010
0100
1000
0010
0010
0001
1000
0001
0100
0010
1000
0100
0100
0001
1000
,
0020
0000
0000
0030
,
1000
0100
1000
0010
0100
0001
1000
0010
1000
0100
1000
0010
0100
0001
0010
0001
,
1000
0100
1000
0001
0010
0001
0100
0010
1000
0100
1000
0010
0100
0001
1000
0100
,
1000
0010
0100
0001
0010
0001
0100
0010
1000
0100
1000
0010
0100
0001
0010
0001
,
1000
0100
1000
0010
0100
0001
0010
0100
1000
0001
0100
0100
1000
0001
0010
0010
,
1000
0010
1000
0100
0010
0001
1000
0100
1000
0010
1000
0100
0010
0001
0100
0001
,
1000
0010
1000
0001
0100
0001
0010
0100
1000
0010
1000
0100
0010
0001
1000
0010
,
1000
0100
0010
0001
0100
0001
0010
0100
1000
0010
1000
0100
0010
0001
0100
0001
,
1000
0010
1000
0100
0010
0001
0100
0100
1000
0010
0010
0001
1000
0100
0100
0001
,
2000
3100
1000
0010
0100
0001
2000
3010
1000
0100
1000
0010
0200
0301
0010
0001
,
2000
3100
1000
0001
0010
0001
0200
0310
1000
0100
1000
0010
0200
0301
1000
0100
,
2000
3010
0100
0001
0010
0001
0200
0310
1000
0100
1000
0010
0200
0301
0010
0001
,
2000
3100
1000
0010
0100
0001
0010
0100
1000
0001
0100
0100
0010
0001
0100
0100
,
2000
3010
1000
0100
0010
0001
2000
3100
1000
0010
1000
0100
0020
0031
0100
0001
,
2000
3010
1000
0001
0100
0001
0020
0130
1000
0010
1000
0100
0020
0031
1000
0010
,
2000
3100
0010
0001
0100
0001
0020
0130
1000
0010
1000
0100
0020
0031
0100
0001
,
2000
3010
1000
0100
0010
0001
0100
0100
0010
0001
0100
0100
1000
0010
0100
0100
,
2000
3200
0320
0230
0302
0203
0320
0230
,
2300
3020
0230
0320
0032
0023
0230
0320
,
2030
3200
0320
0230
0302
0203
0320
0230
,
2300
0000
3020
0000
0230
0000
0302
0000
1003
0000
0100
0100
0010
1000
0100
0100
,
0002
0203
0320
0230
2300
3200
0320
0230
,
0302
0023
0230
0320
2030
3020
0230
0320
,
0032
0203
0320
0230
2300
3200
0320
0230
,
0302
0000
2003
0000
3001
0000
0010
0010
0100
0001
0010
0010
1000
0001
0100
0100
,
2000
0000
0000
0020
0000
3000
0200
0030
,
0002
0000
0300
0020
0000
0003
2000
0030
,
0020
0000
0000
0000
3000
0000
0002
0000
0000
0000
0030
0000
1003
0000
0001
0100
,
0002
0000
0000
0020
0000
0003
0000
0030
,
1002
0000
0000
0020
0000
0003
0200
0030
,
2000
0000
0300
0020
0000
3000
0002
0030
,
0020
0000
0003
2000
0000
0030
0002
3000
,
2000
0000
0003
0020
0000
3000
0000
0030
,
2010
0000
0000
0000
3002
0000
0203
0000
0302
0000
0203
0000
0310
0100
0010
0000
,
0102
0000
2003
3020
2030
3200
0320
0030
,
0012
0000
0000
0000
2003
0000
3200
0000
2300
0000
3200
0000
0310
0100
0010
0000
,
2100
0000
3002
0023
0032
0203
2300
3200
,
0302
4000
0003
3010
0200
0004
0300
1003
,
0400
0000
0000
0000
0310
0001
0010
0000
0200
0000
2300
0000
0002
0000
3003
0000
,
0201
0000
0000
0000
0320
0000
2030
0000
3002
0000
0203
0000
0301
1000
0001
0000
,
1200
0000
0000
0000
0320
0000
0032
0000
1003
0100
0010
0001
0100
0001
0010
0100
,
2000
0000
0000
0000
3001
0000
1000
0010
0000
0000
1000
0010
0000
0000
1000
0010
,
2000
0000
3001
0010
0000
0000
0001
0010
0200
0000
2300
0000
3002
0000
0003
0000
,
2000
0000
0001
0000
3000
0000
1000
0100
0000
0000
1000
0100
0000
0000
1000
0100
,
2000
0000
3001
0100
0000
0000
0001
0100
0002
0000
0203
0000
2300
0000
3200
0000
,
0301
0000
1000
0100
1000
0100
2000
0000
3020
0000
0130
0001
0100
0001
0200
0000
,
0340
0000
2030
3200
0320
0032
2000
3003
,
0002
0000
0103
0001
0000
0000
0100
0001
0000
0000
0100
0001
0000
0000
0100
0001
,
2000
0000
3100
1000
0000
0000
0100
1000
0001
0100
0010
1000
0100
1000
0010
0100
,
0004
0003
0040
0030
0004
0003
0040
0030
0100
1000
0004
0000
0000
0000
2003
0000
,
3040
0030
4000
3000
0040
0030
4000
3000
0001
0100
0010
0000
0010
0100
0001
1000
,
0004
0003
0400
0300
0004
0003
0400
0300
0010
1000
0004
0000
0000
0000
2003
0000
,
3400
0300
4000
3000
0400
0300
4000
3000
0001
0010
0100
1000
0010
1000
0100
0010
,
0004
0003
0400
0300
0004
0003
0400
0300
0010
1000
0004
0000
0000
0000
2003
0000
,
3400
0300
4000
3000
0400
0300
4000
3000
0001
0010
0100
0000
0100
0010
0001
1000
,
0004
0003
0040
0030
0004
0003
0040
0030
0100
1000
0004
0000
0000
0000
2003
0000
,
3040
0030
4000
3000
0040
0030
4000
3000
0001
0100
0010
1000
0100
1000
0010
0100
,
0002
0000
0000
0000
,
0000
0000
0000
0000
,
0003
0000
0000
0000
;

//---------------dance-single - C.Sanabria----------------
#NOTES:
     dance-single:
     C.Sanabria:
     Beginner:
     2:
     0.152,0.215,0.049,0.000,0.000:
0000
0000
0000
0000
,
0000
0000
0000
0000
,
0000
0000
0000
0000
,
0000
0000
0000
0000
,
0001
0000
1000
0000
,
0001
0000
1000
0000
,
0001
0000
1000
0000
,
0001
0000
1000
0000
,
0010
0000
0100
0000
,
0010
0000
0100
0000
,
0010
0000
0100
0000
,
0010
0000
0100
0000
,
0001
0000
1000
0000
,
0001
0000
1000
0000
,
0001
0000
1000
0000
,
0001
0000
1000
0000
,
0100
0000
0100
0000
,
0010
0000
0010
0000
,
0100
0000
0100
0000
,
0010
0000
0010
0000
,
0001
0000
0001
0000
,
1000
0000
1000
0000
,
0001
0000
0001
0000
,
1000
0000
1000
0000
,
0001
0000
0000
0000
,
0000
0000
0000
0000
,
1000
0000
0000
0000
,
0000
0000
0000
0000
,
0010
0000
0000
0000
,
0100
0000
0000
0000
,
0010
0000
0000
0000
,
0100
0000
0000
0000
,
0001
0000
0000
0000
,
1000
0000
0000
0000
,
0001
0000
0000
0000
,
1000
0000
0000
0000
,
0100
0000
0000
0000
,
0010
0000
0000
0000
,
0100
0000
0000
0000
,
0010
0000
0000
0000
,
0001
0000
0100
0000
,
0010
0000
1000
0000
,
0100
0000
1000
0000
,
0010
0000
0100
0000
,
0001
0000
0100
0000
,
0010
0000
1000
0000
,
0100
0000
1000
0000
,
0010
0000
0100
0000
,
0001
0000
0001
0000
,
0001
0000
0001
0000
,
1000
0000
1000
0000
,
1000
0000
1000
0000
,
0100
0000
0010
0000
,
0100
0000
0010
0000
,
0001
0000
1001
0000
,
1000
0000
1001
0000
,
0010
0000
0000
0000
,
1000
1000
1000
0000
,
0001
0001
0001
0000
,
1000
1000
1000
0000
,
1001
0000
0110
0000
,
0010
0010
0010
0000
,
0100
0100
0100
0000
,
0001
0001
0001
0000
,
1000
1000
1000
0000
,
0001
0000
1001
0000
,
1000
0000
1001
0000
,
0010
0010
0010
0000
,
0010
0010
0010
0000
,
0001
0000
1001
0000
,
1000
0000
1001
0000
,
0100
0100
0100
0000
,
0100
0100
0100
0000
,
0001
0000
0010
0000
,
0001
0000
0010
0000
,
0100
0000
1000
0000
,
0100
0000
1000
0000
,
0010
0000
0100
0000
,
0010
0000
0100
0000
,
0001
0000
1000
0000
,
0001
0000
1000
0000
,
0100
0000
0000
0000
,
0010
0000
0000
0000
,
0001
0000
0000
0000
,
0001
0000
0000
0000
,
0100
0000
0000
0000
,
0010
0000
0000
0000
,
1000
0000
0000
0000
,
1000
0000
0000
0000
,
0001
0000
0000
0000
,
0001
0000
0000
0000
,
1000
0000
0000
0000
,
1000
0000
0000
0000
,
0010
0000
0000
0000
,
0010
0000
0000
0000
,
0100
0000
0000
0000
,
0100
0000
0000
0000
,
0001
0000
0001
0000
,
1000
0000
1000
0000
,
0001
0000
0001
0000
,
1000
0000
1000
0000
,
0010
0000
0010
0000
,
0100
0000
0100
0000
,
0010
0000
0010
0000
,
0100
0000
0100
0000
,
0001
0000
0000
0000
,
0001
0000
0000
0000
,
1000
0000
0000
0000
,
1000
0000
0000
0000
,
0010
0000
0000
0000
,
0010
0000
0000
0000
,
0100
0000
0000
0000
,
0100
0000
0000
0000
,
1001
0000
0000
0000
;

//---------------dance-single - C.Sanabria----------------
#NOTES:
     dance-single:
     C.Sanabria:
     Hard:
     9:
     0.961,1.000,0.152,1.000,0.228:
0000
0000
0000
0000
,
0000
0000
0000
0000
,
0000
0000
0000
0000
,
0000
0000
0000
0000
,
1000
0100
0010
0001
0100
0001
0010
0100
,
1000
0100
0010
0001
0100
0001
0010
0100
,
1000
0100
0010
0001
0100
0001
0010
0100
,
1000
0100
0001
0100
0020
0032
0203
0320
,
1030
0100
0010
0001
0100
0001
0010
0100
,
1000
0010
0100
0001
0010
0001
0100
0010
,
1000
0100
0010
0001
0100
0001
0010
0100
,
1000
0000
0010
0000
0100
0000
0001
0000
0010
0000
0001
1000
0001
1000
0001
1000
,
0001
0100
0010
1000
0100
1000
0010
0100
,
0001
0100
0010
1000
0100
1000
0010
0100
,
0001
0100
0010
1000
0100
1000
0010
0100
,
0001
0000
0100
0000
1000
0000
0100
0010
1000
0001
1000
0001
1000
0001
1000
0001
,
1000
0010
0100
0001
0010
0001
0100
0010
,
1000
0100
0010
0001
0100
0001
0010
0100
,
1000
0010
0100
0001
0010
0001
0100
0010
,
1000
0000
0100
0000
0010
0000
0001
0000
0100
0000
0001
1000
0001
1000
0001
1000
,
0001
0010
0100
0010
1000
0010
0100
0010
,
0001
0100
0010
1000
0100
1000
0010
0100
,
0001
0100
0010
0100
1000
0100
0010
0100
,
0001
0000
0010
0000
0100
0000
1000
0010
0100
0001
1000
0001
0100
0010
1000
0001
,
2000
3000
2000
3000
2000
3000
2000
3000
,
2000
0000
3000
0000
0000
0000
0000
0000
2000
3000
0000
0000
0000
0000
0000
0000
2002
0000
0000
0000
3003
0000
0000
0000
0002
0000
0000
0000
0003
0000
0000
0000
,
2000
3000
2000
3000
2000
3000
2000
3000
,
2000
0000
3000
0000
0000
0000
0000
0000
2000
3000
0000
0000
0000
0000
0000
0000
2002
0000
0000
0000
3003
0000
0000
0000
0002
0000
0000
0000
0003
0000
0000
0000
,
2000
3000
1000
0200
0300
0200
0300
0200
,
0301
0000
0001
0020
0030
0020
0030
0020
,
1030
0100
0010
0001
0100
0001
0010
0100
,
0020
0030
0020
0030
0220
0330
0020
0030
,
1001
0000
1000
0100
1000
0000
0010
0000
0100
0000
0001
0000
0010
0000
0100
0000
,
1000
0000
0001
0010
0001
0000
0100
0000
0010
0000
1000
0000
0100
0000
0010
0000
,
0001
0000
1000
0100
1000
0000
0010
0000
0100
0000
0001
0000
0100
0000
0010
0000
,
1000
0000
0100
0010
0100
0000
1000
0000
0010
0000
0100
0000
0001
0000
0010
0000
,
0001
0000
1000
0100
1000
0000
0001
0000
0010
0000
0100
0000
1000
0001
1000
0001
,
1000
0000
0001
0100
0001
0000
0010
0000
0100
0000
1000
0000
0001
1000
0001
1000
,
0001
0000
1000
0010
1000
0000
0100
0000
0010
0000
0001
0000
1000
0100
1000
0100
,
1000
0000
0001
0010
0001
0000
0100
0000
0020
0000
1030
0000
0002
0000
0103
0000
,
0002
0023
0230
2300
3020
2030
3200
0320
,
0032
0023
0230
2300
3020
2030
3200
0320
,
0032
0203
0320
2030
3200
2300
3020
0230
,
0302
0203
0320
2030
3200
0302
0203
2300
,
3002
0203
0320
2030
3200
2300
3020
0230
,
0302
0203
0320
2030
3200
2300
3020
0230
,
0302
0023
0230
2300
3020
2030
3200
0320
,
0032
0023
0230
2300
3020
0032
0023
2030
,
3002
0003
0022
0033
,
2000
3000
2020
3030
,
0002
0003
0202
0303
2000
3000
2200
3300
,
0002
0003
0011
0001
2000
3000
2002
3003
,
2000
3000
2200
3300
0002
0003
0202
0303
,
2000
0000
3000
0000
1010
0000
1000
0000
0002
0000
0013
0100
1000
0001
1000
0000
,
0010
1000
1001
0001
0100
0001
1001
1000
,
0001
0010
0100
0000
1000
0000
0001
0000
1000
0010
0100
0000
0001
1000
0001
1000
,
0002
0000
0000
0003
,
2000
3020
0230
0302
0023
0032
0203
0320
,
2030
3020
0230
0302
0023
0032
0203
0320
,
2030
3200
0320
0032
0203
0302
0023
0230
,
2300
0000
3200
0000
0320
0000
0032
0000
0203
0000
0310
1000
0001
1000
0100
0010
,
0002
0203
0320
2030
3200
2300
3020
0230
,
0302
0203
0320
2030
3200
2300
3020
0230
,
0302
0023
0230
2300
3020
2030
3200
0320
,
0032
0000
0023
0000
0230
0000
1300
0010
0100
0001
1000
0001
0100
0010
1000
0001
,
2000
3020
0230
0302
0023
0032
0203
0320
,
2030
3020
0230
0302
0023
0032
0203
0320
,
2030
3200
0320
0032
0203
0302
0023
0230
,
2300
0000
3200
0000
0320
0000
0032
0000
0203
0000
0301
0100
0010
1000
0001
1000
,
0002
0203
0320
2030
3200
2300
3020
0230
,
0302
0203
0320
2030
3200
2300
3020
0230
,
0302
0023
0230
2300
3020
2030
3200
0320
,
0032
0000
0023
0000
0230
0000
1300
0010
0100
0001
0100
0001
0100
0010
1000
0001
,
2000
3200
0320
0230
0302
0203
0320
0230
,
2300
3200
0320
0230
0302
0203
0320
0230
,
2300
3020
0230
0320
0032
0023
0230
0320
,
2030
0000
3200
0000
0320
0000
0032
0000
0203
0000
0310
1000
0001
1000
0001
1000
,
0002
0203
0320
0230
2300
3200
0320
0230
,
0302
0203
0320
0230
2300
3200
0320
0230
,
0302
0023
0230
0320
2030
3020
0230
0320
,
0032
0000
0203
0000
0320
0000
1030
0100
0010
0001
1000
0001
0010
0100
1000
0001
,
2000
0000
0000
0020
0000
3000
2000
0030
,
0002
0000
3000
0200
0000
0003
0002
0300
,
0020
0000
0003
0200
0000
0030
0020
0300
,
0002
0000
0030
2000
0000
0000
3003
0000
,
1002
0000
0000
0020
0000
0003
0002
0030
,
2000
0000
0003
0200
0000
3000
2000
0300
,
0020
0000
3000
0200
0000
0030
0020
0300
,
2000
0000
0030
0002
0000
0000
3003
0000
,
2100
0000
3001
0010
0001
0010
0100
0100
,
2100
0000
3010
0100
0002
2003
3002
0003
,
0102
0000
1003
0010
1000
0010
0100
0100
,
0102
0000
0013
0100
2000
3200
0320
0032
,
1003
0000
0001
0100
0001
0100
0001
0000
1000
0000
0001
0100
0001
0100
0001
0000
,
1000
1000
0100
0010
0002
0203
0320
0030
,
1200
0000
0310
0001
0010
0001
1000
1000
,
1200
0000
1300
0001
1000
0100
0010
0001
,
1001
1000
0000
0100
0000
0010
0000
0001
,
1001
1000
0000
0010
0200
0302
2003
3000
,
1001
0001
0000
0100
0000
0010
0000
1000
,
1001
0001
0000
0010
0200
2300
3002
0203
,
0301
0000
1000
0100
1000
0100
1000
0000
0001
0000
1000
0100
1000
0100
1000
0000
,
0001
0001
0100
0010
2000
3200
0320
0030
,
0011
0001
0000
0100
0000
0010
0000
1000
,
1001
0001
0000
1000
0100
0010
0001
0100
,
0002
0000
0023
0000
0230
0000
2300
0000
3001
1000
0001
0000
1000
0000
0001
0000
,
2000
0000
3020
0000
0230
0000
0302
0000
1003
0001
1000
0000
0001
0010
0100
1000
,
0002
0000
0203
0000
0320
0000
2030
0000
3100
1000
0100
0000
0010
0000
0001
0000
,
2000
0000
3020
0000
0230
0000
0302
0000
1003
0100
1000
0100
1000
0000
0001
0000
,
2000
0000
3020
0000
0230
0000
0302
0000
1003
0001
1000
0000
0001
0000
1000
0000
,
0002
0000
0023
0000
0230
0000
2300
0000
3001
1000
0001
0000
1000
0010
0100
0001
,
2000
0000
3200
0000
0320
0000
0032
0000
0103
0001
0100
0000
0010
0000
1000
0000
,
0002
0000
0023
0000
0230
0000
2300
0000
3001
0100
0010
1000
0001
0100
0010
1000
,
0002
0000
0000
0000
,
0000
0000
0000
0000
,
0003
0000
0000
0000
;
