#TITLE:La La La;
#SUBTITLE:(Hot Girl);
#ARTIST:Da Zoo;
#TITLETRANSLIT:;
#SUBTITLETRANSLIT:;
#ARTISTTRANSLIT:;
#GENRE:;
#CREDIT:;
#BANNER:La La La (Hot Girl)-bn.png;
#BACKGROUND:La La La (Hot Girl)-bg.png;
#LYRICSPATH:;
#CDTITLE:;
#MUSIC:La La La (Hot Girl).ogg;
#OFFSET:-0.160;
#SAMPLESTART:22.834;
#SAMPLELENGTH:12.000;
#SELECTABLE:YES;
#DISPLAYBPM:63.000:127.000;
#BPMS:0.000=127.000,103.500=254.000,104.000=127.000,124.000=254.000,128.000=63.500,160.000=127.000,166.000=63.500,167.000=127.000,254.500=127.000,255.000=127.000;
#STOPS:103.500=0.120
,124.000=0.120
,124.500=0.120
,125.000=0.120
,125.500=0.120
,126.000=0.060
,126.250=0.060
,126.500=0.060
,126.750=0.060
,127.000=0.060
,127.250=0.060
,127.500=0.060
,127.750=0.060
;
#BGCHANGES:;
#KEYSOUNDS:;

//---------------dance-single - Blank----------------
#NOTES:
     dance-single:
     Blank:
     Challenge:
     9:
     0.604,0.815,0.319,0.437,0.505:
0000
0000
0000
0000
,
0000
0000
0000
0000
,
0000
0000
0000
0000
,
0000
0000
0000
0000
,
220M
3300
M022
0033
2000
3M00
0010
0100
,
0001
00M0
0001
M000
0001
0000
1000
0000
0001
0000
0000
0000
0010
0000
0100
0000
,
1000
0000
0010
0000
0100
0000
0001
0000
0100
0000
0010
0000
1000
0000
0000
0000
0000
0000
0001
0000
0000
0010
0000
0000
,
0100
1000
0100
1000
0000
0000
0001
0100
0001
0100
0000
0000
0001
0000
0010
0000
0100
0000
1000
0000
0000
0001
0000
0000
,
M202
0303
202M
3030
0002
0M03
0010
0100
,
1000
00M0
1000
000M
1000
0000
0001
0000
1000
0000
0000
0000
0010
0000
0100
0000
,
0001
0000
0010
0000
0100
0000
1000
0000
0100
0000
0010
0000
0001
0000
0000
0000
0000
0000
1000
0000
0000
0010
0000
0000
,
0100
0001
0100
0001
0000
0000
1000
0100
1000
0100
0000
0000
0010
0000
0001
0000
1000
0000
0100
0000
0000
0010
0000
0000
,
0001
0011
0010
0001
1000
1010
0010
1000
,
0001
0010
0100
1000
0020
0000
0230
00M0
,
0310
1000
0001
0010
0011
0010
0001
1000
,
1010
0010
0100
0002
1000
1000
1003
0MM0
,
0011
0110
1000
0100
0010
0011
0001
0100
,
0010
1010
1000
0001
0020
0000
0230
00M0
,
1300
0010
0100
0001
1001
1000
0100
0010
,
0011
0001
0100
0020
0100
0100
0130
M00M
,
0001
0010
0100
1000
0010
0100
0001
0020
,
0000
1000
M000
0032
0100
0100
0103
M0M0
,
1000
0010
0100
0001
0010
0100
1000
0020
,
0000
0001
000M
2030
0100
0100
3100
00MM
,
0000
0000
0001
0000
0100
0000
1000
0000
0100
0000
0001
0000
2000
00M0
3000
0000
,
0000
0000
1000
0000
0100
0000
0001
0000
0100
0000
1000
0000
0002
0M00
0003
0000
,
0001
0010
0100
1000
0010
0100
0001
2000
,
0100
000M
0100
0000
0001
00M0
0001
0000
3010
0000
0000
0100
0000
0000
0001
0000
,
1000
0000
0000
0000
0000
0000
1001
0000
0000
0000
0000
M000
0000
0000
0000
0000
0010
0000
0000
0000
0000
0000
0100
0000
0000
0000
0000
0000
1000
0000
0000
0000
,
0001
0000
0000
0000
0000
0000
1001
0000
0000
0000
0000
000M
0000
0000
0000
0000
0010
0000
0000
0000
0000
0000
0100
0000
0000
0000
0000
0000
0001
0000
0000
0000
,
1000
0100
1200
M000
0310
0001
0021
000M
,
0130
0000
1000
0000
0001
0000
0010
0000
0100
1000
0001
1000
0010
0100
0001
1000
,
0001
0010
0100
1000
1001
1000
0100
0010
1001
1000
0010
0100
0002
00M3
2000
3M00
,
0001
0100
0010
1000
1010
0100
0010
0001
0011
0001
0100
0010
2000
3M00
0002
00M3
,
1001
0000
0000
0000
1000
0000
0100
0000
0010
0000
0000
0000
0010
0000
0100
0000
1000
0000
0000
0000
0001
0000
0100
0000
0010
0000
0000
1000
0000
0000
0010
0000
,
0100
0000
0000
0000
0001
0000
0010
0000
0100
0000
0000
0000
0100
0000
0010
0000
0001
0000
0000
0000
1000
0000
0100
0000
0010
0000
0000
0001
0000
0000
0010
0000
,
0100
0000
0000
0000
1001
0000
0000
0000
0010
0000
0000
1010
0000
0000
1000
0000
0001
0000
0000
0000
1001
0000
0000
0000
0010
0000
0000
0011
0000
0000
0001
0000
,
1000
0000
0000
0000
1100
0000
0000
0000
0100
0000
0000
0011
0000
0000
0001
0000
1000
0000
0000
0000
1001
0000
0000
0000
0010
0000
0000
1010
0000
0000
1000
0000
,
0001
0000
1000
0100
0010
0100
1000
0001
0020
0000
0000
0130
2000
0000
0000
3010
,
1000
0000
0001
0100
0010
0100
0001
1000
0020
0000
0000
0130
0002
0000
0000
0013
,
0002
0003
0020
0030
0200
0300
1000
0001
,
1000
0000
0001
0000
1000
0000
0001
0000
1000
0000
0001
0000
2000
0000
0000
3000
0000
0000
M202
0000
0000
0303
0000
0000
,
202M
0000
3030
0000
0002
0000
0M03
0000
0010
0000
0100
0000
1000
00M0
1000
000M
,
1000
0000
0000
0001
0000
0000
1000
0000
0000
0000
0000
0000
0010
0000
0000
0100
0000
0000
0001
0000
0010
0000
0100
0000
,
1000
0000
0100
0000
0010
0000
0001
0000
0000
0000
0000
0000
1000
0000
0000
0010
0000
0000
0100
0001
1000
0100
0000
0000
,
0100
1000
0001
0100
0000
0000
0001
0000
0010
0000
0100
0000
1000
0000
0000
0001
0000
0000
M202
0000
0000
0303
0000
0000
,
202M
0000
3030
0000
0002
0000
0M03
0000
0010
0000
0100
0000
1000
00M0
1000
000M
,
1000
0000
0000
0001
0000
0000
1000
0000
0000
0000
0000
0000
0010
0000
0000
0100
0000
0000
0001
0000
0010
0000
0100
0000
,
1000
0000
0100
0000
0010
0000
0001
0000
0000
0000
0000
0000
1000
0000
0000
0001
0000
0000
0010
0001
0100
0001
0000
0000
,
1000
0010
1000
0100
0000
0000
0010
0000
0001
0000
1000
0000
0200
0000
0000
0310
0000
0000
M00M
0000
0000
0000
0000
0000
;

//---------------dance-double - C.Sanabria----------------
#NOTES:
     dance-double:
     C.Sanabria:
     Challenge:
     10:
     1.000,1.000,1.000,1.000,0.519:
00000000
00000000
00000000
00000000
,
00000000
00000000
00000000
00000000
,
00000000
00000000
00000000
00000000
,
00000000
00000000
00000000
00000000
,
00022000
00000000
00000000
00000000
M020020M
00300300
00000000
00000000
2M0000M2
30033003
00000000
01000010
00100100
00000000
10000001
00000000
,
01000010
00M00M00
01000010
00000000
M010010M
00000000
00011000
00000000
20000002
00000000
30000003
00011000
00100100
00000000
01000010
00000000
,
10000001
00000000
00000000
00000000
00100100
00000000
00000000
00000000
01000010
00000000
00000000
00000000
00011000
00000000
00000000
00000000
01000010
00000000
00000000
00000000
00100100
00000000
00000000
00000000
20000002
00000000
00000000
00000000
00000000
00000000
30000003
00000000
00000000
00011000
00000000
00000000
00100100
00000000
00000000
00000000
00000000
00000000
01000010
00000000
00000000
00000000
00000000
00000000
,
10000001
00011000
10000001
00011000
00000000
00000000
00100100
00011000
00100100
00011000
00000000
00000000
10000001
00000000
01000010
00000000
00100100
00000000
00011000
00000000
00000000
10000001
00000000
00000000
,
00022000
00000000
00000000
00000000
M200002M
03000030
00000000
00000000
2M0000M2
30033003
00000000
00100100
01000010
00000000
10000001
00000000
,
00100100
0M0000M0
00100100
00000000
M100001M
00000000
00011000
00000000
20000002
00000000
30000003
00011000
01000010
00000000
00100100
00000000
,
10000001
00000000
00000000
00000000
01000010
00000000
00000000
00000000
00100100
00000000
00000000
00000000
00011000
00000000
00000000
00000000
00100100
00000000
00000000
00000000
01000010
00000000
00000000
00000000
20000002
00000000
00000000
00000000
00000000
00000000
30000003
00000000
00000000
00011000
00000000
00000000
01000010
00000000
00000000
00000000
00000000
00000000
00100100
00000000
00000000
00000000
00000000
00000000
,
10000001
00011000
10000001
00011000
00000000
00000000
01000010
00011000
01000010
00011000
00000000
00000000
10000001
00000000
00100100
00000000
01000010
00000000
00011000
00000000
00000000
10000001
00000000
00000000
,
02000040
03000030
00000000
00000000
00200400
00300300
00000000
00000000
02000040
03000030
00000000
00000000
20000004
30000003
00000000
00000000
02000040
03000030
00000000
00000000
00200400
00300300
00000000
00000000
02000040
03000030
00000000
00000000
00024000
00033000
00000000
00000000
,
02000040
03000030
00000000
00000000
00042000
00033000
00000000
00000000
02000040
03000030
00000000
00000000
00200400
00300300
00000000
00000000
00022000
00000000
00000000
00000000
0M0000M0
00000000
00000000
00000000
20033002
00000000
00000000
00000000
00M00M00
00000000
00000000
00000000
,
30200403
00300300
00000000
00000000
20000004
30000003
00000000
00000000
00200400
00300300
00000000
00000000
02000040
03000030
00000000
00000000
00200400
00300300
00000000
00000000
00024000
00033000
00000000
00000000
00200400
00300300
00000000
00000000
00042000
00033000
00000000
00000000
,
00200400
00300300
00000000
00000000
00024000
00033000
00000000
00000000
00200400
00300300
00000000
00000000
02000020
00000000
00000000
00000000
00011000
00000000
00000000
00000000
00011000
00000000
00000000
00000000
03011030
00000000
00000000
00000000
M0M00M0M
00000000
00000000
00000000
,
20000004
30000003
00000000
00000000
02000040
03000030
00000000
00000000
20000004
30000003
00000000
00000000
00024000
00033000
00000000
00000000
00200400
00300300
00000000
00000000
04000020
03000030
00000000
00000000
00200400
00300300
00000000
00000000
04000020
03000030
00000000
00000000
,
00200400
00300300
00000000
00000000
00024000
00033000
00000000
00000000
20000004
30000003
00000000
00000000
00200040
00300030
00000000
00000000
20000002
00000000
00000000
00000000
0M0000M0
00000000
00000000
00000000
30022003
00000000
00000000
00000000
00M00M00
00000000
00000000
00000000
,
20033004
30000003
00000000
00000000
02000040
03000030
00000000
00000000
20000004
30000003
00000000
00000000
00024000
00033000
00000000
00000000
02000040
03000030
00000000
00000000
00400200
00300300
00000000
00000000
02000040
03000030
00000000
00000000
00400200
00300300
00000000
00000000
,
02000040
03000030
00000000
00000000
00024000
00033000
00000000
00000000
20000004
30000003
00000000
00000000
00022000
00000000
00000000
00000000
00100100
00000000
00000000
00000000
00100100
00000000
00000000
00000000
00133100
00000000
00000000
00000000
0M0000M0
00000000
00000000
00000000
,
20000040
30000030
00000000
00000000
02000004
03000003
00000000
00000000
00020040
00030030
00000000
00000000
00002004
00003003
00000000
00000000
00024000
00033000
00000000
00000000
00000204
00000303
00000000
00000000
00020400
00030300
00000000
00000000
00002004
00003003
00000000
00000000
,
00000000
00000000
00000000
00000000
00200101
00300000
00000000
00000000
00000000
00000000
00000000
00000000
00022001
00000000
00000000
00000000
10000100
00000000
00000000
00000000
10000100
00000000
00000000
00000000
10033100
00000000
00000000
00000000
00M000M0
00000000
00000000
00000000
,
02000004
03000003
00000000
00000000
20000400
30000300
00000000
00000000
02004000
03003000
00000000
00000000
20040000
30030000
00000000
00000000
00024000
00033000
00000000
00000000
04200000
03300000
00000000
00000000
00024000
00033000
00000000
00000000
20040000
30030000
00000000
00000000
,
00000000
00000000
00000000
00000000
10100400
00000300
00000000
00000000
00000000
00000000
00000000
00000000
10022000
00000000
00000000
00000000
00100001
00000000
00000000
00000000
00100001
00000000
00000000
00000000
00133001
00000000
00000000
00000000
0M000M00
00000000
00000000
00000000
,
00000002
10000000
01000023
00010000
00001230
00010000
01002300
10000000
,
20003000
00000001
30200100
00001000
02310000
00001000
03020100
00000001
,
10030001
00100100
10000001
00100100
10000001
00011000
10000001
00011000
,
00100100
00000000
00100100
00000000
00011000
00000000
00011000
00000000
10000001
00000000
00010000
10000010
00000000
00000000
01000001
00000000
,
00101000
00000000
00000100
00010010
00000000
00000000
10000001
00000000
00011000
00000000
00100000
01000010
00000000
00000000
10000100
00000000
,
00010001
00000000
00001000
01000100
00000000
00000000
00100010
00000000
10000001
00000000
00010000
01000010
00000000
00000000
00000000
00000000
,
00100100
10000001
01000010
00000000
00100100
00011000
01000010
00000000
,
00011000
00000000
00100100
00000000
01000010
00000000
10000001
00000000
00011000
00100100
01000010
10000001
00011000
10000001
01000010
00100100
,
00011000
10000000
01000000
10000000
00010000
01000000
00001000
00010000
00000100
00001000
00000001
00000100
00000002
00000000
00002003
00000000
,
00003000
00000001
00000100
00000001
00001000
00000100
00010000
00001000
01000000
00010000
10000000
01000000
20000000
00000000
30020000
00000000
,
10030000
00000000
00100000
10000000
00010000
01000000
00001000
00010000
00000020
00000000
00000000
00000130
00000002
00000000
00000000
00001003
,
00000100
00000000
00000100
00010000
00001000
00100000
00010000
10000000
02000000
00000000
00000000
03100000
02000000
00000000
00000000
13000000
,
01000000
00000001
00000100
00000001
00001000
00000100
00010000
00001000
01000000
00010000
10000000
01000000
20000000
00000000
30020000
00000000
,
00030000
10000000
01000000
10000000
00010000
01000000
00001000
00010000
00000100
00001000
00000001
00000100
00000002
00000000
00002003
00000000
,
00003001
00000000
00000010
00010000
00001000
00100000
00010000
10000000
02000000
00000000
00000000
03100000
02000000
00000000
00000000
13000000
,
01000000
00000000
01000000
10000000
00010000
01000000
00001000
00010000
00000020
00000000
00000000
00000130
00000002
00000000
00000000
00001003
,
00200200
00000000
00300300
00000000
00022000
00000000
00033000
00000000
20000002
00000000
30000003
00100100
00000000
00000000
10000001
00000000
,
00011000
00000000
00100100
00000000
01000010
00000000
10000001
00000000
01000010
00000000
00100100
00000000
00022000
00000000
00000000
00033000
00000000
00000000
00022000
00000000
00000000
00000000
00000000
00000000
,
M020020M
00300300
00000000
00000000
2M0000M2
30033003
00000000
01000010
00100100
00000000
10000001
00000000
01000010
00M00M00
01000010
00000000
,
M010010M
00000000
00000000
00000000
00000000
00000000
00011000
00000000
00000000
00000000
00000000
00000000
20000002
00000000
00000000
00000000
00000000
00000000
30000003
00000000
00000000
00011000
00000000
00000000
00100100
00000000
00000000
00000000
00000000
00000000
01000010
00000000
00000000
00000000
00000000
00000000
10000001
00000000
00000000
00000000
00100100
00000000
00000000
00000000
01000010
00000000
00000000
00000000
,
00011000
00000000
00000000
00000000
01000010
00000000
00000000
00000000
00100100
00000000
00000000
00000000
20000002
00000000
00000000
00000000
00000000
00000000
30000003
00000000
00000000
00011000
00000000
00000000
00100100
00000000
00000000
00000000
00000000
00000000
01000010
00000000
00000000
00000000
00000000
00000000
10000001
00000000
01000010
00000000
10000001
00000000
00011000
00000000
00000000
00000000
00000000
00000000
,
10000001
00011000
00100100
00011000
00000000
00000000
10000001
00000000
01000010
00000000
00100100
00000000
00011000
00000000
00000000
10000001
00000000
00000000
00022000
00000000
00000000
00000000
00000000
00000000
,
M200002M
03000030
00000000
00000000
2M0000M2
30033003
00000000
00100100
01000010
00000000
10000001
00000000
00100100
0M0000M0
00100100
00000000
,
M100001M
00000000
00000000
00000000
00000000
00000000
00011000
00000000
00000000
00000000
00000000
00000000
20000002
00000000
00000000
00000000
00000000
00000000
30000003
00000000
00000000
00011000
00000000
00000000
01000010
00000000
00000000
00000000
00000000
00000000
00100100
00000000
00000000
00000000
00000000
00000000
10000001
00000000
00000000
00000000
01000010
00000000
00000000
00000000
00100100
00000000
00000000
00000000
,
00011000
00000000
00000000
00000000
00100100
00000000
00000000
00000000
01000010
00000000
00000000
00000000
20000002
00000000
00000000
00000000
00000000
00000000
30000003
00000000
00000000
00011000
00000000
00000000
01000010
00000000
00000000
00000000
00000000
00000000
00100100
00000000
00000000
00000000
00000000
00000000
10000001
00000000
01000010
00000000
00100100
00000000
00011000
00000000
00000000
00000000
00000000
00000000
,
00100100
01000010
10000001
00011000
00000000
00000000
10000001
00000000
00100100
00000000
01000010
00000000
00011000
00000000
00000000
20000002
00000000
00000000
30M11M03
00000000
00000000
00000000
00000000
00000000
;

//---------------dance-single - C.Sanabria----------------
#NOTES:
     dance-single:
     C.Sanabria:
     Beginner:
     1:
     0.082,0.091,0.009,0.000,0.000:
0000
0000
0000
0000
,
0000
0000
0000
0000
,
0000
0000
0000
0000
,
0000
0000
0000
0000
,
1000
0000
0000
0000
,
1000
0000
0000
0000
,
0001
0000
0000
0000
,
0001
0000
0000
0000
,
1000
0000
0000
0000
,
1000
0000
0000
0000
,
0001
0000
0000
0000
,
0001
0000
0000
0000
,
0010
0000
0010
0000
,
0010
0000
0000
0000
,
0100
0000
0100
0000
,
0100
0000
0000
0000
,
0010
0000
0010
0000
,
0010
0000
0000
0000
,
0100
0000
0100
0000
,
0100
0000
0000
0000
,
1000
0000
1000
0000
,
0000
0000
0000
0000
,
0001
0000
0001
0000
,
0000
0000
0000
0000
,
1000
0000
1000
0000
,
0001
0000
0001
0000
,
1000
0000
1000
0000
,
1000
0000
0000
0000
,
0001
0000
0000
0000
,
0010
0000
0000
0000
,
0100
0000
0000
0000
,
1000
0000
0000
0000
,
0001
0000
0001
0000
,
1000
0000
1000
0000
,
0010
0000
0010
0000
,
0100
0000
0100
0000
,
0001
0000
0001
0000
,
1000
0000
1000
0000
,
0100
0000
0100
0000
,
0010
0000
0010
0000
,
0001
0000
0000
0000
,
1000
0000
0000
0001
,
0000
0000
0000
0001
,
0000
0000
0000
1000
,
0000
0000
0000
1000
,
0000
0000
0000
0010
,
0000
0000
0000
0010
,
0000
0000
0000
0100
,
0000
0000
0000
0100
,
0000
0000
0000
1001
;

//---------------dance-single - C.Sanabria----------------
#NOTES:
     dance-single:
     C.Sanabria:
     Hard:
     8:
     0.476,0.565,0.091,0.592,0.146:
0000
0000
0000
0000
,
0000
0000
0000
0000
,
0000
0000
0000
0000
,
0000
0000
0000
0000
,
0020
0000
2030
0000
3002
0000
1003
0100
,
4000
0000
3004
0000
0203
0000
0310
1000
,
0001
0000
0010
0000
0001
0000
0010
0000
0001
0000
0010
0000
0002
0000
0000
0000
0000
0000
1003
0000
0000
0100
0000
0000
,
2200
0000
0000
3300
0000
0000
0022
0000
0000
0033
0000
0000
1000
0000
0010
0000
1000
0000
0010
0000
0000
0100
0000
0000
,
0002
0000
2003
0000
3200
0000
0310
0001
,
4000
0000
3004
0000
0023
0000
0130
1000
,
0001
0000
0100
0000
0001
0000
0100
0000
0001
0000
0100
0000
0002
0000
0000
0000
0000
0000
1003
0000
0000
0010
0000
0000
,
0202
0000
0000
0303
0000
0000
2020
0000
0000
3030
0000
0000
0001
0000
0100
0000
0001
0000
0100
0000
0000
0010
0000
0000
,
00M0
0010
1000
0100
1000
0010
0100
0010
,
00M0
0010
1000
0100
0020
0000
0032
0000
,
1003
0100
0010
0010
0001
0100
0010
0010
,
1000
0100
0001
0100
1000
1000
2000
0000
,
3000
0001
0100
0010
1000
0100
1000
0010
,
00M0
0010
1000
0100
0020
0000
0032
0000
,
1003
0100
0010
0000
0001
0100
0010
0000
,
1000
0001
1000
0001
1000
1000
1000
0000
,
0002
0000
0203
0000
0320
0000
1030
0100
,
0M00
0100
0M00
0100
1000
1000
0001
0000
,
2000
0000
3200
0000
0320
0000
0031
0100
,
0M00
0100
0M00
0100
0001
0001
1000
0000
,
0010
1000
0100
0000
0010
0001
0100
0000
,
0010
1000
0010
1000
0001
0100
0001
0000
,
2000
3020
0230
0302
,
1003
0100
0010
0001
0100
0000
1001
0000
,
0001
0100
0001
0000
1000
0010
1000
0000
,
0001
0100
0001
0000
1000
0100
1000
0000
,
0000
0010
0100
0000
0000
0010
0100
0000
,
0001
0000
0100
0000
0010
0000
1000
0000
0001
1000
0001
1000
0001
1000
0001
1000
,
0001
0100
0010
1000
0001
0100
0002
2003
,
3001
0010
0100
1000
0001
0100
0002
2003
,
3100
0000
1000
0010
2000
0000
0010
0000
,
3001
0000
0001
0010
0002
0000
0010
0000
,
1003
0100
0010
0001
0100
1000
0200
0302
,
1003
0010
0100
0001
1000
0010
0002
0023
,
1030
0000
0001
0100
0020
0000
0001
0000
,
1030
0000
1000
0100
0020
0000
1000
0000
,
0031
0100
0010
1000
,
0001
1000
0001
1000
0001
1000
0001
0000
0000
0020
0000
0000
,
0032
0000
2003
0000
3001
0100
0004
0000
,
4003
0000
0000
0000
0000
0000
3200
0000
0000
0000
0000
0000
0310
0000
0000
0001
0000
0000
1000
0000
0010
0000
1000
0000
,
0010
0000
1000
0000
0010
0000
2000
0000
0000
0000
0000
0000
3001
0000
0000
0100
0000
0000
0202
0000
0000
0303
0000
0000
,
2020
0000
0000
3030
0000
0000
0001
0000
0010
0000
0001
0000
0010
0000
0000
0100
0000
0000
2000
0000
0000
0000
0000
0000
,
3002
0000
0203
0000
0310
1000
0004
0000
,
4003
0000
0000
0000
0000
0000
3020
0000
0000
0000
0000
0000
0130
0000
0000
0001
0000
0000
1000
0000
0100
0000
1000
0000
,
0100
0000
1000
0000
0100
0000
2000
0000
0000
0000
0000
0000
3001
0000
0000
0010
0000
0000
2200
0000
0000
3300
0000
0000
,
0022
0000
0000
0033
0000
0000
1000
0000
0100
0000
1000
0000
0100
0000
0000
0010
0000
0000
2002
0000
0000
0000
0000
0000
,
0000
0000
0000
0000
,
0000
0000
0000
3003
;
