#TITLE:Jingle Bells;
#SUBTITLE:[Hardcore Remix];
#ARTIST:cornandbeans;
#TITLETRANSLIT:;
#SUBTITLETRANSLIT:;
#ARTISTTRANSLIT:;
#GENRE:;
#CREDIT:;
#BANNER:jingle bells-bn.png;
#BACKGROUND:jingle bells-bg.png;
#LYRICSPATH:;
#CDTITLE:;
#MUSIC:Jingle Bells [Hardcore Remix].ogg;
#OFFSET:-0.065;
#SAMPLESTART:11.330;
#SAMPLELENGTH:12.000;
#SELECTABLE:YES;
#DISPLAYBPM:170.000;
#BPMS:0.000=170.000,195.000=340.000,196.000=170.000;
#STOPS:195.000=0.041
,195.250=0.041
,195.500=0.041
,195.750=0.041
;
#BGCHANGES:;
#KEYSOUNDS:;

//---------------dance-single - C.Sanabria----------------
#NOTES:
     dance-single:
     C.Sanabria:
     Challenge:
     11:
     1.000,1.000,0.118,0.380,1.000:
0000
0000
0000
0000
,
0000
0000
0000
0000
,
0000
0000
0000
0000
,
0000
0000
0000
0000
,
1000
0001
1000
0000
0001
1000
0001
0000
,
1000
0000
0100
0000
0010
0000
0000
0001
1000
0000
0000
0000
0000
0000
0000
0000
,
0001
0000
0010
0000
0001
0000
1000
0100
1000
0000
0010
0000
1000
0000
0001
0100
,
0001
0000
0010
0000
0100
0000
1000
0000
0001
1000
0001
1000
0001
0000
1001
0000
,
0001
0100
0010
0000
1000
0100
0010
0000
,
0001
0000
0100
0000
0010
0000
0000
1000
0100
0000
0000
0000
1100
0000
0000
0000
,
0001
0000
0100
0000
0010
0000
1000
0001
1000
0000
0100
0000
0010
0000
0001
0100
,
0010
1000
0001
0100
0020
0000
2030
0000
,
3001
0010
0100
0000
1000
0010
0100
0000
,
0001
0000
0010
0000
0100
0000
0000
1000
0010
0000
0000
0000
1010
0000
0000
0000
,
0001
0000
0100
0000
0001
0000
1000
0100
0010
0000
0100
0000
1000
0000
0001
0100
,
0010
1000
0100
0010
0002
0000
1003
0MM0
,
0001
0000
0010
0000
0001
0000
0100
0000
0010
0000
0M00
0000
M000
0000
1000
0100
,
1000
0000
0010
0000
0100
0000
0001
0000
0010
0000
0M00
0000
000M
0000
0001
0010
,
0001
0000
0100
0000
0010
0000
2000
0000
0001
0000
0001
0000
0001
0000
3001
0010
,
0100
1000
0010
0100
0001
0000
0101
0000
,
1000
0000
0010
0000
1000
0000
0100
0000
0010
0000
0M00
0000
000M
0000
0001
0100
,
0001
0000
0010
0000
0100
0000
1000
0000
0010
0000
0M00
0000
M000
0000
1000
0010
,
1000
0000
0100
0000
0010
0000
0002
0000
1000
0000
1000
0000
1000
0000
1003
0010
,
0100
0000
0001
0000
0010
0000
0100
0000
1000
0001
1000
0001
1000
0000
1001
0000
,
0001
0100
1000
0000
1000
0100
0001
0000
,
1000
0000
0100
0000
0001
0000
0000
0100
1000
0000
0000
0000
1100
0000
0000
0000
,
1000
0000
1000
0000
1000
0000
0010
0100
0001
0000
0001
0000
0001
0000
0010
0100
,
1000
0010
0100
0001
0020
0000
2030
0000
,
3010
0001
0100
0000
0010
1000
0100
0000
,
0010
0000
0001
0000
0100
0000
0000
0010
1000
0000
0000
0000
1100
0000
0000
0000
,
1000
0000
1000
0000
1000
0000
0010
0100
0001
0000
0001
0000
0001
0000
0010
0100
,
1000
0010
0001
0010
2000
0000
3000
0000
,
0001
0010
0002
0103
0001
0010
0002
0103
,
0010
1000
0200
1300
0010
1000
0200
1300
,
0010
0100
0002
0013
0100
1000
0020
0031
,
0010
1000
0200
0310
0001
0100
0200
0310
,
1000
0010
2000
3100
1000
0010
2000
3100
,
0010
0001
0200
0301
0010
0001
0200
0301
,
0010
0100
2000
3010
0100
0001
0020
1030
,
0010
0001
0200
0310
1000
0100
0200
0310
,
0001
0000
1000
0100
1000
0000
0010
0100
0010
0000
0001
0010
0001
0000
0010
0100
,
0010
0000
1000
0100
1000
0000
0001
0010
0001
0000
0100
0010
0100
0000
0001
0010
,
0001
0000
0010
0100
0010
0000
0100
1000
0100
0000
1000
0000
0010
0100
0001
0000
,
1000
0000
0001
0100
0001
0000
0010
0100
0010
0000
1000
0010
1000
0000
0010
0100
,
0010
0000
0001
0100
0001
0000
1000
0010
1000
0000
0001
0000
1000
0100
0010
0000
,
0001
0000
1000
0100
1000
0000
0001
0010
0001
0000
0100
0001
0100
0000
0010
1000
,
0010
0000
0100
1000
0100
0000
0010
1000
0010
0000
0100
0000
0001
1000
0001
0000
,
0010
0000
0100
1000
0001
0000
0100
0001
1000
0000
0010
1000
0001
0000
0010
0002
,
2000
0000
0000
0000
0000
0000
0000
0000
0000
0000
0000
0000
30M3
0M00
00M0
0M00
,
1000
0100
0010
0001
1000
0100
0010
0001
1000
0100
0010
0001
1000
0010
0100
0001
,
1000
0100
0010
0001
1000
0010
0100
0001
0010
0001
0010
0001
1000
0100
1000
0001
,
1000
0010
1000
0010
0100
0001
1000
0001
1000
0100
1000
0010
0100
0001
0010
0001
,
1000
0100
0010
0001
1000
0001
0010
0100
1000
0100
0010
0001
1000
0001
0010
0100
,
1000
0010
0100
0001
1000
0010
0100
0001
1000
0010
0100
0001
1000
0100
0010
0001
,
1000
0010
0100
0001
1000
0100
0010
0001
0100
0001
0100
0001
1000
0010
1000
0001
,
1000
0100
1000
0100
0010
0001
1000
0001
1000
0010
1000
0100
0010
0001
0100
0001
,
1000
0010
0100
0001
1000
0001
0100
0010
1000
0010
0100
0001
1000
0001
0100
0010
,
1000
0100
0010
0001
1000
0010
0100
0001
1000
0100
0010
0001
0100
0010
1000
0010
,
1000
0100
0010
0001
1000
0010
0100
0001
1000
0100
0010
0001
0100
0001
0010
0100
,
1000
0010
0100
0001
0010
0001
0010
0001
1000
0100
0010
0001
0100
0001
0100
0001
,
1000
0100
0010
0001
1000
0001
0100
0010
1000
0100
0010
0001
1000
0001
0100
0010
,
1000
0010
0100
0001
1000
0100
0010
0001
1000
0010
0100
0001
0010
0100
1000
0100
,
1000
0010
0100
0001
1000
0100
0010
0001
1000
0010
0100
0001
0010
0001
0100
0010
,
1000
0100
0010
0001
0100
0001
0100
0001
1000
0010
0100
0001
0010
0001
0010
0001
,
1000
0010
0100
0001
1000
0001
0010
0100
1000
0010
0100
0001
1000
0001
0010
0100
,
0000
0000
0000
0000
0000
0000
0000
0000
1000
0001
1000
0001
1000
0000
1001
0000
,
0001
0100
2000
3000
1000
0100
0002
0003
,
1000
0000
0100
0000
0002
0000
0003
0100
2000
0000
3000
0000
220M
0000
3300
0000
,
1001
0000
1000
0000
1000
0000
0010
0100
0001
0000
0001
0000
0001
0000
0010
0100
,
1000
0010
0100
0001
0020
0000
2030
0000
,
3010
0001
0200
0300
0010
1000
0200
0300
,
0010
0000
0001
0000
0200
0000
0300
0010
1000
0000
0000
0000
22M0
0000
3300
0000
,
1001
0000
1000
0000
1000
0000
0010
0100
0001
0000
0001
0000
0001
0000
0010
0100
,
1000
0010
0001
0010
2000
0000
3002
0000
,
1003
0100
0010
0001
1000
0100
0010
0001
1000
0100
0010
0001
1000
0010
0100
0001
,
1000
0100
0010
0001
1000
0010
0100
0001
0010
0001
0010
0001
1000
0100
1000
0001
,
1000
0010
1000
0010
0100
0001
1000
0001
1000
0100
1000
0010
0100
0001
0010
0001
,
1000
0100
0010
0001
1000
0001
0010
0100
1000
0100
0010
0001
1000
0001
0010
0100
,
1000
0000
0001
0100
0001
0000
0010
0100
0010
0000
1000
0000
0010
0100
0010
0000
,
0001
0000
1000
0100
1000
0000
0001
0010
0001
0000
0100
0010
0100
0000
0001
0010
,
0001
0000
0010
0100
0010
0000
0100
1000
0100
0000
1000
0000
0010
0100
0001
0000
,
1000
0000
0001
0100
0001
0000
0010
0100
0010
0000
1000
0010
1000
0000
0020
0200
,
0000
0000
0000
0000
0000
0000
0330
0110
,
2002
0000
0000
3003
;

//---------------dance-single - C.Sanabria----------------
#NOTES:
     dance-single:
     C.Sanabria:
     Beginner:
     1:
     0.130,0.139,0.000,0.000,0.000:
0000
0000
0000
0000
,
0000
0000
0000
0000
,
0000
0000
0000
0000
,
0000
0000
0000
0000
,
1000
0000
0000
0000
,
0001
0000
0000
0000
,
1000
0000
0000
0000
,
0001
0000
0000
0000
,
0010
0000
0000
0000
,
0010
0000
0000
0000
,
0100
0000
0000
0000
,
0100
0000
0000
0000
,
1000
0000
0000
0000
,
0001
0000
0000
0000
,
1000
0000
0000
0000
,
0010
0000
0000
0000
,
0100
0000
0000
0000
,
0100
0000
0000
0000
,
0010
0000
0000
0000
,
0010
0000
0000
0000
,
1000
0000
0000
0000
,
1000
0000
0000
0000
,
0001
0000
0000
0000
,
0001
0000
0000
0000
,
1000
0000
0000
0000
,
0100
0000
0000
0000
,
0010
0000
0000
0000
,
0001
0000
0000
0000
,
0001
0000
0000
0000
,
0100
0000
0000
0000
,
0010
0000
0000
0000
,
1000
0000
0000
0000
,
1000
0000
1000
0000
,
1000
0000
0000
0000
,
0001
0000
0001
0000
,
0001
0000
0000
0000
,
1000
0000
1000
0000
,
1000
0000
0000
0000
,
0001
0000
0001
0000
,
0001
0000
0000
0000
,
0010
0000
0000
0000
,
0010
0000
0000
0000
,
0100
0000
0000
0000
,
0100
0000
0000
0000
,
1000
0000
0000
0000
,
1000
0000
0000
0000
,
0001
0000
0000
0000
,
0001
0000
0000
0000
,
1000
0000
0000
0000
,
0001
0000
0001
0000
,
0001
0000
0001
0000
,
0001
0000
0001
0000
,
0001
0000
0001
0000
,
1000
0000
1000
0000
,
1000
0000
1000
0000
,
1000
0000
1000
0000
,
1000
0000
1000
0000
,
0001
0000
0001
0000
,
0001
0000
0001
0000
,
0001
0000
0001
0000
,
0001
0000
0001
0000
,
1000
0000
1000
0000
,
1000
0000
1000
0000
,
1000
0000
1000
0000
,
1000
0000
1000
0000
,
1000
0000
0000
0000
,
0010
0000
0010
0000
,
0010
0000
0000
0000
,
0100
0000
0100
0000
,
0100
0000
0000
0000
,
0001
0000
0001
0000
,
0001
0000
0000
0000
,
1000
0000
1000
0000
,
1000
0000
0000
0000
,
0100
0000
0100
0000
,
0100
0000
0000
0000
,
0010
0000
0010
0000
,
0010
0000
0000
0000
,
0001
0000
0001
0000
,
0001
0000
0000
0000
,
1000
0000
1000
0000
,
0010
0000
0100
0000
,
0001
0000
0000
0000
;

//---------------dance-single - C.Sanabria----------------
#NOTES:
     dance-single:
     C.Sanabria:
     Hard:
     8:
     0.729,0.702,0.042,0.321,0.161:
0000
0000
0000
0000
,
0000
0000
0000
0000
,
0000
0000
0000
0000
,
0000
0000
0000
0000
,
0000
0000
0000
0000
,
0000
0000
0000
0000
,
0000
0000
0000
0000
,
1100
0000
0000
0000
0101
0000
0000
0000
1000
0001
1000
0001
1000
0000
0010
0000
,
0100
0001
0100
0000
0010
1000
0010
0000
,
0100
0000
0001
0000
1000
0000
0000
0100
0020
0000
0000
0000
0031
0000
0000
0000
,
1000
0000
0100
0000
0010
0000
0001
1000
0001
0000
0010
0000
0100
0000
1000
0001
,
1000
0010
0100
0001
2000
0000
3100
0000
,
0010
0001
0010
0000
0100
1000
0100
0000
,
0010
0000
0001
0000
1000
0000
0000
0010
2000
0000
0000
0000
3001
0000
0000
0000
,
1000
0000
0100
0000
0010
0000
0001
0100
0001
0000
0010
0000
0100
0000
1000
0010
,
1000
0001
0100
0010
2000
0000
3002
0000
,
0013
0000
0001
0000
0010
0000
0100
0000
0020
0000
0000
0000
0030
0000
0001
0100
,
0001
0000
0100
0000
0010
0000
1000
0000
0200
0000
0000
0000
0300
0000
1000
0010
,
1000
0000
0100
0000
0010
0000
0002
0000
0100
0000
0100
0000
0103
0000
0001
1000
,
0001
0010
0100
1000
0020
0000
1030
0000
,
0010
0000
1000
0000
0010
0000
0100
0000
0020
0000
0000
0000
0030
0000
1000
0100
,
1000
0000
0100
0000
0010
0000
0001
0000
0200
0000
0000
0000
0300
0000
0001
0010
,
0001
0000
0100
0000
0010
0000
2000
0000
0100
0000
0100
0000
3100
0000
1000
0001
,
1000
0000
0010
0000
0100
0000
0001
0000
1000
0001
1000
0001
1000
0000
0010
0000
,
0100
0001
0100
0000
0010
1000
0010
0000
,
0100
0000
0001
0000
1000
0000
0000
0100
0020
0000
0000
0000
0031
0000
00M0
0000
,
0100
0000
0010
0000
1000
0000
0010
0100
0010
0000
0100
0000
0001
0000
0100
0010
,
0100
0001
1000
0100
2000
0000
3010
00M0
,
0100
1000
0100
0000
0010
0001
0010
0000
,
0100
0000
1000
0000
0001
0000
0000
0100
0020
0000
0000
0000
1030
0000
00M0
0000
,
0100
0000
0010
0000
0001
0000
0010
0100
0010
0000
0100
0000
1000
0000
0100
0010
,
0100
1000
0001
0100
0002
0000
0000
0000
,
1003
0100
200M
3010
1000
0100
200M
3010
,
0100
0010
200M
3100
1000
0010
M200
0310
,
1000
0100
1000
1000
0100
0010
0100
0100
,
0010
0001
0010
0010
0001
0100
0010
0100
,
0001
0100
M002
0013
0001
0100
M002
0013
,
0100
0010
M002
0103
0001
0010
020M
0310
,
0001
0100
0001
0100
0010
0100
0010
0100
,
0010
1000
0010
1000
0100
1000
0100
1000
,
0001
0010
0001
1000
0001
0100
0001
1000
,
0001
0010
0001
1000
0001
0100
0001
1000
,
0100
0010
0100
0010
0001
1000
0001
1000
,
0010
0100
0010
0100
0001
0100
0010
0010
,
1000
0010
1000
0001
1000
0100
1000
0001
,
1000
0010
1000
0001
1000
0100
1000
0001
,
0100
0010
0100
0010
1000
0001
1000
0001
,
0010
0100
0010
0100
1000
0100
0010
0100
,
2002
0000
0000
0000
0000
0000
0000
0000
3003
0000
0MM0
0000
1000
0001
1000
0001
,
1000
0100
0010
0001
1000
0100
0010
0001
,
1000
0100
0001
0100
1000
0100
0010
0001
,
1000
0010
0001
0010
1000
0100
0001
0100
,
1000
0010
0100
0010
0001
0010
0100
0010
,
1000
0100
0010
0001
1000
0100
0010
0001
,
1000
0100
0001
0100
1000
0100
0010
0001
,
1000
0010
0001
0010
1000
0100
0001
0100
,
1000
0010
0100
0010
0001
0010
0100
0010
,
1000
0100
0010
0001
1000
0010
0100
0001
,
1000
0100
0001
0100
1000
0001
0010
1000
,
0010
0001
0010
0001
0100
0010
0100
0010
,
1000
0100
0001
0100
1000
0100
0001
0100
,
1000
0100
0010
0001
1000
0010
0100
0001
,
1000
0100
0001
0100
1000
0001
0010
1000
,
0010
0001
0010
0001
0100
0010
0100
0010
,
1000
0100
0001
0100
1000
0100
0001
0200
,
0000
0000
0000
0000
0300
0000
0000
0000
1000
0001
1000
0001
1000
0000
0010
0000
,
0100
0001
1000
0000
0100
1000
0001
0000
,
0100
0000
0001
0000
1000
0000
0000
1000
0200
0000
0000
0000
0310
0000
0M00
0000
,
0001
0000
0100
0000
0010
0000
1000
0001
1000
0000
0100
0000
0010
0000
0001
1000
,
0001
0010
0100
1000
0020
0000
0130
0M00
,
0010
1000
0001
0000
0010
0001
1000
0000
,
0010
0000
1000
0000
0100
0000
0000
0100
0020
0000
0000
0000
0031
0000
000M
0000
,
0100
0000
1000
0000
0001
0000
0010
0100
0010
0000
0001
0000
1000
0000
0010
0100
,
0010
1000
0100
0010
0002
0000
2003
0000
,
3001
0100
0010
0000
1000
0100
0010
0000
,
0001
0000
0100
0000
0010
0000
0000
1000
0200
0000
0000
0000
0310
0000
00M0
0000
,
0100
0000
1000
0000
0001
0000
1000
0010
1000
0000
0001
0000
0010
0000
0100
1000
,
0100
0010
0001
0100
0020
0000
2030
0000
,
3001
0010
0100
0000
1000
0010
0001
0000
,
0010
0000
0100
0000
0001
0000
0000
0001
0020
0000
0000
0000
0130
0000
00M0
0000
,
1000
0000
0100
0000
0010
0000
0001
0100
0001
0000
1000
0000
0010
0000
0100
0001
,
0100
0010
1000
0200
0020
0000
0000
0000
,
0000
0000
0000
0000
0000
0000
0330
1001
,
1001
M00M
0000
0000
0000
0000
0000
0000
;
