#TITLE:I'm Lonely;
#SUBTITLE:(Dj 3K Edit);
#ARTIST:Scooter;
#TITLETRANSLIT:;
#SUBTITLETRANSLIT:;
#ARTISTTRANSLIT:;
#GENRE:;
#CREDIT:;
#BANNER:imlonely-bn.png;
#BACKGROUND:imlonely-bg.png;
#LYRICSPATH:;
#CDTITLE:;
#MUSIC:Im Lonely (Dj 3k Edit).ogg;
#OFFSET:-0.080;
#SAMPLESTART:75.670;
#SAMPLELENGTH:12.000;
#SELECTABLE:YES;
#DISPLAYBPM:71.000:143.000;
#BPMS:0.000=71.500,17.000=143.000,34.521=-286.004,36.229=286.000,37.500=143.000,102.000=71.500,166.000=143.000;
#STOPS:34.500=0.480
,37.500=0.450
;
#BGCHANGES:;
#KEYSOUNDS:;

//---------------dance-single - C.Sanabria----------------
#NOTES:
     dance-single:
     C.Sanabria:
     Challenge:
     9:
     0.537,0.737,0.294,0.680,0.435:
0000
0000
0000
0000
,
0000
0000
0000
0000
,
0000
0000
0000
M000
000M
0M00
0000
0000
00M0
0000
M000
0M00
0000
0000
00M0
000M
,
0000
0M00
00M0
0000
M000
0000
000M
0000
,
0M00
0000
0000
0000
1000
0000
0000
0010
0000
0000
0100
0000
0000
0001
0000
0000
,
0100
0000
0000
0000
0001
0000
0000
0010
0000
0000
0100
0000
0000
1000
0000
0000
,
0100
0000
0000
0000
1000
0000
0000
0010
0000
0000
0100
0000
0000
0001
0000
0000
,
0010
0000
0000
0000
0100
0000
0000
1000
0000
0000
0001
0000
0000
0100
0000
0000
,
0001
0000
0000
0000
1000
0000
0000
0001
0000
0000
1001
0000
M000
0000
0M00
0000
,
00M0
000M
0M00
0000
1000
0100
0010
0001
,
0100
0000
0010
0000
1000
0000
0100
0000
0001
0000
M200
0000
0000
230M
0000
0000
,
30M2
0000
0000
M203
0000
0000
0310
0000
1001
0000
1000
0000
0100
0000
0010
0000
,
0001
0000
0100
0000
0001
0000
0010
0000
0100
0000
20M0
0000
0000
3M20
0000
0000
,
023M
0000
0000
M320
0000
0000
103M
0000
1001
0000
0001
0000
0010
0000
1000
0000
,
0010
0000
0001
0000
0100
0000
0010
0000
1000
0000
00M2
0000
0000
0M23
0000
0000
,
M230
0000
0000
230M
0000
0000
3001
0000
0101
0000
0100
0000
0010
0000
1000
0000
,
0100
0000
0001
0000
0100
0000
1000
0000
0010
0000
020M
0000
0000
M302
0000
0000
,
20M3
0000
0000
3M02
0000
0000
0103
0000
0110
0000
0010
0000
0000
1000
0000
0000
,
0001
0000
0000
1000
0000
0000
0100
0000
0010
0000
0200
0000
0000
0000
1300
0000
,
0001
0000
0000
1000
0000
0000
0010
0000
0100
0000
0001
0010
0000
0001
1000
0000
,
0100
0000
1000
0010
0000
1000
0001
0000
0010
0000
0100
1000
0000
0001
1000
0000
,
0010
0000
0100
0001
0000
1000
0001
0000
0010
0000
0100
0000
0000
1000
0000
0000
,
0001
0000
0000
1000
0000
0000
0010
0000
0100
0000
0020
0000
0000
0000
1030
0000
,
0100
0000
0000
0010
0000
0000
0001
0000
1000
0000
0001
0010
0000
0100
0010
0000
,
0001
0000
1000
0010
0000
0100
0010
0000
2MM2
0000
0000
0000
0000
0000
0000
0000
,
3003
0000
0000
0000
2000
3020
0230
0320
,
2030
3020
0230
0320
2030
3200
0320
0032
,
2003
3020
1030
1001
0102
0023
0230
0320
,
0032
0023
0230
0320
0032
0203
0320
2030
,
3002
0023
0230
1300
0101
0010
1001
0010
,
0101
0010
1001
0010
1100
0010
1001
0010
,
1100
0010
0011
1001
2100
3020
0230
0320
,
2030
3020
0230
0320
2030
3200
0320
0032
,
2003
3020
2030
3002
0023
0000
0000
0000
,
0200
0000
0000
0030
2000
0000
0000
0300
,
0002
0000
0000
3000
1003
0010
0100
0001
,
0100
1000
0100
0001
1000
0100
0010
0001
,
1000
0100
0001
0100
2000
0000
0020
0000
,
3030
0200
0302
2003
3020
0000
0200
0000
,
M330
0000
000M
0000
0M00
0000
00M0
0001
0100
0020
0000
0000
2030
0000
3001
0020
,
0000
0000
0130
2000
0000
0000
3020
0000
0200
0000
0000
0000
0000
0000
0000
0000
,
0330
0000
0000
0000
0000
0000
0000
0000
1000
0000
0000
0100
0000
0000
0010
0000
,
0000
0001
0000
0000
1000
0000
0000
0000
0001
0000
0000
0100
0000
0000
0010
0000
,
0000
1000
0000
0000
0001
0000
0000
0000
0010
0000
0000
0100
0000
0000
0010
0000
,
0000
0001
0000
0000
1000
0000
0000
0000
0001
0000
0000
0001
0000
0000
0001
0000
,
0000
0001
0000
0000
0001
0000
0000
0000
1000
0000
0000
1000
0000
0000
1000
0000
,
0000
1000
0000
0000
1000
0000
0000
0000
0001
0000
0000
0100
0000
0000
0010
0000
,
0000
1000
0000
0000
0100
0000
0000
0000
1000
0000
0000
0010
0000
0000
0100
0000
,
0000
0001
0000
0000
0010
0000
0000
0000
0100
0000
0000
1000
0000
0000
0001
0000
,
0000
0100
0000
0000
0010
0000
0000
0000
0101
0000
0000
0000
0110
0000
0000
0000
,
1010
1001
1100
0110
,
0011
0000
0000
0000
2002
0000
3003
0000
2000
0000
0000
3020
0000
0000
0230
0000
,
0000
0302
0000
0000
0023
0000
0000
0000
0032
0000
0000
0203
0000
0000
0320
0000
,
0000
2030
0000
0000
3200
0000
0000
0000
1300
0000
0000
1000
0000
0000
1010
0000
,
0000
1001
0000
0000
1100
0000
0000
0000
0001
0000
0000
0001
0000
0000
0011
0000
,
0000
1001
0000
0000
0101
0000
0000
0000
0010
0000
0000
0100
0000
0000
0010
0000
,
0000
1000
0000
0000
0001
0000
0000
0000
1001
0000
0000
0001
1000
0000
0001
0000
,
1000
0001
0000
0000
1001
0000
0000
0000
1001
0000
0000
1000
0001
0000
1000
0000
,
0001
1000
0000
0000
1001
0000
0000
0000
1100
0000
0000
0001
1000
0000
0010
0000
,
1000
0100
0000
0000
1001
0000
0000
0000
0101
0000
0000
1000
0001
0000
0010
0000
,
0001
0100
0000
0000
1001
0000
0000
0000
2000
0000
0000
3200
0000
0000
0302
0000
,
0000
0203
0000
0000
2300
0000
0000
3000
0001
0100
0001
1000
0010
1000
0001
0010
,
0001
1000
0100
1000
0002
0000
0000
0000
1003
0100
1000
0001
0100
0001
1000
0010
,
1000
0001
0010
0001
2000
0000
0000
0000
3001
0100
0010
1000
0010
0100
0001
1000
,
0010
0100
0001
1000
0002
0000
0000
0000
1003
0100
0010
0001
0010
0100
1000
0001
,
0010
0100
1000
0001
2000
0000
0000
0000
3001
0100
0010
1000
0010
0100
0001
1000
,
0100
0000
1000
0000
0001
0000
0010
0000
0002
0000
0000
0000
0000
0000
0000
0000
1003
0000
0000
0M00
0000
0000
0010
0000
0000
000M
0000
0000
0100
0000
0000
M000
,
0000
0000
0001
0000
0000
00M0
0000
0000
1000
0000
0000
0000
00M0
0000
0000
0000
0001
0000
0000
0M00
0000
0000
0010
0000
0000
M000
0000
0000
0100
0000
0000
000M
,
0000
0000
1000
00M0
0000
0000
0000
0M00
0001
0000
0000
M000
0000
0000
0000
0M00
0010
0000
0000
000M
0000
0000
0100
0000
0000
00M0
0000
0000
1000
0000
0000
000M
,
0000
0000
0010
0000
0000
0M00
0000
0000
0001
0000
0000
M000
0000
0000
0000
0000
0011
0000
0000
0000
0000
0000
0110
0000
0000
0000
0000
0000
1010
0000
0000
0000
,
0000
1001
0000
0000
0110
0000
0MM0
0000
0000
0000
0000
0000
0000
0000
0000
0000
;

//---------------dance-single - C.Sanabria----------------
#NOTES:
     dance-single:
     C.Sanabria:
     Beginner:
     1:
     0.098,0.137,0.007,0.000,0.000:
0000
0000
0000
0000
,
0000
0000
0000
0000
,
0000
0000
0000
0000
,
0000
0000
0000
0000
,
0000
1000
0000
0000
,
0000
0001
0000
0000
,
0000
1000
0000
0000
,
0000
0001
0000
0000
,
0000
0001
0000
0000
,
0000
0000
0000
1000
,
0000
0000
0000
1000
,
0000
0000
0000
0001
,
0000
0000
0000
0001
,
0000
0000
0000
1000
,
0000
0000
0000
1000
,
0000
0000
0000
0001
,
0000
0000
0000
0001
,
0000
0000
0000
1000
,
0000
1000
0000
0001
,
0000
0001
0000
1000
,
0000
0001
0000
1000
,
0000
0001
0000
1000
,
0000
1000
0000
0001
,
0000
0001
0000
1000
,
0000
0001
1001
0000
,
0000
0000
1000
0000
,
0000
0000
0010
0000
,
0000
0000
1000
0000
,
0000
0000
0100
0000
,
0000
0000
0001
0000
,
0000
0000
0010
0000
,
0000
0000
0001
0000
,
0000
0000
0100
0000
,
0000
0000
1000
0000
,
0000
0000
0010
0000
,
0000
0000
0001
0001
,
0001
0000
1000
1000
,
1000
0000
0001
0000
,
0000
0000
0010
0000
,
0000
0000
1000
1000
,
1000
1000
1000
0000
,
0000
0000
0001
0000
,
0000
0000
1000
0000
,
0000
0000
0001
0000
,
0000
0000
1000
0000
,
0000
0000
1000
0000
,
0000
0000
0010
0000
,
0000
0000
0010
0000
,
0000
0000
0100
0000
,
0000
0000
0100
0000
,
0100
0000
0100
0000
,
0100
0000
0001
0000
,
0000
0000
1000
0000
,
0000
0000
0010
0000
,
0000
0000
0100
0000
,
0000
0000
0100
0000
,
0000
0000
0001
0001
,
0001
0000
0001
0001
,
0001
0000
1000
1000
,
1000
0000
1000
1000
,
1000
0000
0001
0001
,
0001
0000
0010
0000
,
0100
0000
1000
0000
,
0001
0000
0100
0000
,
0010
0000
1000
0000
,
0001
0000
0010
0000
,
0100
0000
1000
1000
,
1000
0000
0001
0001
,
0001
0000
1000
1000
,
1000
0000
0001
0000
,
1000
0000
0000
0000
;

//---------------dance-double - C.Sanabria----------------
#NOTES:
     dance-double:
     C.Sanabria:
     Challenge:
     10:
     1.000,1.000,1.000,1.000,0.458:
00000000
00000000
00000000
00000000
,
00000000
00000000
00000000
00000000
,
00000000
00000000
00000000
00000000
,
00000000
00000000
00000000
00000000
,
00000000
00000000
00000000
00000000
20000002
00000000
00000000
32000023
00000000
00000000
03200230
00000000
00000000
00322300
00000000
00000000
,
00133100
00000000
000MM000
00000000
02000020
00000000
00000000
23000032
00000000
00000000
30022003
00000000
00000000
00233200
00000000
00000000
,
00311300
00000000
00M00M00
00000000
02000020
00000000
00000000
03022030
00000000
00000000
20033002
00000000
00000000
30200203
00000000
00000000
,
10300301
00000000
00M00M00
00000000
00022000
00000000
00000000
00233200
00000000
00000000
02300320
00000000
00000000
23000032
00000000
00000000
,
31000013
00000000
M000000M
00000000
20000002
00000000
00000000
32000023
00000000
00000000
03100130
00000000
M000000M
0M000000
M0000M00
00000000
,
000M00M0
0000M000
00M000M0
00000000
00000000
00000000
00000000
00000000
10000001
01000000
10000100
00000000
00010010
00001000
00100010
00000000
,
01000100
10000000
00010001
00000000
01000010
00000001
00101000
00000000
2M200001
00000000
00000200
00000000
000M0000
00002300
00000000
00000000
,
0M023000
00000000
00000000
00032000
0M000000
00000000
30303200
00000000
10000301
00000100
01000001
00000000
00101000
00010000
00100010
00000000
,
01000100
00000001
10001000
00000000
00100100
10000000
00010010
00000000
10000M22
00000000
02000000
00000000
0000M000
03020000
00000000
00000000
,
00032M00
00000000
00000000
00023000
00000M00
00000000
02030033
00000000
13000001
01000000
10000100
00000000
00100010
00001000
01000001
00000000
,
00011000
00100000
01000100
00000000
10000010
00000100
00011000
00000000
22M00001
00000000
00002000
00000000
000M0000
00003200
00000000
00000000
,
00M20300
00000000
00000000
00030020
00M00000
00000000
33002030
00000000
10003001
00000100
01000001
00000000
00100010
00010000
10000100
00000000
,
00011000
00000010
01000100
00000000
00100001
01000000
00011000
00000000
100002M2
00000000
00020000
00000000
0000M000
02030000
00000000
00000000
,
030020M0
00000000
00000000
00203000
000000M0
00000000
00320303
00000000
10030001
00000000
01000010
00000000
10000001
00000000
01000010
00000000
,
10000001
00011000
10000001
00011000
00100100
00011000
00100100
00011000
,
01000010
00000000
00011000
00000000
10000001
00000000
00100100
00000000
10000001
01000010
10000001
00011000
00100100
01000010
10000001
00011000
,
10000001
01000010
00100100
00011000
10000001
00100100
10000001
00011000
10000001
01000010
00100100
00011000
10000001
00100100
10000001
00011000
,
01000010
00011000
10000001
01000010
00100100
00011000
10000001
00100100
10000001
00000000
01000010
00000000
10000001
00000000
01000010
00000000
,
10000001
00011000
10000001
00011000
00100100
00011000
10000001
00011000
,
01000010
00000000
00100100
00000000
10000001
00000000
01000010
00000000
00100100
00011000
00100100
00011000
10000001
01000010
10000001
01000010
,
00100100
00011000
00100100
01000010
10000001
01000010
00100100
00011000
01000010
00000000
00000000
00000000
0MM0MMM0
MMM0M00M
0MM0M00M
0MM0MMM0
,
0MM0M000
0MM0M000
MMMMM000
00000000
00000000
00000000
00000000
00000000
20000000
00000000
32000000
00000000
03200000
00000000
02300000
00000000
,
23000000
32000000
03200000
02300000
03200000
00320000
20030000
30020000
,
00230000
00320000
20030000
30020000
00230000
00302000
00023000
00032000
,
00203000
00302000
00023000
00032000
00023000
00032000
00203000
00320000
,
20030000
30020000
02030000
03200000
20300002
30000203
00000320
00000230
,
00000302
00000203
00000320
00000230
00000320
00002030
00003002
00002003
,
00003020
00002030
00003002
00002003
00003020
00020030
00032000
00023000
,
00030020
00020030
00032000
00023000
00030200
00002300
00003002
00000023
,
00000032
00000203
00000320
00002030
22003001
00000100
00001000
00000100
,
00000001
00000100
00001000
33000100
10000202
01000000
00010000
01000000
,
10000000
01000000
00010000
01000303
22000001
00000100
00001000
00010000
,
00100000
00010000
00001000
33000100
10000202
00100000
00010000
00001000
,
00000010
00001000
00010000
01000303
20000001
00000100
00000001
00000100
,
02000010
00001000
30000010
00001000
00200100
00001000
03000100
00010000
,
00001020
01000000
00310000
10000000
01000130
10000001
00011000
00100100
,
10000001
00100100
00011000
20000002
00022000
00000000
00000000
00000000
,
00000000
00000000
00000000
00000000
30033003
00000000
M00MM00M
00000000
20000002
00000000
00000000
32000023
00000000
00000000
03200230
00000000
,
00000000
00322300
00000000
00000000
00133100
00000000
000MM000
00000000
02000020
00000000
00000000
23000032
00000000
00000000
30022003
00000000
,
00000000
00233200
00000000
00000000
00311300
00000000
00M00M00
00000000
02000020
00000000
00000000
03022030
00000000
00000000
20033002
00000000
,
00000000
30200203
00000000
00000000
10300301
00000000
00M00M00
00000000
00022000
00000000
00000000
00233200
00000000
00000000
02300320
00000000
,
00000000
23000032
00000000
00000000
31000013
00000000
M000000M
00000000
20000002
00000000
00000000
30200203
00000000
00000000
02300320
00000000
,
00000000
03022030
00000000
00000000
01033010
00000000
000MM000
00000000
00200200
00000000
00000000
20300302
00000000
00000000
32000023
00000000
,
00000000
03200230
00000000
00000000
00311300
00000000
00M00M00
00000000
02000020
00000000
00000000
03022030
00000000
00000000
00233200
00000000
,
00000000
02300320
00000000
00000000
13000031
00000000
0M0000M0
00000000
00022000
00000000
00000000
02033020
00000000
00000000
03200230
00000000
,
00000000
20300302
00000000
00000000
31000013
00000000
M000000M
00000000
10000001
00000000
01000010
00000000
00100100
00000000
01000010
00000000
,
00011000
00000000
01000010
00000000
00100100
00000000
01000010
00000000
10000001
00000000
00100000
00000100
01000000
00000000
00010010
00000000
,
10000000
00001000
01000000
00000000
00200200
00000000
00000000
00000000
00320310
00000000
00000001
00000000
02030100
00000000
00001000
00000000
,
03210000
00001000
02300100
00000001
03010020
00100000
00001032
00010000
,
00001203
00100000
00010320
10000000
02000130
00001000
23010000
00001000
,
30200100
00000000
00000001
00000000
02300010
00000000
00000001
00000000
03011000
00000000
00000000
00100100
00000000
00000000
01000010
00000000
,
00000000
10000001
00000000
00000000
00011000
00000000
00000000
00000000
10000001
00000000
00000000
00100100
00000000
00000000
01000010
00000000
,
00000000
00011000
00000000
00000000
10000001
00000000
00000000
00000000
00011000
00000000
00100000
00000010
00010000
00000000
00100100
00000000
,
00010000
00000001
10000000
00000000
00010010
00000000
10000000
00000000
00010100
00000000
00001000
01000000
00000001
00000000
00100100
00000000
,
00001000
10000000
00000100
00000000
01000001
00000000
00101000
00000000
00010100
00000000
01000000
00000010
10000000
00000000
01000001
00000000
,
00010000
00001000
01000000
00000000
10000001
00000000
01000000
00000000
00011000
00000000
00100100
00000000
00011000
00000000
00100100
00000000
,
00011000
00000000
10000001
00000000
00011000
00000000
10000001
00000000
00022000
00000000
00000000
00100100
00000000
00000000
10000001
00000000
,
00000000
01000010
00000000
00000000
00133100
00000000
000MM000
00000000
01000010
10000001
00011000
00100100
00011000
10000001
00100100
01000010
,
00011000
01000010
00100100
10000001
00011000
10000001
01000010
00100100
00011000
10000001
00011000
01000010
00100100
10000001
00011000
10000001
,
01000010
00100100
00011000
00100100
01000010
10000001
00011000
10000001
01000010
00100100
00011000
01000010
00011000
10000001
00100100
10000001
,
00011000
00100100
01000010
10000001
01000010
00100100
00011000
10000001
00100100
10000001
00011000
01000010
00011000
10000001
00100100
01000010
,
00011000
10000001
01000010
00100100
00011000
10000001
00011000
01000010
00100100
10000001
00011000
10000001
01000010
00100100
00011000
00100100
,
01000010
10000001
00011000
10000001
01000010
00100100
00011000
10000001
01000010
00000000
00000000
10000001
00000000
00000000
00011000
00000000
,
00000000
10000001
00000000
00000000
02000020
00000000
00000000
00000000
03100130
00000000
00000000
00011000
00000000
00000000
10000001
00000000
,
00000000
00011000
00000000
00000000
00200200
00000000
00000000
00000000
01300310
00000000
00000000
10000001
00000000
00000000
00100100
00000000
,
00000000
01000010
00000000
00000000
00022000
00000000
00000000
00000000
20033004
30000003
00000000
02000040
03000030
00000000
00200400
00300300
,
00000000
00040020
00030030
00000000
00244020
00033000
000MM000
00000000
00000000
00000000
00000000
00000000
00000000
00000000
00000000
00000000
,
00300030
00000000
00000000
00000000
;

//---------------dance-single - C.Sanabria----------------
#NOTES:
     dance-single:
     C.Sanabria:
     Hard:
     7:
     0.400,0.368,0.026,0.177,0.193:
0000
0000
0000
0000
,
0000
0000
0000
0000
,
0000
0000
0000
0000
,
0000
0000
0000
0000
,
0000
0000
0000
0000
1000
0000
0000
1000
0000
0000
1000
0000
0000
1000
0000
0000
,
1000
0000
0000
0000
0001
0000
0000
0001
0000
0000
0001
0000
0000
0001
0000
0000
,
0001
0000
0000
0000
1000
0000
0000
0010
0000
0000
1000
0000
0000
0001
0000
0000
,
0100
0000
0000
0000
0001
0000
0000
0010
0000
0000
0001
0000
0000
1000
0000
0000
,
0100
0000
0000
0000
1000
0000
0000
0001
0000
0000
1000
0000
M000
0000
0000
0000
,
M000
0000
1000
1000
,
0001
0000
0000
0000
0001
0000
0000
0000
2000
0000
0010
0000
0000
0010
0000
0000
,
0001
0000
0000
0001
0000
0000
3100
0000
0010
0000
0000
0000
0010
0000
0000
0000
,
0001
0000
0000
0000
1000
0000
0000
0000
0001
0000
0100
0000
0000
0010
0000
0000
,
1000
0000
0000
0100
0000
0000
1000
0000
0001
0000
0000
0000
0001
0000
0000
0000
,
1000
0000
0000
0000
1000
0000
0000
0000
0002
0000
0100
0000
0000
0100
0000
0000
,
1000
0000
0000
1000
0000
0000
0013
0000
0100
0000
1000
0000
0100
0000
0000
0000
,
0010
0000
0001
0000
1000
0000
0000
0000
0001
0000
0100
0000
0000
0010
0000
0000
,
1000
0000
0000
0100
0000
0000
0010
0000
0001
0000
0100
0000
0001
0000
0100
0000
,
0020
1000
1030
0000
0002
0010
0013
0000
,
0200
1000
1300
0000
0001
0100
0010
1000
,
0100
0010
0001
0100
0010
1000
0001
1000
,
0100
0010
0001
0100
0010
0000
1000
0000
,
0001
0010
0001
0000
0010
0100
1000
0001
,
0100
0000
0001
0000
0010
0000
0100
0000
1000
0000
0000
1000
0000
0000
1000
0000
,
0001
0000
0000
0001
0000
0000
0001
0000
0220
0000
0000
0000
0000
0000
0000
0000
,
0000
0000
0330
0000
1000
0100
0010
0100
,
1000
0100
0010
0100
0010
0001
0010
0100
,
0010
0001
0010
0100
1000
0010
0100
0010
,
1000
0010
0100
0010
0100
0001
0100
0010
,
1000
0100
0010
0001
1000
0010
0100
1000
,
0100
0010
1000
0001
0010
0100
0001
0100
,
0010
0001
1000
0010
0100
0001
0100
0001
,
0100
0010
0100
1000
0001
0010
0001
0010
,
0100
0010
1000
0001
2000
0000
3100
MM00
,
0000
0002
0203
0320
2030
0000
3002
M000
,
0003
000M
0000
0000
1000
0100
0001
0100
,
1000
0100
0001
0100
1000
0010
0001
0010
,
1000
0100
0010
0001
2000
0000
3010
M0M0
,
0000
2000
3200
0320
0032
0000
0203
000M
,
0300
0M00
0000
0000
2000
0000
3020
0000
,
0230
0302
2000
0000
,
0000
0000
0000
0000
3003
0000
M00M
0000
1000
0000
0000
1000
0000
0000
1000
0000
,
0000
1000
0000
0000
1000
0000
0000
0000
0001
0000
0000
0001
0000
0000
0001
0000
,
0000
0001
0000
0000
0001
0000
0000
0000
0010
0000
0000
0100
0000
0000
1000
0000
,
0000
0001
0000
0000
1000
0000
0000
0000
0010
0000
0000
0100
0000
0000
0001
0000
,
0000
1000
0000
0000
0001
0000
0000
0000
1000
0000
0000
0100
0000
0000
1000
0000
,
0000
0100
0000
0000
1000
0000
0000
0000
0001
0000
0000
0001
0000
0000
0100
0000
,
0000
0200
0000
0000
0310
0000
0000
0000
1000
0000
0000
1000
0000
0000
0100
0000
,
0000
0200
0000
0000
0310
0000
0000
0000
0001
0000
0000
0100
0000
0000
0010
0000
,
0000
1000
0000
0000
0100
0000
0000
0000
0010
0000
0001
0000
0010
0000
0001
0000
,
1000
0001
1000
0001
0100
0010
0100
0010
,
1000
0000
0001
0000
2000
0000
0000
0000
3001
0000
0000
0010
0100
0000
1000
0000
,
0001
0000
1000
0000
0100
0000
0010
0000
0001
0000
0000
0010
0100
0000
1000
0000
,
0010
0000
0100
0000
0001
0000
0100
0000
0010
0000
0000
0010
1000
0000
0001
0000
,
1000
0000
0100
0000
0010
0000
0001
0000
0100
0000
0000
0100
0000
0000
0001
0000
,
0000
0001
0000
0000
1000
0000
0000
0000
0100
0000
0000
0100
0000
0000
1000
0000
,
0000
1000
0000
0000
0001
0000
0000
0000
1000
0000
0100
0000
0010
0000
0100
0000
,
1000
0001
0100
0010
1000
0100
1000
0010
,
0100
0000
0001
0000
1000
0000
0100
0000
0010
0000
0000
0010
0001
0000
1000
0000
,
0001
0000
0000
0100
0001
0000
1000
0000
0001
0000
0000
0010
0100
0000
1000
0000
,
0000
1000
0000
0000
1000
0000
0000
0000
0010
0000
0000
0100
0000
0000
0010
0000
,
0000
0100
0000
0000
0010
0000
0000
0000
1000
0000
0000
1000
0100
0000
0010
0000
,
0001
0000
0100
0000
0010
0000
1000
0000
0001
0000
0000
0001
0100
0000
0010
0000
,
1000
0000
0100
0000
0010
0000
0001
0000
1000
0000
0000
1000
0010
0000
1000
0000
,
0001
0010
0001
1000
0100
0010
0001
0100
,
0001
0010
0100
1000
0010
1000
0100
0010
,
0001
0000
0100
0000
0010
0000
1000
0000
0001
0000
0000
0001
0000
0000
0001
0000
,
0000
0001
0000
0000
0001
0000
0000
0000
1000
0000
0000
1000
0000
0000
1000
0000
,
0000
1000
0000
0000
1000
0000
0000
0000
0100
0000
0000
0010
0000
0000
0001
0000
,
0000
0100
0000
0000
0010
0000
0000
0000
1000
0000
0000
0001
0000
0000
1100
0000
,
0000
0101
0000
0000
1001
0000
0000
0000
0000
0000
0000
0000
0000
0000
0000
0000
;
