#TITLE:Halloween Beats;
#SUBTITLE:;
#ARTIST:AtomMusik feat. Raydude;
#TITLETRANSLIT:;
#SUBTITLETRANSLIT:;
#ARTISTTRANSLIT:;
#GENRE:;
#CREDIT:;
#BANNER:halloween beats-bn.png;
#BACKGROUND:halloween beats-bg.png;
#LYRICSPATH:;
#CDTITLE:;
#MUSIC:Halloween Beats.ogg;
#OFFSET:-0.040;
#SAMPLESTART:27.467;
#SAMPLELENGTH:12.000;
#SELECTABLE:YES;
#BPMS:0.000=140.000;
#STOPS:;
#BGCHANGES:;
#KEYSOUNDS:;

//---------------dance-single - C.Sanabria----------------
#NOTES:
     dance-single:
     C.Sanabria:
     Challenge:
     9:
     0.699,0.874,0.007,0.684,0.723:
0000
0000
0000
0000
,
0000
0000
0000
0000
,
0000
M00M
M00M
M00M
MMMM
M00M
M00M
M00M
0000
0MM0
M00M
M00M
MMMM
M00M
M00M
M00M
,
0000
M000
M000
M000
M000
M000
M000
MMMM
0000
M000
M000
M000
M000
M000
M000
MMMM
,
0000
0MM0
M00M
M00M
M00M
M00M
M00M
0MM0
0000
M00M
M00M
M00M
M00M
MMMM
MMMM
M00M
,
0000
0MMM
M000
M000
MMM0
M000
M000
MMMM
0000
0MMM
M000
M000
MMM0
M000
M000
MMMM
,
0000
M00M
M00M
MM0M
MMMM
M0MM
M00M
M00M
0000
0000
0000
0000
0000
0000
0000
0000
,
0000
0000
0000
0000
,
0000
1000
0M00
0010
000M
1000
0M00
0010
,
000M
0100
M000
0100
00M0
0001
M000
0001
,
00M0
0010
M000
0001
0M00
0010
000M
0001
,
0M00
1000
00M0
1000
000M
0100
M000
0100
,
00M0
1000
0M00
0010
000M
1000
00M0
0010
,
M000
0100
000M
0001
00M0
0100
M000
0001
,
0M00
0010
000M
0010
M000
0100
000M
1000
,
0001
0000
0000
0000
1000
0000
0010
0000
4000
0004
0000
0000
0000
0000
0000
3000
,
2003
0000
3010
0100
0002
0000
0013
0100
,
1000
0010
0M01
0010
2000
0000
3001
0010
,
0100
0000
1000
0001
0000
1000
0001
0000
0100
0000
0010
0000
1000
0000
0100
0000
,
0010
0000
0001
1000
0000
0001
1000
0000
0100
0000
0010
0000
0M04
0000
M000
0000
,
2003
0000
3010
0100
0002
0000
1003
0100
,
0010
1000
0M01
0100
2000
0000
3001
0100
,
0010
0000
1000
0010
0000
1000
0010
0000
0100
0000
0001
0000
1000
0000
0100
0000
,
0010
0000
0001
0010
0000
0001
0010
0000
0100
0000
1000
0000
0M04
0000
00M0
0000
,
2003
0000
3100
0010
0002
0000
0103
0010
,
1000
0100
00M1
0100
2000
0000
3001
0100
,
0010
0000
1000
0001
0000
1000
0001
0000
0010
0000
0100
0000
1000
0000
0010
0000
,
0100
0000
0001
1000
0000
0001
1000
0000
0010
0000
0100
0000
00M4
0000
M000
0000
,
2003
0000
3100
0010
0002
0000
1003
0010
,
0100
1000
00M1
0010
2000
0000
3001
0010
,
0100
0000
1000
0100
0000
1000
0100
0000
0010
0000
0001
0000
1000
0000
0010
0000
,
0100
0000
0001
0100
0000
0001
0100
0000
0010
0000
1000
0000
00M4
0000
0M00
0000
,
1003
0000
0100
0010
0000
0000
0100
0010
0000
0000
0001
1000
0000
0000
0001
1000
,
0000
0000
0010
1000
0000
0000
0001
0100
0000
0000
0001
0010
0000
0000
0100
1000
,
0000
0000
0001
0100
0000
0000
0001
1000
0000
0000
0001
0010
0000
0000
0001
1000
,
0000
0000
1000
0100
0000
0000
1000
0001
0000
0000
1000
0010
0000
0000
1000
0001
,
0000
0000
1000
0100
0000
0000
0100
1000
0000
0000
0001
0010
0000
0000
0010
0001
,
0000
0000
1000
0010
0000
0000
1000
0001
0000
0000
0001
0010
0000
0000
0001
1000
,
0000
0000
200M
30M0
0M00
0000
M002
0M03
,
00M0
0000
0000
0000
0000
0000
200M
0000
0000
30M0
0000
0000
0M00
0000
0000
0001
1000
0001
1000
0000
0000
0010
0000
0000
,
2000
0000
0000
0200
3000
0000
2000
0300
0002
0000
3000
0200
0003
0000
0002
0300
,
2000
0000
0003
0020
3000
0000
2000
0030
0002
0000
3000
0020
0003
0000
0002
0030
,
2000
0000
0003
0200
3000
0000
0020
0300
0002
0000
0030
0200
0003
0000
0020
0300
,
2000
0000
0030
0200
3000
0000
0020
0300
0002
0030
0020
0003
0200
0030
2000
0300
,
3002
0000
0000
0200
0003
0000
0002
0300
2000
0000
0003
0020
3000
0000
2000
0030
,
0002
0000
3000
0020
0003
0000
0002
0030
2000
0000
0003
0200
3000
0000
2000
0300
,
0002
0000
3000
0200
0003
0000
0020
0300
2000
0000
0030
0200
3000
0000
0020
0300
,
0031
0000
0000
0M00
0000
0000
0001
0000
0000
M000
0000
0000
0000
0000
0000
0000
1000
0000
0000
00M0
0000
0000
1000
0000
0000
000M
0000
0000
0000
0000
0000
0000
,
0001
0000
0010
0001
1000
0000
0100
1000
0001
0010
0001
1000
0100
1000
0001
0100
,
0001
0100
0010
1000
0100
1000
0010
0100
0001
0010
0001
1000
0100
1000
0001
0010
,
0001
0000
0100
0001
1000
0000
0010
1000
0001
0100
0001
1000
0100
1000
0001
0010
,
0001
0100
0010
1000
0001
0100
0010
1000
0001
0010
0100
1000
0001
0010
0100
1000
,
0001
0000
0100
0001
1000
0000
0010
1000
0001
0100
0001
1000
0010
1000
0001
0010
,
0001
0010
0100
1000
0010
1000
0100
0010
0001
0100
0001
1000
0010
1000
0001
0100
,
0001
0000
0010
0001
1000
0000
0100
1000
0001
0010
0001
1000
0010
1000
0001
0100
,
0001
0010
0100
1000
0001
0010
0100
1000
0001
0100
0010
1000
0001
0100
0010
1000
,
0001
0100
0001
0000
0MM0
0000
1000
0100
1000
0010
0100
0001
1000
0100
0010
0001
,
1000
0100
1000
0001
0010
0001
1000
0100
0010
0001
1000
0010
0100
0001
1000
0001
,
1000
0100
1000
0000
0MM0
0000
0001
0100
0010
1000
0100
0010
0001
1000
0100
0010
,
0100
1000
0001
1000
0010
0100
0001
1000
0001
0010
0100
1000
0001
0100
0010
1000
,
0002
0000
0000
0000
0020
0000
0003
0000
0000
0000
0030
000M
0020
0000
0000
0000
0002
0000
0030
0000
0200
0000
0003
0000
0020
0000
0300
0000
2000
0000
0030
0000
,
0200
3000
0020
0300
0200
0030
0020
0300
0002
0030
0200
0003
2000
0300
0200
3000
,
0002
0300
0020
0003
0002
0030
2000
0003
0020
3000
0200
0030
0002
0300
0020
0003
,
0034
0000
4000
0000
0000
0000
0000
0000
0000
0000
0000
0000
0000
0000
0000
0000
0000
0000
0000
0000
0000
0000
0000
0000
0000
0000
0000
0000
0000
0000
0000
0000
0000
0000
0000
0000
0000
0000
0000
0000
0000
0000
0000
0000
0000
0003
0000
0000
,
3002
0000
0013
0100
2000
0000
3010
0100
,
0001
0010
1M00
0010
0002
0000
1003
0010
,
0100
0000
0001
1000
0000
1000
0001
0000
0100
0000
0010
0000
1000
0000
0100
0000
,
0010
0000
0001
1000
0000
1000
0001
0000
0100
0000
0010
0000
4M00
0000
000M
0000
,
3002
0000
0013
0100
2000
0000
3001
0100
,
0010
0001
1M00
0100
0002
0000
1003
0100
,
0010
0000
0001
0010
0000
0001
0010
0000
0100
0000
1000
0000
0001
0000
0100
0000
,
0010
0000
1000
0010
0000
1000
0010
0000
0100
0000
0001
0000
4M00
0000
00M0
0000
,
3002
0000
0103
0010
2000
0000
3100
0010
,
0001
0100
10M0
0100
0002
0000
1003
0100
,
0010
0000
0001
1000
0000
1000
0001
0000
0010
0000
0100
0000
1000
0000
0010
0000
,
0100
0000
0001
1000
0000
1000
0001
0000
0010
0000
0100
0000
40M0
0000
000M
0000
,
3002
0000
0103
0010
2000
0000
3001
0010
,
0100
0001
10M0
0010
0002
0000
1003
0010
,
0100
0000
0001
0100
0000
0001
0100
0000
0010
0000
1000
0000
0001
0000
0010
0000
,
0100
1000
0001
1000
0010
0000
0100
0000
0010
1000
0001
0000
1000
0000
0010
0000
,
2002
0000
0000
0000
,
3003
0000
0000
0000
;

//---------------dance-single - C.Sanabria----------------
#NOTES:
     dance-single:
     C.Sanabria:
     Beginner:
     1:
     0.119,0.173,0.007,0.000,0.000:
0000
0000
0000
0000
,
0000
0000
0000
0000
,
0000
0000
0000
0000
,
0000
0000
0000
0000
,
0000
0000
0000
0000
,
0000
0000
0000
0000
,
0000
0000
0000
0000
,
0000
0000
0000
0000
,
0010
0000
0000
0000
,
0010
0000
0000
0000
,
0010
0000
0000
0000
,
0010
0000
0000
0000
,
0100
0000
0000
0000
,
0100
0000
0000
0000
,
0100
0000
0000
0000
,
0100
0000
0000
0000
,
1000
0000
0000
0000
,
0001
0000
0000
0000
,
0010
0000
0000
0000
,
0100
0000
0000
0000
,
1000
0000
0000
0000
,
0001
0000
0000
0000
,
0010
0000
0000
0000
,
0100
0000
0000
0000
,
1000
0000
0000
0000
,
0001
0000
0000
0000
,
0100
0000
0000
0000
,
0010
0000
0000
0000
,
1000
0000
0000
0000
,
0001
0000
0000
0000
,
0100
0000
0000
0000
,
0010
0000
0000
0000
,
1000
0000
1000
0000
,
1000
0000
1000
0000
,
1000
0000
1000
0000
,
1000
0000
1000
0000
,
0001
0000
0001
0000
,
0001
0000
0001
0000
,
0001
0000
0001
0000
,
0001
0000
0001
0000
,
0010
0000
0000
0000
,
0100
0000
0000
0000
,
1000
0000
0000
0000
,
0001
0000
0000
0000
,
0100
0000
0000
0000
,
0010
0000
0000
0000
,
1000
0000
0000
0000
,
0001
0000
0000
0000
,
1000
1000
1000
0000
,
0001
0001
0001
0000
,
0010
0000
0100
0000
,
1000
1000
1000
1000
,
1000
0000
0001
0000
,
1000
1000
1000
0000
,
0010
0000
0100
0000
,
0001
0001
0001
0001
,
0001
0000
1000
0000
,
0100
0100
0100
0000
,
1000
0000
0001
0000
,
0010
0010
0010
0010
,
0010
0000
0100
0000
,
1000
0000
0001
0000
,
0100
0000
0100
0000
,
0010
0000
0010
0000
,
1000
0000
1000
0000
,
0001
0000
0001
0000
,
0010
0000
0000
0000
,
0100
0000
0000
0000
,
1000
0000
1000
0000
,
0001
0000
0001
0000
,
0100
0000
0000
0000
,
0010
0000
0000
0000
,
1000
0000
1000
0000
,
0001
0000
0001
0000
,
0010
0000
0000
0000
,
0100
0000
0000
0000
,
1000
0000
1000
0000
,
0001
0000
0001
0000
,
0100
0000
0000
0000
,
0010
0000
0000
0000
,
1001
0000
0000
0000
;

//---------------dance-single - C.Sanabria----------------
#NOTES:
     dance-single:
     C.Sanabria:
     Hard:
     8:
     0.582,0.700,0.022,0.417,0.248:
0000
0000
0000
0000
,
0000
0000
0000
0000
,
0000
0000
0000
0000
,
0000
0000
0000
0000
,
0000
0000
0000
0000
,
0000
0000
0000
0000
,
0000
0000
0000
0000
,
0000
0000
0000
0000
,
0000
2000
0000
0010
0000
0001
0000
3100
,
0000
0002
0000
0010
0000
1000
0000
0103
,
0000
0020
0000
1030
0000
0002
0000
0103
,
0000
0010
0000
1000
0000
0100
0000
0010
,
0000
0002
0000
0010
0000
1000
0000
0103
,
0000
2000
0000
0010
0000
0001
0000
3100
,
0000
0020
0000
0031
0000
2000
0000
3100
,
0020
0000
0031
0100
0002
0000
1003
0010
,
2000
0000
3100
0001
0200
0000
1300
0010
,
0001
0010
1000
0100
0002
0000
0103
0001
,
0100
0000
1000
0100
0000
1000
0100
0000
1000
0000
0010
0000
0100
0000
0001
0000
,
0010
0000
0001
0100
0000
0001
0100
0000
0010
0000
1000
0000
0100
0000
1000
0000
,
0002
0000
0013
1000
0020
0000
0031
0100
,
1000
0100
0001
0010
2000
0000
3010
0100
,
1000
0000
0010
1000
0000
0010
1000
0000
0100
0000
0010
0000
0001
0000
0100
0000
,
0001
0000
0010
0001
0000
0010
0001
0000
0100
0000
0010
0000
1000
0000
0001
0000
,
0020
0000
0130
1000
0020
0000
0130
0001
,
0010
1000
0010
0001
0200
0000
0310
1000
,
0100
0000
0010
0001
0000
0010
0001
0000
0100
0000
0010
0000
1000
0000
0001
0000
,
0100
0000
0010
1000
0000
0010
1000
0000
0100
0000
0010
0000
0001
0000
0100
0000
,
0020
0000
1030
0100
2000
0000
3010
0001
,
0010
0100
0010
1000
0200
0000
0310
0100
,
1000
0000
0001
0100
0000
0001
0100
0000
0010
0000
1000
0000
0100
0000
0010
0000
,
0001
0000
1000
0100
0000
1000
0100
0000
1000
0000
0010
0000
0100
0000
0001
0000
,
0020
0100
0001
0100
,
0032
0103
2000
3100
,
0020
1000
0100
0031
,
0210
0301
0210
1300
,
0002
0203
1000
0010
,
0302
0023
1000
0130
,
0000
10MM
0000
MM01
,
0000
M01M
0000
M10M
,
1000
0000
0000
0010
0000
0000
2000
0000
0001
0000
0000
0001
0000
0000
3001
0000
,
1000
0000
0000
0100
0000
0000
2000
0000
0010
0000
0000
0010
0000
0000
3010
0000
,
0100
0000
0000
0001
0000
0000
1000
0000
0100
0000
0000
0010
0000
0000
0001
0000
,
0100
0000
0000
0100
0000
0000
0100
0000
0010
0000
1000
0000
0100
0000
0010
0000
,
0001
0000
0000
0010
0000
0000
0002
0000
1000
0000
0000
1000
0000
0000
1003
0000
,
0001
0000
0000
0100
0000
0000
0002
0000
0010
0000
0000
0010
0000
0000
0013
0000
,
0100
0000
0000
1000
0000
0000
0001
0000
0100
0000
0000
0010
0000
0000
1000
0000
,
0001
0000
0000
0001
0000
0000
0000
0000
1000
0000
0000
1000
0000
0000
0000
0000
,
0001
0000
0100
0000
0010
0000
0100
0000
0001
0100
0001
0100
0001
1000
0001
0000
,
1000
0000
0100
0000
0010
0000
0100
0000
1000
0100
1000
0000
0001
0010
0001
0000
,
1000
0000
0010
0000
0100
0000
0010
0000
1000
0100
1000
0100
0010
0001
0010
0001
,
2000
3010
0200
0301
2000
3100
0020
0031
,
1000
0000
0100
0000
0010
0000
0100
0000
1000
0010
1000
0010
1000
0001
1000
0000
,
0001
0000
0010
0000
0100
0000
0010
0000
0001
0100
0001
0000
1000
0010
1000
0000
,
0001
0000
0100
0000
0010
0000
0100
0000
0001
0100
0001
0100
0001
1000
0001
1000
,
0100
1000
0010
1000
0100
0010
0001
0100
,
0002
1003
M000
1000
0100
0010
0001
0100
,
0020
1030
0002
0103
0010
1000
0100
0001
,
0200
0000
1300
0000
M000
0000
1000
0000
0010
0100
0010
0000
1000
0001
1000
0000
,
0001
0010
0001
0010
0100
1000
0100
1000
,
0001
0100
0M00
0100
0001
0010
0100
1000
,
0010
0100
0010
0100
0001
0010
0100
1000
,
0010
0100
0M00
0100
0010
1000
0100
0010
,
0001
0100
0001
0000
1000
0000
0001
0000
1000
0010
1000
0000
0001
0000
1000
0000
,
0020
0000
0130
0001
0200
0000
0301
0010
,
1000
0010
0001
0100
2000
0000
3100
1000
,
0100
0000
0001
0100
0000
0001
0100
0000
0001
0000
0010
0000
0100
0000
1000
0000
,
0010
0000
1000
0100
0000
1000
0100
0000
0010
0000
0001
0000
0100
0000
0001
0000
,
2000
0000
3010
0001
0020
0000
1030
0100
,
0001
0100
1000
0010
0002
0000
0013
0100
,
0001
0000
0010
0001
0000
0010
0001
0000
0100
0000
0010
0000
1000
0000
0100
0000
,
1000
0000
0010
1000
0000
0010
1000
0000
0100
0000
0010
0000
0001
0000
1000
0000
,
0020
0000
0130
0001
0020
0000
0130
1000
,
0010
0001
0010
1000
0200
0000
0310
0001
,
0100
0000
0010
1000
0000
0010
1000
0000
0100
0000
0010
0000
0001
0000
1000
0000
,
0100
0000
0010
0001
0000
0010
0001
0000
0100
0000
0010
0000
1000
0000
0100
0000
,
0020
0000
0031
0100
0002
0000
0013
1000
,
0010
0100
0010
0001
0200
0000
0310
0100
,
0001
0000
1000
0100
0000
1000
0100
0000
0010
0000
0001
0000
0100
0000
0010
0000
,
1000
0100
1000
0001
0010
0000
0100
0000
1000
0000
0010
0000
0100
0000
0001
0000
,
2002
0000
0000
0000
,
3003
0000
0000
0000
;
