#TITLE:Future Shock;
#SUBTITLE:;
#ARTIST:DJ Mindsweeper;
#TITLETRANSLIT:;
#SUBTITLETRANSLIT:;
#ARTISTTRANSLIT:;
#GENRE:;
#CREDIT:;
#BANNER:Future Shock-bn.png;
#BACKGROUND:Future Shock-bg.png;
#LYRICSPATH:;
#CDTITLE:;
#MUSIC:Future Shock.ogg;
#OFFSET:-0.060;
#SAMPLESTART:6.730;
#SAMPLELENGTH:12.000;
#SELECTABLE:YES;
#DISPLAYBPM:130.000;
#BPMS:0.000=130.000,168.000=260.000,173.500=130.000,176.000=130.000,225.021=-130.000,226.021=130.000,231.021=-130.000,232.021=130.000,237.021=-130.000,238.021=130.000,243.021=-130.000,244.021=130.000,249.021=-130.000,250.021=130.000,255.021=-130.000,256.021=130.000,261.021=-130.000,262.021=130.000,267.021=-130.000,268.021=130.000,273.021=-130.000,274.021=130.000,279.021=-130.000,280.021=130.000,285.021=-130.000,286.021=130.000,291.021=-130.000,292.021=130.000,297.021=-130.000,298.021=130.000,303.021=-130.000,304.021=130.000,308.000=260.000,309.021=260.000,310.021=260.000,311.500=130.000;
#STOPS:168.000=0.116
,168.500=0.116
,169.000=0.116
,169.500=0.116
,170.000=0.116
,170.500=0.116
,171.000=0.116
,171.500=0.232
,172.500=0.232
,308.000=0.116
,308.500=0.116
,309.000=0.116
,309.500=0.116
,310.000=0.116
,310.500=0.116
,311.000=0.116
;
#BGCHANGES:;
#KEYSOUNDS:;

//---------------dance-single - C.Sanabria----------------
#NOTES:
     dance-single:
     C.Sanabria:
     Challenge:
     9:
     0.741,0.949,0.393,0.549,0.434:
0000
0000
0000
0000
,
0000
0000
0000
0000
,
0000
0000
0000
0000
,
0000
0000
0000
0000
0000
0001
0100
0010
,
2001
0000
0000
0000
3010
0000
0100
0000
0010
1000
0001
0000
0010
0000
0100
0000
,
1002
0000
0000
0000
0013
0000
0100
0000
0010
0001
1000
0000
0010
0000
0100
0000
,
1001
0000
0000
1010
0000
0000
0101
0000
0000
0000
0001
0000
0010
0000
0100
0000
,
2000
0000
0000
3020
0000
0000
0032
0000
0000
0003
0010
0000
0100
0000
0001
0000
,
0101
0000
0000
1010
0000
0000
1001
0000
0000
0000
0010
0000
0100
0000
1000
0000
,
1100
0000
0000
0011
0000
0000
1001
0000
0000
0000
0100
0000
0010
0000
0001
0000
,
2000
0000
0000
3020
0000
0000
0230
0000
0000
0000
1300
0000
0100
0000
0001
0000
,
1002
0000
0000
0023
0000
0000
0230
0000
0000
0000
1300
0000
0010
0000
0100
0000
,
0001
0000
1000
0100
0010
0100
0010
0100
1000
0000
0001
0010
0100
0010
0100
0010
,
0001
0000
1000
0010
0100
0001
0100
0010
1000
0000
1000
0100
0010
0001
0010
0100
,
1000
0000
0001
0100
0010
1000
0100
1000
0010
0000
0010
0100
0001
0100
0001
0100
,
0010
0000
1000
0100
0010
0001
0100
0001
0010
0000
0010
0001
0100
0001
0100
0001
,
0010
0000
0010
0100
1000
0100
1000
0100
0010
0000
0001
0100
0010
0100
0010
0100
,
0001
0000
1000
0010
0100
0010
0100
0010
1000
0000
0001
0100
0010
1000
0100
1000
,
0001
0010
0100
1000
0010
0100
0001
0200
,
0000
0000
0320
0000
0000
0000
2030
0000
0000
0000
3001
0010
0001
0000
1000
0000
,
0100
0000
0010
0000
0001
0000
MMM0
0000
0000
0000
1000
0100
1000
0000
0001
0000
,
0100
0000
0010
0000
1000
0000
0MMM
0000
0000
0000
1000
0100
1000
0000
0001
0000
,
0010
0000
1000
0000
0010
0000
MM0M
0000
0000
0000
0001
0010
0001
0000
1000
0000
,
0010
0000
0001
0000
0010
0000
MM0M
0000
0000
0000
1000
0100
0010
0000
1000
0000
,
0010
0000
0001
0000
0100
0000
M0MM
0000
0000
0000
1000
0100
0010
0000
1000
0000
,
0001
0000
0100
0000
0010
0000
MM0M
0000
0000
0000
0001
0100
0010
0000
1000
0000
,
0100
0000
0001
0000
0100
0000
M0MM
0000
0000
0000
0010
0001
0010
0000
0100
0000
,
1000
0010
0100
M0MM
0000
0101
0110
1010
,
0001
0000
1000
0100
0010
0100
0010
0100
1000
0000
0001
0100
0010
0100
0010
0100
,
0001
0000
1000
0100
0010
0001
0010
0100
1000
0000
0001
0100
0010
1000
0010
0100
,
0001
0000
1000
0100
0010
0100
1000
0001
0100
0000
0001
0100
0010
0100
0001
1000
,
0100
0000
0010
0001
1000
0001
0100
0010
1000
0000
0010
1000
0001
0010
0100
1000
,
0002
0000
0200
0003
0002
0300
0200
0003
0020
0300
0200
0030
0020
0300
0200
0030
,
2000
0300
0200
3000
2000
0300
0200
3000
0020
0300
2000
0030
0002
3000
0020
0003
,
2000
0030
0020
3000
0002
0030
2000
0003
0020
3000
0002
0030
2000
0003
0200
3000
,
0002
0300
0020
0003
0200
0030
2000
0300
0020
3000
0002
0030
2000
0003
0200
3000
,
0301
0000
0000
0001
0000
0000
0001
0000
0010
0000
0000
0010
0000
0000
0010
0000
,
0100
0000
0000
0100
0000
0000
0100
0000
1000
0000
0000
1000
0000
0000
1000
0000
,
0001
0001
01M0
0010
1000
1000
01M0
0010
,
0011
0000
0000
0110
0000
0000
1100
0000
0000
0000
0001
0000
0100
0000
0010
0000
,
2010
0000
0000
0001
0000
0000
3100
0000
M000
0000
1000
0000
0100
0000
0010
0000
,
0012
0000
0000
1000
0000
0000
0103
0000
000M
0000
0001
0000
0010
0000
0100
0000
,
1100
1001
0101
1001
1010
1001
0011
2002
,
3003
0220
0330
2002
3003
0000
0000
0000
,
0001
0100
0010
0100
1000
0001
0010
0100
,
0010
1000
0001
0100
0010
0100
1000
0001
,
0010
0100
0010
1000
0001
0010
0001
0010
,
0100
1000
0100
1000
0010
0100
0001
0100
,
0001
0000
1000
0100
0000
1000
0010
1000
0001
0000
0100
0001
0000
1000
0010
1000
,
0001
0000
0010
0100
0000
1000
0010
1000
0001
0000
0100
0001
0000
0010
0001
1000
,
0001
0000
1000
0100
0000
0010
0100
1000
0100
0000
0010
0001
0000
0010
0001
0010
,
0100
0000
1000
0010
0000
0100
0001
0100
0010
0000
1000
0001
0000
0100
0010
1000
,
0010
0100
0202
0303
0010
0100
2200
3300
,
1000
0010
2020
3030
0001
0010
0022
0033
,
0100
1000
2020
3030
0100
0001
0022
0033
,
0010
0100
0220
0330
1000
0001
2002
3003
,
0001
0010
0100
M000
0000
M000
00M0
1000
,
0000
1000
0010
0100
0001
0010
0100
M000
,
0000
000M
00M0
1000
0000
0001
0010
0100
,
1000
0010
0100
000M
0000
000M
00M0
0001
,
0000
0001
0010
0100
1000
0010
0100
000M
,
0000
0000
M000
0000
00M0
0000
0001
0000
0000
0000
1000
0000
0010
0000
0100
0001
,
1000
0100
1000
MM00
0000
000M
00M0
1100
,
0000
0000
0001
0000
0010
0000
0100
1000
0001
0000
0100
0000
0010
0000
0M0M
0000
,
0000
0000
M000
0000
00M0
0000
0101
0000
0000
0000
1000
0000
0010
0000
0100
0001
,
0100
0010
1000
MM00
0000
000M
00M0
1100
,
0000
0000
0001
0000
0010
0000
0100
1000
0100
0000
0010
0000
0001
0000
0M0M
0000
,
0000
0000
M000
0000
00M0
0000
0101
0000
0000
0000
1000
0000
0010
0100
0001
1000
,
0001
0010
0100
M00M
0000
M000
00M0
100M
,
0000
1000
0010
0100
0001
0010
0100
M0M0
,
0000
000M
00M0
10M0
0000
0001
0010
0100
,
1000
0010
0100
M00M
0000
000M
00M0
M001
,
0000
0001
0010
0100
1000
0010
0100
M00M
,
0000
0000
M000
0000
00M0
0000
M001
0000
0000
0000
1000
0000
0010
0000
0100
0001
,
1000
0100
1000
MM0M
0000
000M
00M0
110M
,
0000
0000
0001
0000
0010
0000
0100
1000
0001
0000
0100
0000
0010
0000
MM0M
0000
,
0000
M000
0000
M101
0000
1000
0100
0010
,
0011
0011
1001
1001
1010
1010
1001
1001
,
0001
0010
0001
0000
1000
0100
1000
0000
0002
0000
M103
0000
0020
0000
103M
0000
,
2002
0000
0000
0000
3003
M00M
M00M
M00M
,
M00M
0000
0000
0000
;

//---------------dance-single - C.Sanabria----------------
#NOTES:
     dance-single:
     C.Sanabria:
     Beginner:
     1:
     0.092,0.117,0.015,0.000,0.000:
0000
0000
0000
0000
,
0000
0000
0000
0000
,
0000
0000
0000
0000
,
0000
0000
0000
0000
,
0010
0000
0000
0000
,
1000
0000
0000
0000
,
0010
0000
0000
0000
,
0001
0000
0000
0000
,
0010
0000
0000
0000
,
0100
0000
0000
0000
,
0010
0000
0000
0000
,
0100
0000
0000
0000
,
1000
0000
0000
0000
,
0010
0000
0000
0000
,
0001
0000
0000
0000
,
0010
0000
0000
0000
,
0100
0000
0000
0000
,
0010
0000
0000
0000
,
0100
0000
0000
0000
,
0010
0000
0000
0000
,
0001
0000
0000
0000
,
1000
0000
0000
0000
,
0001
0000
0000
0000
,
1000
0000
0000
0000
,
0010
0000
0000
0000
,
0100
0000
0000
0000
,
0010
0000
0000
0000
,
0100
0000
0000
0000
,
0001
0000
0000
0000
,
0001
0000
0000
0000
,
0001
0000
0000
0000
,
0001
0000
0000
0000
,
1000
0000
0000
0000
,
1000
0000
0000
0000
,
1000
0000
0000
0000
,
1000
0000
0000
0000
,
0100
0000
0000
0000
,
0100
0000
0000
0000
,
0010
0000
0000
0000
,
0010
0000
0000
0000
,
0001
0000
0000
0000
,
0001
0000
0000
0000
,
1000
0000
0001
0000
,
1000
0000
0001
0000
,
1001
0000
0000
0000
,
0010
0000
0000
0000
,
0100
0000
0000
0000
,
0010
0000
0000
0000
,
0001
0000
0000
0000
,
1000
0000
0000
0000
,
0001
0000
0000
0000
,
1000
0000
0000
0000
,
0010
0000
0000
0000
,
0100
0000
0000
0000
,
0001
0000
0000
0000
,
0010
0000
0000
0000
,
0001
0000
0000
0000
,
0001
0000
1000
0000
,
0000
0000
1000
0000
,
0001
0000
0000
0000
,
0001
0000
0001
0000
,
0000
0000
0001
0000
,
1000
0000
0000
0000
,
1000
0000
0010
0000
,
0000
0000
0010
0000
,
0100
0000
0000
0000
,
0100
0000
0010
0000
,
0000
0000
0010
0000
,
0001
0000
0000
0000
,
0001
0000
1000
0000
,
0000
0000
1000
0000
,
0010
0000
0000
0000
,
0010
0000
0100
0000
,
0000
0000
0100
0000
,
0010
0000
0000
0000
,
0010
0000
1000
0000
,
0000
0000
1000
0000
,
0001
0000
0000
0000
,
1000
0000
0000
0000
,
1001
0000
0000
0000
;

//---------------dance-single - C.Sanabria----------------
#NOTES:
     dance-single:
     C.Sanabria:
     Hard:
     7:
     0.433,0.415,0.222,0.111,0.208:
0000
0000
0000
0000
,
0000
0000
0000
0000
,
0000
0000
0000
0000
,
0000
0000
0000
0000
,
1000
0000
0000
0010
0000
0000
1000
0000
0001
0000
0000
0010
0000
0000
0001
0000
,
1000
0000
0000
0100
0000
0000
1000
0000
0001
0000
0000
0100
0000
0000
0001
0000
,
1000
0000
0000
1000
0000
0000
1000
0000
0100
0000
0000
0100
0000
0000
0100
0000
,
0010
0000
0000
0010
0000
0000
0010
0000
0001
0000
0000
0001
0000
0000
0001
0000
,
1000
0000
0000
0100
0000
0000
0010
0000
0001
0000
0000
0100
0000
0000
0010
0000
,
1000
0000
0000
0100
0000
0000
1000
0000
0001
0000
0000
0100
0000
0000
0001
0000
,
0010
0000
0000
0100
0000
0000
1000
0000
0010
0000
0000
0100
0000
0000
0001
0000
,
1000
0000
0000
1000
0000
0000
1000
0000
0001
0000
0000
0001
0000
0000
0001
0000
,
1000
0100
1000
0000
0001
0100
0001
0000
,
0010
0100
1000
0000
0010
0100
0001
0000
,
1000
0001
0010
0000
0001
1000
0010
0000
,
1000
0001
0100
0000
0001
1000
0100
0000
,
2000
0000
0000
0010
0000
0000
3001
0000
0000
0000
0001
0000
0100
0000
0000
0000
,
0002
0000
0000
0010
0000
0000
1003
0000
0000
0000
1000
0000
0100
0000
0000
0000
,
1000
0010
0100
0001
1000
0100
1000
0010
,
0000
0100
0000
0001
0000
1000
0100
0000
,
0010
0000
0000
1001
0000
0100
0010
0000
,
1000
0000
0000
1001
0000
0100
0010
0000
,
0001
0000
0000
1001
0000
0100
0010
0000
,
1000
0000
0000
1001
0000
1000
0100
1000
,
0001
0000
0000
0100
0000
0000
0101
0000
0000
0000
0001
0000
0010
0000
0001
0000
,
1000
0000
0000
0100
0000
0000
1100
0000
0000
0000
0001
0000
0010
0000
0100
0000
,
1000
0000
0000
0001
0000
0000
1001
0000
0000
0000
1000
0000
0010
0000
0100
0000
,
0001
0000
0000
1000
0000
0000
1001
0000
0000
0000
0001
0000
0100
0000
0010
0000
,
2000
0000
0000
0001
0000
0000
3001
0000
0000
0000
1000
0000
0100
0000
0010
0000
,
0200
0000
0000
1000
0000
0000
1300
0000
0000
0000
1000
0000
0001
0000
0100
0000
,
0002
0000
0000
1000
0000
0000
1003
0000
0000
0000
1000
0000
0100
0000
0010
0000
,
0002
0000
0000
0100
0000
0000
0103
0000
0000
0000
0100
0000
0001
0000
1000
0000
,
0001
0000
0000
0010
0000
0000
0001
0000
1000
0000
0000
0010
0000
0000
1000
0000
,
0001
0000
0000
0100
0000
0000
0001
0000
1000
0000
0000
0100
0000
0000
1000
0000
,
0010
0000
0000
0100
0000
0000
0001
0000
0010
0000
0000
0100
0000
0000
1000
0000
,
0001
0000
0000
0100
0000
0000
0010
0000
1000
0000
0000
0100
0000
0000
0010
0000
,
0001
0000
0000
0001
0000
0000
0001
0000
0100
0000
0000
0100
0000
0000
0100
0000
,
0010
0000
0000
0010
0000
0000
0010
0000
1000
0000
0000
1000
0000
0000
1000
0000
,
0001
0000
0000
0010
0000
0000
0001
0000
0000
0000
1000
0000
0001
0000
0000
0000
,
1000
0000
0000
0010
0000
0000
1000
0000
0000
0000
0001
0000
1000
0000
0000
0000
,
0001
0000
0000
0100
0000
0000
0102
0000
0000
0000
1000
0000
1003
0000
0000
0000
,
1000
0000
0000
0100
0000
0000
2100
0000
0000
0000
0001
0000
3001
0000
0000
0000
,
1000
0010
0100
0001
1000
0100
0010
0002
,
0000
1003
0000
1001
0000
0000
0000
0000
,
0010
1000
0100
0000
0010
0001
0100
0000
,
0010
1000
0010
0000
0100
0001
0100
0000
,
0010
1000
0100
0000
0010
0001
0100
0000
,
0020
1030
0200
0310
,
0001
0100
0010
0000
1000
0100
0010
0000
,
0001
0100
1000
0000
1000
0100
0001
0000
,
1000
0010
0100
0001
,
1000
0100
0010
0001
,
1000
1100
0001
0101
,
1000
1010
0001
0011
,
2000
0000
3100
0M00
0002
0000
0103
0M00
,
2000
0000
3010
00M0
0002
0000
0013
0000
,
0001
0000
0000
0001
0000
0000
000M
0000
0000
0000
M000
0000
0000
0000
0001
0000
,
0000
0000
1000
0000
0100
0000
0000
0000
1000
0000
0000
1000
0000
0000
M000
0000
,
0000
000M
0000
1000
0000
0001
0100
0000
,
0010
0000
0000
0010
0000
0000
00M0
0000
0000
0000
M000
0000
0000
0000
0010
0000
,
0000
0000
1000
0000
0100
0000
0000
0000
0010
0000
0000
0010
0000
0000
00M0
0000
,
0000
000M
0000
0010
0000
0001
0100
0000
,
0010
0000
0000
1000
0000
0000
000M
0000
0000
0000
0M00
0000
0000
0000
0001
0000
,
0000
0000
0100
0000
0101
0000
0000
0000
0010
0000
0000
0001
0000
0000
M000
0000
,
0000
0M00
0000
1000
0000
0100
1100
0000
,
0100
0000
0000
0010
0000
0000
000M
0000
0000
0000
M000
0000
0000
0000
0001
0000
,
0000
0000
1000
0000
1010
0000
0000
0000
1000
0000
0000
0100
0000
0000
00M0
0000
,
0000
000M
0000
0010
0000
0001
0101
0000
,
0001
0000
0000
0001
0000
0000
M00M
0000
0000
0000
00M0
0000
0000
0000
1001
0000
,
0000
0000
0010
0000
0100
0000
0000
0000
0001
0000
0000
1000
0000
0000
M00M
0000
,
0000
0M00
0000
1001
0000
0100
0010
0000
,
0010
0000
0000
0010
0000
0000
00MM
0000
0000
0000
M000
0000
0000
0000
0011
0000
,
0000
0000
1000
0000
0100
0000
0000
0000
0010
0000
0000
0010
0000
0000
00MM
0000
,
0000
M000
0000
0011
0000
1000
0100
0000
,
0010
0000
0000
0001
0000
0000
0M0M
0000
0000
0000
M000
0000
0000
0000
0101
0000
,
0000
0000
1000
0000
1100
0000
0000
0000
0010
0000
0000
0001
0000
0000
MM00
0000
,
0000
000M
0000
1100
0000
0001
0101
0000
,
1000
0010
1000
0010
0100
0001
0100
0010
,
0000
1100
0000
0101
0000
0000
0000
0000
,
1001
M00M
M00M
M00M
M00M
M00M
M00M
M00M
;
