#TITLE:Duality;
#SUBTITLE:;
#ARTIST:Dimrain47;
#TITLETRANSLIT:;
#SUBTITLETRANSLIT:;
#ARTISTTRANSLIT:;
#GENRE:;
#CREDIT:;
#BANNER:duality-bn.png;
#BACKGROUND:duality-bg.png;
#LYRICSPATH:;
#CDTITLE:;
#MUSIC:Duality.ogg;
#OFFSET:-0.020;
#SAMPLESTART:47.430;
#SAMPLELENGTH:12.000;
#SELECTABLE:YES;
#BPMS:0.000=162.000,480.000=81.000,544.000=162.000;
#STOPS:;
#BGCHANGES:;
#KEYSOUNDS:;

//---------------dance-single - C.Sanabria----------------
#NOTES:
     dance-single:
     C.Sanabria:
     Challenge:
     11:
     0.836,1.000,0.035,1.000,0.578:
0000
0000
0000
0000
,
0000
0000
0000
0000
,
0000
0000
0000
0000
,
0000
0000
0000
0000
,
0000
0000
0000
0000
,
0000
0000
0000
0000
,
0000
0000
0000
0000
,
0000
0000
0000
0000
,
1000
0100
1000
00M0
1000
0010
0100
0001
,
00M0
0001
M000
0001
0010
0100
1000
0010
,
0100
0001
0100
00M0
0100
0010
1000
0010
,
0M00
1000
00M0
0001
0010
0100
0010
0001
,
1001
0000
0000
1100
0000
0000
0000
0000
,
1001
0000
0000
0101
0000
0000
0000
0000
,
0011
0000
0000
1100
0000
0000
0000
0000
,
0220
0000
0000
0330
,
0000
2000
3200
0320
0032
0203
0000
0320
,
0000
2030
0000
3002
0000
0023
0230
2300
,
0000
0000
0000
0000
3002
0203
0320
2030
,
0000
0000
3001
0100
0001
0000
1000
0010
1000
0000
0001
0010
0001
0000
1000
0100
,
1000
0010
0100
0002
0023
0032
0000
2003
,
0000
3200
0000
2300
0000
3020
0000
0230
,
0000
0302
0000
2003
0000
3200
0320
0230
,
0000
0000
1300
0001
0010
0000
0001
1000
0100
0000
1000
0001
0100
0000
0001
1000
,
0010
2000
3002
0203
0320
2030
0000
3002
,
0000
0023
0000
0230
0000
2300
3020
0230
,
0000
0000
0000
0000
0302
0023
2030
3020
,
0000
0000
0000
0000
0032
0203
2300
3200
,
0000
0302
0000
0023
0000
0000
0000
0000
,
0000
0000
0000
0000
0230
2300
3002
0203
,
0000
0000
0000
0000
0320
2030
3002
0023
,
0000
0000
0031
1000
0001
0000
0010
0000
0100
0000
1000
0000
0001
0000
0100
0000
,
0001
0010
0001
0100
M0M0
0100
1000
0010
,
0100
0001
1000
0100
00MM
0100
0001
0010
,
0001
1000
0010
0100
M00M
0100
1000
0001
,
0010
0001
1000
0100
00MM
0100
0001
1000
,
0010
0100
0001
0010
MM00
0010
1000
0100
,
0010
0001
0100
0010
M00M
0010
0001
0100
,
0010
1000
0100
0010
M00M
0010
1000
0001
,
0010
0100
1000
0010
0M0M
0010
0001
0100
,
0010
1000
0200
0010
00M0
0310
0100
1000
,
0001
0100
0020
0100
0M00
0130
0001
1000
,
0001
0010
0200
1000
M000
1300
0100
0010
,
0001
1000
0020
0001
000M
0031
0010
1000
,
0001
1000
0200
0010
00M0
0310
0100
1000
,
0001
1000
0200
0010
00M0
0310
0100
1000
,
0010
0100
0002
1000
M000
1003
0001
1000
,
0001
0010
0001
0010
0100
1000
0100
1000
0001
0100
0001
0100
0010
1000
0010
1000
,
0001
0010
0001
1000
0010
0100
0001
1000
,
0200
0320
0032
2003
,
3001
0100
0001
1000
0010
0100
0001
1000
,
0200
0320
0032
2003
,
3100
0010
0100
1000
0001
0100
0010
1000
,
0002
0023
2030
3020
,
0031
0100
0010
1000
0001
0010
0100
1000
,
0001
0000
0000
0000
0000
0000
0000
0000
0000
0000
0000
0000
0100
0000
0000
0000
0000
0000
0000
0000
0000
0000
0000
0000
0001
0000
0000
0000
0000
0000
0000
0000
0000
0000
0000
0000
0100
0000
0000
0000
0000
0000
0000
0000
0000
0000
0000
0000
0010
0000
0000
0000
0000
0000
0000
0000
0000
0000
0000
0000
1000
0000
0000
0000
0000
0000
0000
0000
0000
0000
0000
0000
0010
0000
0000
0000
0000
0000
0000
0000
0000
0000
0000
0000
1000
0000
0000
0000
0000
0000
0000
0000
0000
0000
0000
0000
0001
0000
0000
0000
0000
0000
1000
0000
0000
0000
0000
0000
0001
0000
0000
0000
0000
0000
0000
0000
0000
0000
0000
0000
1000
0000
0000
0000
0000
0000
0000
0000
0000
0000
0000
0000
0001
0000
0000
0000
0000
0000
0000
0000
0000
0000
0000
0000
1000
0000
0000
0000
0000
0000
0000
0000
0100
0000
0000
0000
0000
0000
0000
0000
1000
0000
0000
0000
0000
0000
0000
0000
0100
0000
0000
0000
0000
0000
0000
0000
1000
0000
0000
0000
0000
0000
0000
0000
0100
0000
0000
0000
0000
0000
0000
0000
,
1000
0000
0001
0010
0100
1000
0001
1000
0001
0100
0001
1000
0010
1000
0001
0010
,
0200
0000
0000
2300
3020
0230
0302
2003
,
0000
3001
0100
0010
1000
0001
0010
0001
1000
0100
1000
0001
0100
0001
1000
0010
,
2000
0000
0000
3020
2030
3200
0320
0032
,
0000
1003
0100
0010
0001
0010
0100
1000
0001
0100
0001
1000
0100
1000
0001
0010
,
0002
0000
0000
0000
0000
1003
0100
0010
0001
0100
0001
1000
0010
1000
0001
0010
,
0004
1000
0000
1000
0000
1000
0000
1003
0001
0100
0010
1000
0001
0100
0010
2000
,
0002
0000
0000
0000
0000
0000
0000
0000
3003
0000
0MM0
0000
0000
0MM0
0000
0000
,
2000
3100
0010
0002
0103
0010
2000
3001
,
1000
0000
0100
0000
1000
0000
0100
0000
0010
0000
0001
0000
0010
0000
0100
1000
,
0002
0000
0013
0000
0100
0000
2000
0000
3010
0000
0100
0000
0002
0000
1003
0001
,
0200
0301
1000
0020
0130
0100
0002
2003
,
3002
0103
0010
2000
3100
0010
0002
0013
,
0100
1000
0010
0100
0001
0010
1000
0010
,
0002
0103
0010
2000
3001
0010
0200
1300
,
0002
1000
M000
1003
0001
0100
1000
0100
,
0001
2000
3200
0320
0032
0203
0000
0320
,
0000
2030
0000
3002
0000
0023
0230
2300
,
0000
0000
0000
0000
3002
0203
0320
2030
,
0000
0000
3001
0100
0010
0000
1000
0100
0010
0000
0001
1000
0010
0000
1000
0001
,
1000
0010
0100
0002
0023
0032
0000
2003
,
0000
3200
0000
2300
0000
3020
0000
0230
,
0000
0302
0000
2003
0000
3200
0320
0230
,
0000
0000
1300
0100
1000
0000
0100
1000
0001
0000
0100
0001
0100
0000
0001
1000
,
0010
2000
3002
0203
0320
2030
0000
3002
,
0000
0023
0000
0230
0000
2300
3020
0230
,
0000
0000
0000
0000
0302
0023
2030
3020
,
0000
0000
0000
0000
0032
0203
2300
3200
,
0000
0302
0000
0023
0000
0000
0000
0000
,
0000
0000
0000
0000
0230
2300
3002
0203
,
0000
0000
0000
0000
0320
2030
3002
0023
,
0000
0000
0031
1000
0001
0000
0010
0000
0100
0000
1000
0001
1000
0000
0010
0000
,
0100
0001
0010
1000
0M0M
1000
0010
0001
,
1000
0001
0100
1000
00MM
1000
0100
0001
,
1000
0100
0010
1000
0M0M
1000
0010
0100
,
1000
0001
0100
1000
00MM
1000
0100
0001
,
1000
0100
0010
0001
MM00
0001
0100
0010
,
1000
0001
0100
1000
00MM
1000
0100
0001
,
1000
0100
0010
0001
MM00
0001
0010
1000
,
0010
0001
0100
1000
00MM
1000
0100
0001
,
1000
0100
1000
0010
0M0M
0010
1000
0100
,
0010
0001
1000
0010
0M0M
0010
1000
0001
,
0010
0100
1000
0010
0M0M
0010
1000
0001
,
1000
0100
0010
0001
MM00
0001
0100
0010
,
1000
0001
1000
0100
00MM
0100
0001
1000
,
0001
0010
0100
0010
M00M
0010
1000
0001
,
1000
0010
0100
0010
M00M
0010
0001
0100
,
0010
1000
0010
1000
0001
0010
0001
0010
0100
1000
0100
1000
0001
0100
0001
0100
,
0001
0010
0001
1000
0010
0100
0001
1000
,
0200
0320
0032
2003
,
3001
0100
0001
1000
0010
0100
0001
1000
,
0200
0320
0032
2003
,
3100
0010
0100
1000
0001
0100
0010
1000
,
0002
0023
2030
3020
,
0031
0100
0010
1000
0001
0010
0100
1000
,
1000
0000
0000
0000
0000
0000
0000
0000
0000
0000
0000
0000
0100
0000
0000
0000
0000
0000
0000
0000
0000
0000
0000
0000
1000
0000
0000
0000
0000
0000
0000
0000
0000
0000
0000
0000
0100
0000
0000
0000
0000
0000
0000
0000
0000
0000
0000
0000
0010
0000
0000
0000
0000
0000
0000
0000
0000
0000
0000
0000
0001
0000
0000
0000
0000
0000
0000
0000
0000
0000
0000
0000
0010
0000
0000
0000
0000
0000
0000
0000
0000
0000
0000
0000
0001
0000
0000
0000
0000
0000
0000
0000
0000
0000
0000
0000
1000
0000
0000
0000
0000
0000
0100
0000
0000
0000
0000
0000
1000
0000
0000
0000
0000
0000
0000
0000
0000
0000
0000
0000
0001
0000
0000
0000
0000
0000
0000
0000
0000
0000
0000
0000
0010
0000
0000
0000
0000
0000
0000
0000
0000
0000
0000
0000
0001
0000
0000
0000
0000
0000
0000
0000
1000
0000
0000
0000
0000
0000
0000
0000
0001
0000
0000
0000
0000
0000
0000
0000
1000
0000
0000
0000
0000
0000
0000
0000
0001
0000
0000
0000
0000
0000
0000
0000
1000
0000
0000
0000
0000
0000
0000
0000
,
0001
0010
0001
0010
0100
1000
0001
1000
0001
0100
0001
1000
0010
1000
0001
1000
,
0001
0100
0010
1000
0001
1000
0100
1000
0001
0010
0001
1000
0001
0100
0010
1000
,
0001
0100
0010
1000
0001
1000
0010
0100
0001
0100
0001
1000
0010
1000
0001
0010
,
0001
0100
0010
1000
0001
1000
0010
0100
0001
1000
0100
0010
0100
1000
0001
1000
,
0001
0010
0100
1000
0001
0010
0100
0010
0001
0010
0100
1000
0001
0010
0100
0010
,
0001
1000
0001
1000
0010
0100
0001
0100
0001
0010
0100
1000
0001
0010
0100
1000
,
0001
0100
0010
0100
0001
1000
0100
0010
0004
0103
0040
1030
0400
1300
0040
0130
,
0001
0000
0100
0000
0010
0000
1000
0000
0001
0000
0100
0000
0010
0000
1000
0000
0001
0100
0001
0000
1000
0000
0010
0000
0100
0000
0001
0000
1000
0000
0010
0000
,
0100
0000
0000
0000
0000
0000
0001
0000
0000
1000
0000
0000
0001
0000
0000
0000
0000
0000
0010
0000
0000
0200
0000
0000
0000
0000
0000
2300
0000
0000
0000
0000
0000
3002
0000
0000
0000
0000
0000
0203
0000
0000
0000
0000
0000
0310
2000
0000
,
0000
0000
3001
0000
0010
0000
0200
0000
0000
0000
0000
0000
0000
0000
0310
0001
0200
0000
0000
0000
0320
0000
2030
0000
0000
0000
3002
0000
0000
0000
0023
0000
,
0000
0000
0000
0032
2003
3200
0000
0320
0030
0002
0003
2000
3000
0020
0030
0200
,
0000
0000
0000
0000
0000
0000
0000
0000
0000
0000
0320
2030
3020
2030
3002
0203
,
0310
0000
1000
0000
0001
0010
0001
0100
0000
0010
0000
0100
0001
1000
0001
0010
,
0000
0100
0010
0100
1000
0010
0100
0001
0010
0000
0100
1000
0000
0001
0000
1000
,
0200
0300
0020
0030
0200
2300
3002
0203
0300
0020
0030
0200
0302
2003
3200
0320
,
0030
0200
0320
0230
2300
3002
2003
3200
0320
0030
0200
2300
3000
0002
0003
0200
,
0302
0000
0000
0000
0203
0320
2030
3200
0300
2000
3000
0020
0030
0200
0300
0002
,
0000
0000
0000
0000
0000
0000
0000
0000
0000
0000
0000
0000
0000
0000
0000
0203
0000
0000
0320
0000
0000
2030
0000
0000
0000
0000
0000
0000
0000
0000
0000
0000
0000
0000
0000
0000
3001
0020
0000
0230
0000
0000
2300
0000
0000
3002
0000
0000
,
0000
0003
0000
0002
0203
0302
0003
2000
3000
0200
0300
0020
0030
0002
0003
2000
,
0000
0000
0000
0000
3200
2300
3020
0230
0300
0200
0320
2030
3002
0203
0320
2030
,
3010
0000
1000
0000
0001
0010
0001
0100
0000
0010
0000
0100
0001
1000
0001
0010
,
0000
0100
0010
0100
1000
0010
0100
0001
0010
0000
0100
1000
0000
0001
0000
1000
,
0200
0300
0020
0030
0200
2300
3002
0203
0300
0020
0030
0200
0302
2003
3200
0320
,
0030
0200
0320
0230
2300
3002
2003
3200
0300
0020
0030
0200
0300
0000
0000
0000
,
2002
3003
0000
0000
M00M
0000
0000
0000
0000
0000
0000
0000
0000
0000
0000
0000
;

//---------------dance-single - C.Sanabria----------------
#NOTES:
     dance-single:
     C.Sanabria:
     Beginner:
     3:
     0.177,0.181,0.049,0.000,0.000:
0000
0000
0000
0000
,
0000
0000
0000
0000
,
0000
0000
0000
0000
,
0000
0000
0000
0000
,
0000
0000
0000
0000
,
0000
0000
0000
0000
,
0000
0000
0000
0000
,
0000
0000
0000
0000
,
1000
0000
0000
0000
,
1000
0000
0000
0000
,
0001
0000
0000
0000
,
0001
0000
0000
0000
,
1000
0000
0000
0000
,
0001
0000
0000
0000
,
0010
0000
0000
0000
,
1001
0000
0000
0000
,
1000
1000
0000
0000
,
0001
0001
0000
0000
,
0010
0010
0000
0000
,
0100
0100
0000
0000
,
1000
1000
0000
0000
,
0001
0001
0000
0000
,
0100
0100
0000
0000
,
0010
0010
0000
0000
,
1000
0000
1000
0000
,
0001
0000
0000
0000
,
0001
0000
0001
0000
,
1000
0000
0000
0000
,
0010
0000
0010
0000
,
0100
0000
0000
0000
,
0001
0000
1000
0000
,
1001
0000
0000
0000
,
0000
0001
0000
0001
,
0000
1000
0000
1000
,
0000
0001
0000
0001
,
0000
0010
0000
0100
,
0000
1000
0000
1000
,
0000
0001
0000
0001
,
0000
1000
0000
1000
,
0000
0010
0000
0100
,
0000
0001
0001
0001
,
0000
0001
0001
0001
,
0000
1000
1000
1000
,
0000
0100
0100
0100
,
0000
0001
0001
0001
,
0000
0001
0001
0001
,
0000
1000
1000
1000
,
0000
0010
0010
0010
,
0010
0000
1000
0000
,
0001
0001
0001
0000
,
0010
0000
0001
0000
,
1000
1000
1000
0000
,
0100
0000
1000
0000
,
0001
0001
0001
0000
,
0100
0000
0001
0000
,
1000
1000
1000
0000
,
0010
0000
0010
0000
,
0100
0000
0100
0000
,
1000
0000
1000
0000
,
0001
0000
0001
0000
,
0100
0100
0100
0000
,
0100
0100
0100
0000
,
0010
0000
0100
0000
,
1001
0000
0000
0000
,
1000
0000
1000
0000
,
0100
0000
0100
0000
,
0001
0000
0001
0000
,
0010
0000
0010
0000
,
1000
0000
1000
0000
,
0010
0000
0010
0000
,
0001
0000
0001
0000
,
0100
0000
0000
0000
,
1000
0000
1000
0000
,
0001
0000
0001
0000
,
0100
0000
0010
0000
,
1000
0000
1000
0000
,
0001
0000
0001
0000
,
0010
0000
0100
0000
,
1000
0000
0010
0000
,
0100
0000
0100
0000
,
0001
0000
0010
0000
,
0100
0000
0100
0000
,
1000
0000
0010
0000
,
0100
0000
0100
0000
,
0001
0000
0000
0000
,
1000
0000
0000
0000
,
0010
0000
0100
0000
,
1001
0000
0000
0000
,
0000
0010
0000
0010
,
0000
0100
0000
0100
,
0000
0001
0000
0001
,
0000
1000
0000
1000
,
0000
0100
0000
0100
,
0000
0010
0000
0010
,
0000
0001
0000
0001
,
0000
1000
0000
1000
,
0000
0001
0001
0001
,
0000
1000
1000
1000
,
0000
0010
0010
0010
,
0000
0100
0100
0100
,
0000
0001
0001
0001
,
0000
1000
1000
1000
,
0000
0100
0100
0100
,
0000
0010
0000
0010
,
0100
0000
0100
0000
,
1000
0001
1000
0000
,
0010
0000
0100
0000
,
0001
1000
0001
0000
,
0010
0000
0100
0000
,
1000
0010
1000
0000
,
0001
0000
0100
0000
,
0010
1000
0010
1000
,
0010
0000
0010
0000
,
0100
0000
0100
0000
,
0001
0000
0001
0000
,
1000
0000
1000
0000
,
0100
0000
0100
0000
,
0010
0000
0010
0000
,
0001
0000
1000
0000
,
0010
0000
0110
0000
,
1001
0000
1000
0000
,
0001
0000
0010
0000
,
0100
0000
1000
0000
,
0001
0000
0001
0000
,
0110
0000
1000
0000
,
0100
0000
0001
0000
,
0110
0000
0001
0000
,
0010
0000
1000
0000
,
0100
0100
0100
0000
,
0010
0010
0010
0000
,
0001
0000
0001
0000
,
1000
0000
1000
0000
,
1000
0000
0010
0000
,
0001
0000
1001
0000
,
0001
0000
0100
0000
,
1000
0000
0110
0000
,
1001
0000
0000
0000
;
