#TITLE:Double Dutch Darkies;
#SUBTITLE:(3k Edit);
#ARTIST:TNT;
#TITLETRANSLIT:;
#SUBTITLETRANSLIT:;
#ARTISTTRANSLIT:;
#GENRE:;
#CREDIT:;
#BANNER:double dutch darkies-bn.png;
#BACKGROUND:double dutch darkies-bg.png;
#LYRICSPATH:;
#CDTITLE:;
#MUSIC:Double Dutch Darkies (3k Edit).ogg;
#OFFSET:-0.060;
#SAMPLESTART:25.630;
#SAMPLELENGTH:12.000;
#SELECTABLE:YES;
#DISPLAYBPM:75.000:150.000;
#BPMS:0.000=150.000,111.000=75.000,112.000=150.000,123.000=75.000,125.000=150.000,126.000=300.000,127.000=150.000,128.000=300.000,129.000=150.000,130.000=300.000,135.500=150.000,136.000=300.000,137.000=75.000,139.000=150.000,140.000=300.000,141.000=150.000,142.000=300.000,143.000=150.000,144.000=300.000,151.000=150.000,268.000=300.000,271.000=150.000,276.000=300.000,279.000=150.000,284.000=300.000,287.000=150.000,292.000=300.000,299.000=150.000,300.000=300.000,303.000=150.000,304.000=300.000,307.000=150.000,308.000=300.000,311.000=150.000;
#STOPS:126.000=0.100
,126.500=0.100
,128.000=0.100
,128.500=0.100
,130.000=0.100
,130.500=0.100
,131.000=0.100
,131.500=0.100
,132.000=0.100
,132.500=0.100
,133.000=0.200
,134.000=0.100
,134.500=0.100
,135.000=0.100
,136.000=0.100
,136.500=0.100
,140.000=0.100
,140.500=0.100
,142.000=0.100
,142.500=0.100
,144.000=0.100
,144.500=0.100
,145.000=0.100
,145.500=0.100
,146.000=0.100
,146.500=0.100
,147.000=0.100
,147.500=0.100
,148.000=0.100
,148.500=0.100
,149.000=0.100
,149.500=0.100
,150.000=0.100
,150.500=0.100
,268.000=0.100
,268.500=0.100
,269.000=0.100
,269.500=0.100
,270.000=0.100
,270.500=0.100
,276.000=0.100
,276.500=0.100
,277.000=0.100
,277.500=0.100
,278.000=0.100
,278.500=0.100
,284.000=0.100
,284.500=0.100
,285.000=0.100
,285.500=0.100
,286.000=0.100
,286.500=0.100
,292.000=0.100
,292.500=0.100
,293.000=0.100
,293.500=0.100
,294.000=0.100
,294.500=0.100
,295.000=0.200
,296.000=0.200
,297.000=0.100
,297.500=0.100
,298.000=0.100
,298.500=0.100
,300.000=0.100
,300.500=0.100
,301.000=0.100
,301.500=0.100
,302.000=0.100
,302.500=0.100
,304.000=0.100
,304.500=0.100
,305.000=0.100
,305.500=0.100
,306.000=0.100
,306.500=0.100
,308.000=0.100
,308.500=0.100
,309.000=0.100
,309.500=0.100
,310.000=0.100
,310.500=0.100
;
#BGCHANGES:;
#KEYSOUNDS:;

//---------------dance-single - C.Sanabria----------------
#NOTES:
     dance-single:
     C.Sanabria:
     Challenge:
     9:
     0.772,1.000,0.037,1.000,0.254:
0000
0000
0000
0000
,
0000
0000
0000
0000
,
0000
0000
0000
0000
,
0000
0000
0000
0000
,
0000
0000
0000
0000
,
0000
0000
0000
0000
,
0000
0000
0000
0000
,
0000
0000
0000
0000
,
2000
3000
0100
0000
2000
3000
0100
0000
2000
3000
0100
0000
2000
3000
0000
0000
,
2000
3000
0000
0000
2000
3000
0000
0000
2000
3000
0000
0000
2000
3000
0000
0000
,
0002
0003
0100
0000
0002
0003
0100
0000
0002
0003
0100
0000
0002
0003
0000
0000
,
0002
0003
0000
0000
0002
0003
0000
0000
0002
0003
0000
0000
0002
0003
0000
0000
,
2000
3000
0010
0000
2000
3000
0001
0000
2000
3000
0100
0000
2000
3000
0000
0000
,
2000
3000
0000
0000
2000
3000
0000
0000
2000
3000
0000
0000
2000
3000
0000
0001
,
0100
0000
0010
0000
1000
0001
0000
0001
1000
0000
0100
0000
0010
0000
0001
1000
,
0002
0100
0203
0010
0320
1000
2030
0000
,
3001
0010
0001
0100
0010
1000
0001
1000
,
0010
0100
0001
0010
0001
0100
0010
1010
,
1000
0001
0010
0100
1000
0010
1000
0100
,
0010
0000
0001
0000
0100
0000
0010
0000
1000
0000
0001
0000
2000
000M
3020
0M00
,
1030
0100
0010
0001
0100
0001
0010
0100
,
1000
0001
1000
0010
0100
0001
0010
0011
,
0001
0100
0010
1000
0100
1000
0010
0100
,
0002
00M0
0003
0000
0002
M000
0003
0000
0002
0M00
0003
0000
0002
0000
2003
0000
,
3001
0010
0100
1000
0010
0001
0010
1000
,
0100
0010
0001
0100
0001
0010
0100
1100
,
0001
0001
0100
0100
0010
1000
0001
1000
,
0100
0000
0000
0000
0001
0000
0000
0000
0100
0000
0000
0000
1000
0000
0000
0000
0010
0000
0000
0000
0100
0000
0000
0000
0001
0000
1000
0001
20M0
0000
0M00
0000
,
3001
0010
1000
0010
0001
0100
0010
1000
,
0100
1000
0010
0100
0001
0011
0010
0100
,
1000
0000
0010
0000
0001
0000
0010
0000
1000
0000
0001
0000
1000
0100
0010
0001
,
1000
0100
1000
0100
1000
0000
0010
0000
0200
0000
0302
0000
1003
0000
0100
0000
,
2000
3002
0103
0010
2000
3200
0320
0032
,
2003
3200
1300
M000
2000
3020
0230
0301
,
2000
0000
0000
0000
3200
0000
0000
0000
0310
0000
0001
0000
1000
0100
1000
0000
0001
0010
0001
0000
1000
0100
1000
0000
0001
0000
0000
0000
0010
0000
0000
0000
,
0200
2300
3001
0100
0002
2003
3100
0010
,
0002
0203
0320
2030
3002
0203
0304
0000
,
0403
0000
0340
0000
4030
0000
3002
0013
,
0002
1003
0002
0203
0320
0030
0000
0000
,
0000
0000
0000
0000
,
0000
0000
0000
0000
0000
0000
1000
1000
,
0100
0010
0002
0M03
M002
0023
0130
0100
,
1000
0001
02M0
M320
203M
3M02
1003
1000
,
0100
0010
0002
0M03
M002
0203
0310
0010
,
0010
0000
0010
0000
1000
0000
1000
0000
0001
0010
0100
1000
0001
0000
0001
0000
,
0100
0010
2000
3M00
200M
3020
0130
0100
,
0001
1000
02M0
032M
M032
2M03
3001
0001
,
0100
0010
2000
3M00
200M
3200
0310
0010
,
0010
0010
0001
0001
0020
0230
1300
0000
,
0010
0000
0000
0000
1000
0000
0000
0000
0001
0000
0000
1000
0100
0000
0000
0000
,
0010
0000
0000
0000
0001
0000
0100
0000
0010
0000
1000
0001
1000
0000
0000
0000
,
0100
0000
0000
0000
0010
0000
0000
0000
0001
0000
0000
1000
0100
0000
1000
0000
,
0001
0000
0000
0001
0100
0000
0000
0010
1000
0000
0001
1000
0001
0000
0010
0000
,
0100
1000
0001
0010
0100
1000
0001
0100
,
0010
0000
1000
0000
0001
0000
0100
0000
0010
0000
1000
0000
0001
0100
0010
1000
,
0001
0000
0000
1000
0000
0000
0010
0000
0000
0100
0000
0000
0001
0000
0000
1000
0000
0000
0001
0000
0000
0100
0000
0000
0010
0000
0000
1000
0000
0000
0001
0000
0000
1000
0000
0000
0004
0000
0400
0000
0000
0000
0000
0000
0000
0000
0000
0000
,
0000
0000
0000
0303
0M0M
0000
1000
0100
,
0010
0001
1000
M000
1000
0010
1000
0100
,
0010
0001
0200
0302
2003
3020
1030
0100
,
0010
0001
1000
M000
1000
0001
0010
0010
,
0010
0000
0010
0000
0100
0000
0100
0000
0100
1000
0001
1000
0010
0000
0100
0000
,
0001
1000
0001
000M
0001
0010
0100
1000
,
0001
1000
0020
0230
0302
2003
3100
0100
,
0010
0001
1000
M000
1000
0010
0100
0100
,
0100
0000
0100
0000
0001
0000
0001
0000
0001
0100
0010
1000
0M00
0000
0000
0000
,
0000
0000
0000
0000
0000
0000
000M
0M00
,
00M0
0000
M000
000M
2000
0000
3001
1000
,
0002
0203
0320
2030
3002
0023
0130
1000
,
0100
1000
0000
0000
0002
0000
1003
0001
,
2000
3200
0320
0032
0203
0302
1003
0100
,
1000
0000
0010
1000
0000
0000
0001
0000
1000
0001
0000
0000
2000
0000
0000
0000
0000
0000
3001
0000
0000
1000
0000
0000
,
0002
0203
0320
2030
3200
2300
3001
0100
,
0001
0100
0000
0000
0002
0000
1003
0001
,
2000
3020
0230
0302
0023
0230
2300
3000
,
2000
3000
2000
3020
0230
0302
1003
0100
,
0020
0032
2003
3002
0023
0230
1300
0001
,
2000
3200
0320
0032
2003
3002
0013
0100
,
2000
3020
0230
0302
2003
3002
0103
0010
,
1000
0000
0000
0000
0100
0000
1000
0000
0000
0000
0000
0000
0001
0000
0000
0000
1000
0000
0001
0000
0000
0000
0000
0000
0010
0000
0000
0000
0000
0000
0200
0000
0000
2300
0000
0000
3002
0000
0000
0103
0000
0000
0001
0000
0000
0100
0000
0000
,
0001
0100
0001
0100
0001
0100
0001
0100
0001
0100
0020
2030
3002
0013
0001
0010
,
0001
0010
0001
0010
0001
0010
0001
0010
0001
0010
0001
0010
0001
0000
0001
0000
,
0100
0000
0100
0000
0010
0000
0010
0000
1000
0000
1000
0000
0200
M000
0310
0000
,
0200
000M
0310
0000
0002
00M0
1003
0000
1001
0000
0000
0000
0000
0000
0000
0000
;

//---------------dance-single - C.Sanabria----------------
#NOTES:
     dance-single:
     C.Sanabria:
     Beginner:
     1:
     0.118,0.123,0.000,0.000,0.000:
0000
0000
0000
0000
,
0000
0000
0000
0000
,
0000
0000
0000
0000
,
0000
0000
0000
0000
,
0000
0000
0000
0000
,
0000
0000
0000
0000
,
0000
0000
0000
0000
,
0000
0000
0000
0000
,
1000
1000
1000
0000
,
0000
0000
0000
0000
,
0001
0001
0001
0000
,
0000
0000
0000
0000
,
1000
1000
1000
0000
,
0000
0000
0000
0000
,
0001
0001
0001
0000
,
0000
0000
0000
0000
,
0010
0000
0010
0000
,
0010
0000
0000
0000
,
0100
0000
0100
0000
,
0100
0000
0000
0000
,
0001
0000
0001
0000
,
0001
0000
0000
0000
,
1000
0000
1000
0000
,
1000
0000
0000
0000
,
0100
0000
0100
0000
,
0100
0000
0000
0000
,
0010
0000
0010
0000
,
0010
0000
0000
0000
,
0001
0000
0001
0000
,
1000
0000
1000
0000
,
0001
0000
0001
0000
,
0000
0000
1000
0000
,
1000
0000
0001
0000
,
0001
0000
1000
0000
,
1000
0000
0000
1000
,
0000
1000
0000
0001
,
0000
0001
0000
1000
,
0000
1000
0000
0001
,
0000
0001
0000
0000
,
0000
0000
0000
0000
,
0000
0000
0000
0010
,
0000
0010
0000
0010
,
0000
0000
0000
0100
,
0000
0100
0000
0100
,
0000
0000
0000
1000
,
0000
1000
0000
1000
,
0000
0000
0000
0001
,
0000
0001
0000
0001
,
0000
0000
0000
0100
,
0000
0000
0000
0010
,
0000
0000
0000
0100
,
0000
0000
0000
0010
,
0000
0000
0000
1000
,
0000
0000
0000
0001
,
0000
0000
0000
1000
,
0000
1000
0000
0001
,
0000
0000
0000
0010
,
0000
0010
0000
0100
,
0000
0100
0000
0010
,
0000
0010
0000
0100
,
0000
0100
0000
1000
,
0000
1000
0000
0001
,
0000
0001
0000
1000
,
0000
1000
0000
0001
,
0000
0001
0000
0000
,
0000
0000
0000
0000
,
0000
0000
0000
0100
,
0000
0000
0000
0100
,
0000
0000
0000
0010
,
0000
0000
0000
0010
,
0000
0000
0000
1000
,
0000
0000
0000
1000
,
0000
0000
0000
0001
,
0000
0000
0000
0001
,
0000
0000
0000
1000
,
0000
1000
0000
1000
,
0000
1000
0000
1000
,
0000
1000
0000
1000
,
0000
1000
0000
0001
,
0000
0001
0000
0001
,
0000
0001
0000
0001
,
0000
0001
0000
0001
,
0000
0001
0000
0000
;

//---------------dance-single - C.Sanabria----------------
#NOTES:
     dance-single:
     C.Sanabria:
     Hard:
     7:
     0.600,0.801,0.045,0.746,0.026:
0000
0000
0000
0000
,
0000
0000
0000
0000
,
0000
0000
0000
0000
,
0000
0000
0000
0000
,
0000
0000
0000
0000
,
0000
0000
0000
0000
,
0000
0000
0000
0000
,
0000
0000
0000
0000
,
1000
0100
1000
0001
1000
0010
0100
0000
,
0002
0023
0230
2300
,
3001
0100
0001
1000
0001
0010
0100
0000
,
2000
3020
0230
0302
,
1003
0100
1000
0001
1000
0010
1000
0000
,
0020
0230
0302
2003
,
3001
0100
0001
0000
1000
0100
1000
0000
,
0010
0010
0100
0100
,
0001
0010
0001
0000
1000
0100
1000
0000
,
0001
0100
1000
0100
0001
2000
0000
3001
,
0100
0000
0010
1000
0100
0000
0010
0001
,
2000
0000
3100
0M00
0002
0000
0103
0M00
,
1000
0010
0100
0000
0001
0010
0100
0000
,
1000
0100
0001
0100
1000
0002
0000
0103
,
0010
0000
1000
0100
0001
0000
0001
0100
,
1000
0020
0000
0230
0000
0302
0000
0003
,
1000
0100
1000
0000
0001
0100
0001
0000
,
0010
0001
0100
0000
0010
1000
0100
0000
,
1000
0010
1000
0010
1000
0001
1000
0001
,
1000
0100
0001
0100
1000
0010
0100
0M00
,
0100
0010
0100
0010
1000
0001
1000
0001
,
0010
0100
1000
0002
0000
1003
0100
0000
,
0010
0000
0001
0000
0100
0000
0000
0000
0101
0000
0000
0000
1000
0010
1000
0000
,
0001
0100
0001
0000
1000
0000
0100
0000
4000
0000
0000
0000
3002
0000
0000
0000
,
0403
0000
0310
1000
0004
0000
0043
0000
,
0430
0000
1300
00MM
1001
0001
0100
0000
,
1001
1000
0100
1000
0001
0100
0010
1000
,
0004
0000
0203
0000
0340
0000
1030
0001
,
4000
0000
3400
0000
0340
0000
0031
0100
,
0010
1000
0001
0100
0010
1000
0002
0013
,
0200
1300
0002
0203
0320
0030
0000
0000
,
0000
0000
0000
0000
,
0000
0000
0000
0000
0000
0000
1000
1000
,
0010
0100
0002
0000
1003
000M
1000
1000
,
0010
0100
0001
0001
0010
0100
1000
1000
,
0001
0100
0020
0000
1030
00M0
1000
0100
,
1000
0000
0100
0000
0010
0000
0001
0000
1000
0100
1000
0000
0001
0000
0001
0000
,
0100
0010
2000
0000
3001
M000
0001
0001
,
0100
0010
1000
1000
0100
0010
0001
0001
,
1000
0010
0200
0000
0301
0M00
0001
0010
,
0001
0010
0100
1000
0100
1000
0001
0000
,
0100
0010
1000
0001
,
0001
0000
1000
0100
1000
0100
1000
0000
,
0010
0000
0100
0000
0001
0000
0010
0001
,
0100
0000
0010
1000
0100
0000
1000
1000
,
0010
0100
0002
0000
1003
0MM0
0001
0010
,
0001
0010
0200
1000
1300
0M00
0001
0100
,
1000
0000
1000
0100
0001
0000
0020
0130
,
2000
3001
0100
0010
1001
0000
1000
0100
,
1000
0100
0020
0000
0031
1000
0001
0100
,
0001
0100
0010
1000
0010
1000
0001
0010
,
0001
0010
0200
0000
1300
0001
1000
1000
,
1000
1000
0001
0001
0001
0001
1000
0100
,
1000
0100
0020
0000
0031
1000
0001
0100
,
0001
0100
0010
1000
0010
1000
0001
0010
,
0001
0010
0200
0000
1300
0001
1000
1000
,
0010
0100
0001
0001
0001
1000
0000
0000
,
00M0
0M00
000M
0000
,
0M00
0000
0000
0000
MMMM
0000
1001
1000
,
0200
0320
0032
2003
3002
2003
3020
0030
,
0020
0030
0000
0000
MMMM
0000
1000
0001
,
0200
0320
2030
3002
2003
3002
0023
0230
,
1300
0100
1000
0000
0001
0100
0001
0000
2000
0000
3000
0000
0001
0000
0100
0000
,
0020
2030
3200
0320
0230
0320
0032
0003
,
0002
0003
0000
0000
MMMM
0000
1000
0100
,
0020
0032
0203
0320
0230
0320
1030
0000
,
1001
0000
0002
0023
0230
2300
3004
0MM0
,
2003
3020
0230
0302
2003
3200
4300
00MM
,
3002
0203
0320
2030
3200
2300
3004
0MM0
,
2003
3200
0320
0032
0203
0302
4003
0MM0
,
3001
0100
0001
0000
1000
0100
1000
0000
0010
0000
0100
0000
0002
0000
0000
0000
,
1003
0100
0001
0100
1000
0001
2000
0000
,
3001
0010
1000
0010
0001
1000
0002
0000
,
1003
0010
0100
0001
0010
0100
2000
3010
,
0200
0301
2000
3200
0320
0030
0000
0000
;
