#TITLE:Don't Slam The Cinema;
#SUBTITLE:(Dj 3k Edit);
#ARTIST:Zedd feat. Skrillex;
#TITLETRANSLIT:;
#SUBTITLETRANSLIT:;
#ARTISTTRANSLIT:;
#GENRE:;
#CREDIT:;
#BANNER:;
#BACKGROUND:;
#LYRICSPATH:;
#CDTITLE:;
#MUSIC:Don't Slam The Cinema (Dj 3k Edit).ogg;
#OFFSET:-0.060;
#SAMPLESTART:88.990;
#SAMPLELENGTH:12.000;
#SELECTABLE:YES;
#BPMS:0.000=130.000,64.000=65.000,80.000=130.000,108.250=115.000,108.500=100.000,108.750=85.000,109.000=60.000,109.250=44.100,110.000=130.000,140.250=130.000,154.000=130.000,174.000=65.000,182.000=130.000,204.000=130.000,212.000=130.000,220.000=130.000,226.000=65.000,228.000=130.000,352.000=65.000,354.000=130.000;
#STOPS:;
#BGCHANGES:;
#KEYSOUNDS:;

//---------------dance-single - C.Sanabria----------------
#NOTES:
     dance-single:
     C.Sanabria:
     Challenge:
     11:
     0.779,1.000,0.144,0.772,0.783:
0000
0000
0000
0000
0000
1000
0100
0020
,
0000
0031
0100
0010
2000
0000
3002
0000
,
1003
0000
0000
0000
0100
0000
0010
0000
0000
0001
0000
0000
1000
0000
0200
0000
,
0000
1300
0010
0100
0002
0000
2003
0000
,
3001
0000
0000
0000
0100
0000
0010
0000
0000
1000
0000
0000
0010
0000
0200
0000
,
0000
0302
0000
2003
0000
3200
0000
0300
,
1000
0000
0000
0000
0010
0000
0100
0000
0000
0001
0000
0000
0100
0000
0020
0000
,
0000
1030
0002
0000
0023
0000
0230
0000
,
1300
0000
0000
1000
0100
0000
0010
0000
0000
0001
0000
0000
0010
0000
0100
0000
,
1000
0000
0000
0001
0100
0000
0010
0000
0000
1000
0000
0000
0010
0000
0100
0000
,
0001
0000
0000
1000
0100
0000
0010
0000
0100
1000
0000
0000
0001
0000
0100
0000
,
0010
0000
0000
1000
0100
0000
0001
0000
0100
1000
0000
0000
0010
0000
0100
0000
,
0001
0000
0000
0001
0100
0000
0010
0000
1000
0001
0000
0000
0001
0000
0010
0000
,
0100
0000
0000
1000
0001
0000
0100
0000
0010
1000
0000
0000
1000
0000
0100
0000
,
0010
0000
0000
0010
0001
0000
0100
0000
0010
1000
0000
0000
1000
0000
0001
0000
,
0010
0000
0000
0000
0000
0000
0000
0000
0000
0100
0000
0000
1000
0000
0000
0000
0000
0000
0001
0000
0000
0000
0000
0000
1000
0000
0001
0000
1000
0000
0001
0000
1000
0000
0001
0000
1000
0000
0001
0000
1000
0000
0001
0000
1000
0000
0001
0000
,
2000
0000
0000
0000
3010
0000
0200
0000
0000
0000
0000
0301
0010
0100
2000
0000
,
3001
0000
0000
0000
0100
0000
0010
0000
0000
1000
0000
0000
0010
0000
0100
0000
0001
0000
0000
0000
2000
0000
0000
0000
3200
0000
0000
0000
0320
0000
0000
0000
,
0032
0000
0000
0000
0103
0000
0020
0000
0000
0000
0000
0000
1030
0100
0020
0000
,
0031
0000
0000
0000
0010
0000
0100
0000
0000
1000
0000
0000
0100
0000
0010
0000
0001
0000
0000
0000
1000
0000
0010
0000
0200
0000
0320
0000
2030
0000
3002
0000
,
0013
0000
0000
0000
0100
0000
1000
0000
0000
0001
0000
0000
1000
0000
0100
0000
,
0010
0000
0000
0000
0001
0000
0100
0000
0000
0010
0000
0000
0100
0000
0001
0000
,
1000
0000
0000
0000
0100
0000
0010
0000
0001
1000
0000
0000
1000
0000
0001
0000
,
0100
0000
0000
0000
0100
0000
0010
0000
1000
0001
0000
0000
0001
0000
1000
0000
,
0100
0010
0001
1000
0001
0100
0010
1000
0001
0010
0100
1000
0001
1000
0010
0100
,
0001
1000
0001
0100
0010
1000
0100
1000
0010
0100
0001
0010
0001
0100
0010
1000
,
0001
1000
0001
1000
0001
1000
0001
1000
0001
1000
0001
1000
0001
1000
0001
1000
0001
1000
0001
1000
0001
1000
0001
1000
,
0002
0000
0000
0000
0000
0000
0000
0000
1003
0100
0000
0100
2000
0000
0000
0000
,
3010
0000
0100
0000
0002
0000
0000
0000
0013
0000
0100
0000
1000
0000
0010
0100
,
0001
0000
0010
0000
0200
0000
0000
0000
1300
0001
0000
0001
2000
0000
0000
0000
,
3010
0000
0100
0000
0002
0000
0000
0000
0013
0000
0100
0000
1000
0000
0001
0100
,
0010
0000
1000
0000
0002
0000
0000
0000
1003
0100
0000
0100
2000
0000
0000
0000
,
3010
0000
0100
0000
0002
0000
0000
0000
1003
0000
0100
0000
0001
0000
0100
1000
,
0001
0000
0100
0000
0020
0000
0000
0000
1030
0100
0000
0100
2000
0000
0000
0000
,
3010
0000
0100
0000
0002
0000
0000
0000
1003
0001
1000
0001
1000
0001
1000
0001
,
1000
0001
0000
0000
1001
0000
0000
0000
0001
0000
0100
0010
0100
0000
0001
0000
,
1000
0000
0000
0100
0000
0000
0010
0000
0000
0001
0000
0000
1000
0000
0000
0001
0000
0000
1000
0000
0100
0000
1000
0000
0100
0000
0000
1000
0000
0000
0001
0000
0000
0010
0000
0000
0001
0000
0000
0100
0000
0000
0002
0000
0000
0000
0000
0000
,
1003
0000
0000
0010
0000
0000
0000
0000
0000
0100
0000
0000
0001
0000
0000
1000
0000
0000
0001
0000
1000
0000
0001
0000
0200
0000
0000
0000
0000
0000
0310
0000
0000
1000
0000
0000
0001
0000
0000
1000
0000
0000
0200
0000
0000
0000
0000
0000
,
1300
0000
0000
0010
0000
0000
0100
0000
0000
0001
0000
0000
1000
0000
0000
0100
0000
0000
1000
0000
0100
0000
1000
0000
0002
0000
0000
0000
0000
0000
0000
0000
0000
1003
0000
0000
0020
0000
0000
0000
0000
0000
0230
0000
0000
0000
0000
0000
,
0000
0302
0000
0000
2003
0000
0000
0000
3001
0100
0010
1000
0001
0100
0010
1000
,
0001
0000
0000
0010
0000
0000
0100
0000
0000
1000
0000
0000
0001
0000
0000
0100
0000
0000
0010
0000
1000
0000
0010
0000
1000
0000
0000
0001
0000
0000
1000
0000
0000
0001
0000
0000
0010
0000
0000
0100
0000
0000
0010
0000
0000
0100
0000
0000
,
1000
0000
0000
0001
0000
0000
1000
0000
0000
0100
0000
0000
0010
0000
0000
0001
0000
0000
1000
0000
0001
0000
1000
0000
0001
0000
0000
0010
0000
0000
0001
0000
0000
0100
0000
0000
0010
0000
0000
1000
0000
0000
0100
0000
0000
1000
0000
0000
,
0010
0000
0000
0100
0000
0000
0001
0000
0000
1000
0000
0000
0001
0000
0000
1000
0000
0000
0001
0000
0010
0000
0100
0000
1000
0000
0000
0002
0000
0000
0000
0000
0000
0013
0000
0000
0200
0000
0000
0000
0000
0000
2300
0000
0000
0000
0000
0000
,
0000
0000
3002
0000
0000
0000
0000
0000
0203
0000
0000
0000
0320
0000
0000
0000
1030
0000
0000
0000
0100
0000
0010
0000
0000
0001
0000
0000
0010
0000
0100
0000
,
1000
0000
0000
0000
0001
0000
0100
0000
0000
0010
0000
0000
0100
0000
0001
0000
1000
0000
0000
0000
0100
0000
0010
0000
0000
0001
0000
0000
0010
0000
0100
0000
,
1000
0000
0000
0000
0010
0000
0100
0000
0000
0001
0000
0000
0010
0000
0100
0000
0010
0000
0100
0000
1000
0000
0001
0000
1000
0000
0010
0000
0100
0000
0001
0000
,
1000
0100
0010
0001
1000
0001
0100
0010
1000
0001
1000
0010
0100
0001
0010
0001
,
0100
0000
0000
0010
0000
0000
1000
0000
0000
0100
0000
0000
1000
0000
0000
0010
0000
0000
0100
0000
0000
0001
0000
0000
1000
0000
0001
0000
1000
0000
0001
0000
1000
0000
0001
0000
1000
0000
0001
0000
1000
0000
0001
0000
1000
0000
0001
0000
,
1000
0001
1000
0001
1000
0001
1000
0001
1000
0001
1000
0001
1000
0000
0010
0000
0100
0000
0001
0000
1000
0000
0001
0000
,
2002
0000
3003
0000
1010
0000
0101
0001
,
2000
3200
0320
0032
0203
0320
2030
3200
,
0310
0001
0000
0000
1000
0000
0001
0000
0101
0000
0000
0000
1010
0000
1000
0000
,
0004
0043
0430
4300
3004
0403
0340
4030
3004
0043
0430
4300
3004
4003
3400
0340
,
0032
0000
2003
0000
3001
0000
1010
1000
,
0002
0023
0230
2300
3002
0203
2300
3200
,
0301
1000
0000
0000
1001
0000
0000
0000
1100
0000
0000
0000
0010
0000
0100
0000
,
0000
0000
0110
0000
0000
0000
0000
0000
1001
0000
0000
0000
0000
0000
0000
0000
1000
0000
0000
0100
0010
0000
0001
0000
0000
1000
0000
0000
0010
0000
0100
0001
,
1000
0000
0100
0010
0100
0000
1000
0000
0002
0000
0203
0000
0320
0000
2030
0000
,
3200
0320
0032
0203
0320
2030
3002
0000
,
1003
0000
0100
0010
0100
0000
1000
0000
0004
0043
0430
4300
3004
0403
0340
4030
,
3004
0043
0430
4300
3002
0000
2003
0000
0000
3020
0000
0000
0230
0000
0000
0000
,
0301
0000
0100
0010
0100
0000
0001
0000
2000
0000
3020
0000
0230
0000
0302
0000
,
2003
0000
0000
0000
0000
0000
3200
0000
0000
0000
0000
0000
0302
0000
0000
0000
0000
0000
0203
0000
0000
0000
0000
0000
1300
0000
0000
0001
0000
0000
0000
0000
0000
0001
0000
0000
1000
0000
0000
0001
0000
0000
1000
0000
0100
0000
0010
0000
,
0001
0000
0000
0000
0000
0000
0200
0000
0000
0000
0000
0000
0320
0000
0000
0000
0000
0000
1030
0000
0000
0000
0000
0000
0200
0000
0000
0000
0000
0000
0320
0000
0000
0000
0000
0000
0031
0000
0000
1000
0000
0000
0001
0000
0010
0000
0100
0000
,
2000
3020
0230
0302
,
2003
0000
3200
0320
,
0000
0000
0000
0000
0031
0100
0020
0000
,
0000
0000
1030
0100
0001
0100
1000
0001
,
0000
1000
0002
0000
0203
0000
0320
0000
,
2030
0000
3002
0023
,
0000
0000
0000
0000
0130
1000
0002
0000
,
0000
0000
0103
0010
1000
0100
0001
0200
,
0000
0000
2300
0000
3002
0203
0320
2030
,
3010
0000
0000
0000
0100
0000
0001
0000
0000
1000
0000
0000
0001
0000
0100
0000
,
0010
0000
0000
0000
1000
0000
0100
0000
0000
0010
0000
0000
0100
0000
1000
0000
,
0001
0000
0000
0000
0100
0000
0010
0000
1000
0001
0000
0000
0001
0000
1000
0000
,
0100
0000
0000
0000
0100
0000
0010
0000
0001
1000
0000
0000
1000
0000
0001
0000
,
0100
0010
1000
0001
1000
0100
0010
0001
1000
0010
0100
0001
1000
0001
0010
0100
,
1000
0001
1000
0100
0010
0001
0100
0001
0010
0100
1000
0010
1000
0100
0010
0001
,
1000
0001
1000
0001
1000
0001
1000
0001
1000
0001
1000
0001
1000
0001
1000
0001
1000
0001
1000
0001
1000
0001
1000
0001
,
1000
0000
0000
00M0
0M00
000M
M000
0000
,
1010
0000
0101
0001
2000
3200
0320
0032
,
0203
0000
0320
0000
2030
0000
3200
0000
0310
0001
0000
0000
1000
0000
0001
0000
,
0101
0000
0000
0000
1010
0000
1000
0000
0004
0043
0430
4300
3004
0403
0340
4030
,
3004
0043
0430
4300
3004
4003
3400
0340
0032
0000
0000
0000
2003
0000
0000
0000
,
3001
0000
1010
1000
0002
0023
0230
2300
,
3002
0000
0203
0000
2300
0000
3200
0000
0301
1000
0000
0000
1001
0000
0000
0000
,
1100
0000
0000
0000
0010
0000
0100
0000
0000
0110
0000
0000
1001
0000
0000
0000
,
0001
0000
0000
0100
0010
0000
1000
0000
0000
0001
0000
0000
0010
0000
0100
1000
0001
0000
0000
0000
0010
0000
0100
0000
0010
0000
0000
0000
0001
0000
0000
0000
,
1000
0000
0000
0010
0000
0000
0100
0000
0000
0001
0000
0000
1000
0000
0000
0001
0000
0000
1000
0000
0010
0000
1000
0000
0010
0000
0000
1000
0000
0000
0001
0000
0000
0100
0000
0000
0001
0000
0000
0010
0000
0000
0002
0000
0000
0000
0000
0000
,
1003
0100
0000
0010
0002
0000
0000
0000
0023
0000
0130
1000
0001
1000
0020
0000
,
4030
0000
0000
3400
0000
0000
0340
0000
0000
0034
0000
0000
4003
0000
0000
3040
0000
0000
1030
0000
0010
0000
1000
0000
0002
0000
0000
0000
0000
0000
0000
0000
0000
1003
0000
0000
0200
0000
0000
0000
0000
0000
0320
0000
0000
0000
0000
0000
,
0000
0032
0000
0000
2003
0000
0000
0000
3001
0000
0100
0010
0100
0000
0001
0000
,
1000
0000
0000
0100
0000
0000
0010
0000
0000
0001
0000
0000
1000
0000
0000
0001
0000
0000
1000
0000
0100
0000
1000
0000
0100
0000
0000
1000
0000
0000
0001
0000
0000
0010
0000
0000
0001
0000
0000
0100
0000
0000
0002
0000
0000
0000
0000
0000
,
1003
0000
0000
0010
0000
0000
0000
0000
0000
0100
0000
0000
0001
0000
0000
1000
0000
0000
0001
0000
1000
0000
0001
0000
0200
0000
0000
0000
0000
0000
0310
0000
0000
1000
0000
0000
0001
0000
0000
1000
0000
0000
0200
0000
0000
0000
0000
0000
,
0310
0000
0000
0001
0000
0000
1000
0000
0000
0001
0000
0000
0100
0000
0000
0010
0000
0000
1000
0000
0100
0000
0010
0000
0002
0000
0000
0000
0000
0000
0000
0000
0000
1003
0000
0000
0020
0000
0000
0000
0000
0000
0230
0000
0000
0000
0000
0000
,
0000
0302
0000
0000
2003
0000
0000
0000
3001
0000
0000
0000
0100
0000
0010
0000
,
0000
1010
0000
0000
0102
0000
0000
0000
1003
0000
0000
0000
0100
0000
0010
0000
,
0000
0011
0000
0000
2100
0000
0000
0000
3001
0000
0000
0000
0100
0000
0010
0000
,
0000
1000
0000
0000
1001
0000
0000
0000
1000
0000
0000
0100
0010
0000
0001
0000
,
0000
1000
0000
0000
0001
0000
0000
0000
1000
0000
0000
0000
0100
0000
0010
0000
,
0000
0011
0000
0000
2100
0000
0000
0000
3001
0000
0000
0000
0100
0000
0010
0000
,
0000
1010
0000
0000
0102
0000
0000
0000
1003
0000
0000
0000
0100
0000
0010
0000
,
0000
0001
0000
0000
1001
0000
0000
0000
0001
0000
0000
0100
0010
0000
1000
0000
,
0000
0001
0000
0000
1000
0000
0100
0010
0001
0100
0000
0100
0002
0000
0000
0000
,
0013
0000
0100
0000
2000
0000
0000
0000
3010
0000
0100
0000
0001
0000
0010
0100
,
1000
0000
0010
0000
0200
0000
0000
0000
0301
1000
0000
1000
0002
0000
0000
0000
,
0013
0000
0100
0000
2000
0000
0000
0000
3010
0000
0100
0000
0001
0000
1000
0100
,
0010
0000
0001
0000
2000
0000
0000
0000
3001
0100
0000
0100
0002
0000
0000
0000
,
0013
0000
0100
0000
2000
0000
0000
0000
3001
0000
0100
0000
1000
0000
0100
0001
,
1000
0000
0100
0000
0020
0000
0000
0000
0031
0100
0000
0100
0002
0000
0000
0000
,
0013
0000
0100
0000
2000
0000
0000
0000
3001
1000
0001
1000
0001
1000
0001
1000
,
0001
1000
0000
0000
0110
0000
0000
0000
1001
0000
0000
0000
0000
0000
0000
0000
;

//---------------dance-single - C.Sanabria----------------
#NOTES:
     dance-single:
     C.Sanabria:
     Beginner:
     2:
     0.121,0.127,0.023,0.000,0.000:
0000
0000
0000
0000
,
0000
0000
0000
0000
,
0000
0000
0000
0000
,
0000
0000
0000
0000
,
0000
0000
0000
0000
,
0000
0000
0000
0000
,
0000
0000
0000
0000
,
0000
0000
0000
0000
,
1000
0000
0000
0000
,
1000
0000
0000
0000
,
0100
0000
0000
0000
,
0010
0000
0000
0000
,
0001
0000
0000
0000
,
0001
0000
0000
0000
,
0100
0000
0000
0000
,
0010
0000
0000
0000
,
1001
0000
0100
0000
,
0010
0000
0100
0000
,
1000
0000
0001
0000
,
1000
0000
0100
0000
,
0010
0000
0000
0000
,
0001
0000
0000
0000
,
1000
0000
0000
0000
,
0010
0000
0000
0000
,
0100
0000
0100
0000
,
0001
0000
0001
0000
,
1000
0000
1000
0000
,
1001
0000
1000
0000
,
0100
0000
0001
0000
,
0100
0000
1000
0000
,
0010
0000
0001
0000
,
0010
0000
1000
0000
,
0100
0000
0001
0000
,
0100
0000
1000
0000
,
0010
0000
0001
0000
,
0001
0000
1000
0000
,
1000
0000
1000
0000
,
1000
0000
0001
0000
,
0001
0000
0001
0000
,
0001
0000
0100
0000
,
0100
0000
0010
0000
,
0010
0000
1000
0000
,
1000
0000
0001
0000
,
0001
0000
1000
0000
,
0100
0000
0010
0000
,
0001
0000
1000
0000
,
1000
0000
0001
0000
,
0001
0000
0100
0000
,
0010
0000
1001
0000
,
0000
0000
1000
0000
,
0100
0000
1000
0000
,
0100
0000
0010
0000
,
0001
0000
0010
0000
,
0001
0000
0100
0000
,
0001
0000
0100
0000
,
0001
0000
1000
0000
,
0010
0000
1000
0000
,
1000
0000
0100
0000
,
1000
0000
0100
0000
,
0010
0000
0001
0000
,
0100
0000
0010
0000
,
1000
0000
0100
0000
,
1000
0000
0100
0000
,
0010
0000
0001
0000
,
0100
0000
0010
0000
,
1000
0000
0000
0000
,
1000
0000
0000
0000
,
1000
0000
0000
0000
,
1000
0000
0000
0000
,
0001
0000
0000
0000
,
0001
0000
0000
0000
,
0001
0000
0000
0000
,
0001
0000
0000
0000
,
1000
0000
0100
0000
,
1000
0000
0100
0000
,
0010
0000
0001
0000
,
0010
0000
0001
0000
,
1000
1000
1000
0000
,
0001
0001
0001
0000
,
0100
0000
0010
0000
,
1001
0000
0000
0000
,
1000
0000
0100
0000
,
1000
0000
0100
0000
,
0010
0000
0001
0000
,
0100
0000
0010
0000
,
1000
0000
0100
0000
,
1000
0000
0100
0000
,
0010
0000
0001
0000
,
0100
0000
0001
0000
,
0100
0000
1000
0000
,
0100
0000
0001
0000
,
1000
0000
0001
0000
,
1000
0000
0100
0000
,
0010
0000
0001
0000
,
1000
0000
0001
0000
,
0100
0000
1000
0000
,
0100
0000
0001
0000
,
0000
0000
1000
0000
,
0000
0000
0010
0000
,
0000
0000
0100
0000
,
0000
0000
0010
0000
,
0000
0000
1000
0000
,
0000
0000
0001
0000
,
0000
0000
0100
0000
,
0000
0000
0010
0000
,
1000
0000
0010
0000
,
0001
0000
0100
0000
,
1000
0000
0100
0000
,
0001
0000
0010
0000
,
1000
0000
0010
0000
,
0001
0000
0100
0000
,
1000
0000
0100
0000
,
0001
0000
1001
0000
;
